  0
SECTION
  2
HEADER
  9
$ACADVER
  1
AC1015
  9
$ACADMAINTVER
 70
    20
  9
$DWGCODEPAGE
  3
ANSI_932
  9
$INSBASE
 10
0.0
 20
0.0
 30
0.0
  9
$EXTMIN
 10
-0.0070183103996442
 20
-0.0033065199730231
 30
-0.0000000000022887
  9
$EXTMAX
 10
240.0084628611355
 20
95.00949594426202
 30
0.0000000000000001
  9
$LIMMIN
 10
-5.027069091796875
 20
-5.027082920074462
  9
$LIMMAX
 10
291.89892578125
 20
204.9462447166443
  9
$ORTHOMODE
 70
     0
  9
$REGENMODE
 70
     1
  9
$FILLMODE
 70
     1
  9
$QTEXTMODE
 70
     0
  9
$MIRRTEXT
 70
     0
  9
$LTSCALE
 40
1.0
  9
$ATTMODE
 70
     1
  9
$TEXTSIZE
 40
2.5
  9
$TRACEWID
 40
1.0
  9
$TEXTSTYLE
  7
STANDARD
  9
$CLAYER
  8
0
  9
$CELTYPE
  6
ByLayer
  9
$CECOLOR
 62
   256
  9
$CELTSCALE
 40
1.0
  9
$DISPSILH
 70
     0
  9
$DIMSCALE
 40
1.0
  9
$DIMASZ
 40
2.5
  9
$DIMEXO
 40
0.5
  9
$DIMDLI
 40
8.0
  9
$DIMRND
 40
0.0
  9
$DIMDLE
 40
0.0
  9
$DIMEXE
 40
1.0
  9
$DIMTP
 40
0.0
  9
$DIMTM
 40
0.0
  9
$DIMTXT
 40
3.5
  9
$DIMCEN
 40
0.0
  9
$DIMTSZ
 40
0.0
  9
$DIMTOL
 70
     0
  9
$DIMLIM
 70
     0
  9
$DIMTIH
 70
     0
  9
$DIMTOH
 70
     0
  9
$DIMSE1
 70
     0
  9
$DIMSE2
 70
     0
  9
$DIMTAD
 70
     3
  9
$DIMZIN
 70
     8
  9
$DIMBLK
  1
Open
  9
$DIMASO
 70
     1
  9
$DIMSHO
 70
     1
  9
$DIMPOST
  1

  9
$DIMAPOST
  1
"
  9
$DIMALT
 70
     0
  9
$DIMALTD
 70
     2
  9
$DIMALTF
 40
0.0393701
  9
$DIMLFAC
 40
1.0
  9
$DIMTOFL
 70
     1
  9
$DIMTVP
 40
0.0
  9
$DIMTIX
 70
     0
  9
$DIMSOXD
 70
     0
  9
$DIMSAH
 70
     0
  9
$DIMBLK1
  1

  9
$DIMBLK2
  1

  9
$DIMSTYLE
  2
AM_JIS
  9
$DIMCLRD
 70
   256
  9
$DIMCLRE
 70
   256
  9
$DIMCLRT
 70
   140
  9
$DIMTFAC
 40
0.55
  9
$DIMGAP
 40
0.8
  9
$DIMJUST
 70
     0
  9
$DIMSD1
 70
     0
  9
$DIMSD2
 70
     0
  9
$DIMTOLJ
 70
     0
  9
$DIMTZIN
 70
     8
  9
$DIMALTZ
 70
     0
  9
$DIMALTTZ
 70
     0
  9
$DIMUPT
 70
     0
  9
$DIMDEC
 70
     3
  9
$DIMTDEC
 70
     3
  9
$DIMALTU
 70
     2
  9
$DIMALTTD
 70
     2
  9
$DIMTXSTY
  7
STANDARD
  9
$DIMAUNIT
 70
     0
  9
$DIMADEC
 70
     0
  9
$DIMALTRND
 40
0.0
  9
$DIMAZIN
 70
     2
  9
$DIMDSEP
 70
    46
  9
$DIMATFIT
 70
     3
  9
$DIMFRAC
 70
     0
  9
$DIMLDRBLK
  1
Open
  9
$DIMLUNIT
 70
     2
  9
$DIMLWD
 70
    -1
  9
$DIMLWE
 70
    -1
  9
$DIMTMOVE
 70
     0
  9
$LUNITS
 70
     2
  9
$LUPREC
 70
     2
  9
$SKETCHINC
 40
1.0
  9
$FILLETRAD
 40
2.5
  9
$AUNITS
 70
     0
  9
$AUPREC
 70
     0
  9
$MENU
  1
.
  9
$ELEVATION
 40
0.0
  9
$PELEVATION
 40
0.0
  9
$THICKNESS
 40
0.0
  9
$LIMCHECK
 70
     0
  9
$CHAMFERA
 40
2.5
  9
$CHAMFERB
 40
2.5
  9
$CHAMFERC
 40
20.0
  9
$CHAMFERD
 40
0.0
  9
$SKPOLY
 70
     0
  9
$TDCREATE
 40
2456560.670876007
  9
$TDUCREATE
 40
2456560.295876007
  9
$TDUPDATE
 40
2457997.661537570
  9
$TDUUPDATE
 40
2457997.286537570
  9
$TDINDWG
 40
0.0314642708
  9
$TDUSRTIMER
 40
0.0314642245
  9
$USRTIMER
 70
     1
  9
$ANGBASE
 50
0.0
  9
$ANGDIR
 70
     0
  9
$PDMODE
 70
     0
  9
$PDSIZE
 40
0.0
  9
$PLINEWID
 40
0.0
  9
$SPLFRAME
 70
     0
  9
$SPLINETYPE
 70
     6
  9
$SPLINESEGS
 70
     8
  9
$HANDSEED
  5
927
  9
$SURFTAB1
 70
     6
  9
$SURFTAB2
 70
     6
  9
$SURFTYPE
 70
     6
  9
$SURFU
 70
     6
  9
$SURFV
 70
     6
  9
$UCSBASE
  2

  9
$UCSNAME
  2

  9
$UCSORG
 10
0.0
 20
0.0
 30
0.0
  9
$UCSXDIR
 10
1.0
 20
0.0
 30
0.0
  9
$UCSYDIR
 10
0.0
 20
1.0
 30
0.0
  9
$UCSORTHOREF
  2

  9
$UCSORTHOVIEW
 70
     0
  9
$UCSORGTOP
 10
0.0
 20
0.0
 30
0.0
  9
$UCSORGBOTTOM
 10
0.0
 20
0.0
 30
0.0
  9
$UCSORGLEFT
 10
0.0
 20
0.0
 30
0.0
  9
$UCSORGRIGHT
 10
0.0
 20
0.0
 30
0.0
  9
$UCSORGFRONT
 10
0.0
 20
0.0
 30
0.0
  9
$UCSORGBACK
 10
0.0
 20
0.0
 30
0.0
  9
$PUCSBASE
  2

  9
$PUCSNAME
  2

  9
$PUCSORG
 10
0.0
 20
0.0
 30
0.0
  9
$PUCSXDIR
 10
1.0
 20
0.0
 30
0.0
  9
$PUCSYDIR
 10
0.0
 20
1.0
 30
0.0
  9
$PUCSORTHOREF
  2

  9
$PUCSORTHOVIEW
 70
     0
  9
$PUCSORGTOP
 10
0.0
 20
0.0
 30
0.0
  9
$PUCSORGBOTTOM
 10
0.0
 20
0.0
 30
0.0
  9
$PUCSORGLEFT
 10
0.0
 20
0.0
 30
0.0
  9
$PUCSORGRIGHT
 10
0.0
 20
0.0
 30
0.0
  9
$PUCSORGFRONT
 10
0.0
 20
0.0
 30
0.0
  9
$PUCSORGBACK
 10
0.0
 20
0.0
 30
0.0
  9
$USERI1
 70
     0
  9
$USERI2
 70
     0
  9
$USERI3
 70
     0
  9
$USERI4
 70
     0
  9
$USERI5
 70
     0
  9
$USERR1
 40
0.0
  9
$USERR2
 40
0.0
  9
$USERR3
 40
0.0
  9
$USERR4
 40
0.0
  9
$USERR5
 40
0.0
  9
$WORLDVIEW
 70
     1
  9
$SHADEDGE
 70
     3
  9
$SHADEDIF
 70
    70
  9
$TILEMODE
 70
     1
  9
$MAXACTVP
 70
    64
  9
$PINSBASE
 10
0.0
 20
0.0
 30
0.0
  9
$PLIMCHECK
 70
     0
  9
$PEXTMIN
 10
1.000000000000000E+20
 20
1.000000000000000E+20
 30
1.000000000000000E+20
  9
$PEXTMAX
 10
-1.000000000000000E+20
 20
-1.000000000000000E+20
 30
-1.000000000000000E+20
  9
$PLIMMIN
 10
0.0
 20
0.0
  9
$PLIMMAX
 10
12.0
 20
9.0
  9
$UNITMODE
 70
     0
  9
$VISRETAIN
 70
     1
  9
$PLINEGEN
 70
     0
  9
$PSLTSCALE
 70
     1
  9
$TREEDEPTH
 70
  3020
  9
$CMLSTYLE
  2
Standard
  9
$CMLJUST
 70
     0
  9
$CMLSCALE
 40
20.0
  9
$PROXYGRAPHICS
 70
     1
  9
$MEASUREMENT
 70
     1
  9
$CELWEIGHT
370
    -1
  9
$ENDCAPS
280
     0
  9
$JOINSTYLE
280
     0
  9
$LWDISPLAY
290
     0
  9
$INSUNITS
 70
     4
  9
$HYPERLINKBASE
  1

  9
$STYLESHEET
  1

  9
$XEDIT
290
     1
  9
$CEPSNTYPE
380
     0
  9
$PSTYLEMODE
290
     1
  9
$FINGERPRINTGUID
  2
{3EED559E-0ADF-4513-8C31-526338094843}
  9
$VERSIONGUID
  2
{84C5F05E-F0EF-437E-ADDE-37F8E8A8882D}
  9
$EXTNAMES
290
     1
  9
$PSVPSCALE
 40
0.0
  9
$OLESTARTUP
290
     0
  0
ENDSEC
  0
SECTION
  2
CLASSES
  0
CLASS
  1
ACDBDICTIONARYWDFLT
  2
AcDbDictionaryWithDefault
  3
ObjectDBX Classes
 90
        0
280
     0
281
     0
  0
CLASS
  1
MATERIAL
  2
AcDbMaterial
  3
ObjectDBX Classes
 90
     1153
280
     0
281
     0
  0
CLASS
  1
VISUALSTYLE
  2
AcDbVisualStyle
  3
ObjectDBX Classes
 90
     4095
280
     0
281
     0
  0
CLASS
  1
SCALE
  2
AcDbScale
  3
ObjectDBX Classes
 90
     1153
280
     0
281
     0
  0
CLASS
  1
TABLESTYLE
  2
AcDbTableStyle
  3
ObjectDBX Classes
 90
     4095
280
     0
281
     0
  0
CLASS
  1
MLEADERSTYLE
  2
AcDbMLeaderStyle
  3
ACDB_MLEADERSTYLE_CLASS
 90
     4095
280
     0
281
     0
  0
CLASS
  1
DIMASSOC
  2
AcDbDimAssoc
  3
"AcDbDimAssoc|Product Desc:     AcDim ARX App For Dimension|Company:          Autodesk, Inc.|WEB Address:      www.autodesk.com"
 90
        0
280
     0
281
     0
  0
CLASS
  1
SORTENTSTABLE
  2
AcDbSortentsTable
  3
ObjectDBX Classes
 90
        0
280
     0
281
     0
  0
CLASS
  1
DICTIONARYVAR
  2
AcDbDictionaryVar
  3
ObjectDBX Classes
 90
        0
280
     0
281
     0
  0
CLASS
  1
ACME_DOCUMENT
  2
AcMeDbDoc
  3
AcMeServices
 90
     1024
280
     0
281
     0
  0
CLASS
  1
AMGSETTINGSOBJ
  2
AmgSettingsObj
  3
"AcadM|Product Description: AutoCAD Mechanical|Company: Autodesk, Inc."
 90
     1024
280
     0
281
     0
  0
CLASS
  1
AMGOBJPROPCFG
  2
AmgObjPropCfg
  3
"AmgLay|Product Description: AutoCAD Mechanical|Company: Autodesk, Inc."
 90
     1025
280
     0
281
     0
  0
CLASS
  1
ACMESCOPE
  2
AcMeScope
  3
AcMeServices
 90
     1024
280
     0
281
     0
  0
CLASS
  1
ACGREFMASTER
  2
AcGrefMaster
  3
AcAttribServices
 90
     1024
280
     0
281
     0
  0
CLASS
  1
ACMECOMMANDHISTORY
  2
AcMeCommandHistory
  3
AcMeServices
 90
     1024
280
     0
281
     0
  0
CLASS
  1
ACIMSYSVARMAN
  2
AcImSysVarManager
  3
AcMeServices
 90
     1024
280
     0
281
     0
  0
CLASS
  1
ACIMINTSYSVAR
  2
AcImIntSysVar
  3
AcMeServices
 90
     1024
280
     0
281
     0
  0
CLASS
  1
ACMEDRAWINGMAN
  2
AcMeDrawingMan
  3
AcMeServices
 90
     1024
280
     0
281
     0
  0
CLASS
  1
ACMEVIEW
  2
AcMeView
  3
AcMeServices
 90
     1024
280
     0
281
     0
  0
CLASS
  1
ACDBENTITYCACHE
  2
AcMeEntityCache
  3
AcMeServices
 90
     1024
280
     0
281
     0
  0
CLASS
  1
ACMESTATEMGR
  2
AcMeStateMgr
  3
AcMeServices
 90
     1024
280
     0
281
     0
  0
CLASS
  1
AM_DRAWING_MGR
  2
AcDmDwgMgr
  3
AcMechDwgViewMgmt
 90
     1024
280
     0
281
     0
  0
CLASS
  1
AM_DWG_DOCUMENT
  2
AcDmDwgDocument
  3
AcMechDwgViewMgmt
 90
     1024
280
     0
281
     0
  0
CLASS
  1
AM_DWG_SHEET
  2
AcDmSheet
  3
AcMechDwgViewMgmt
 90
     1024
280
     0
281
     0
  0
CLASS
  1
AM_VIEWDIMPARMAP
  2
AcDmViewDimParMap
  3
AcMechDwgViewMgmt
 90
     1024
280
     0
281
     0
  0
CLASS
  1
AMDTINTERNALREACTOR
  2
AmdtInternalReactor
  3
AcMeServices
 90
     1024
280
     0
281
     0
  0
CLASS
  1
ACIMREALSYSVAR
  2
AcImRealSysVar
  3
AcMeServices
 90
     1024
280
     0
281
     0
  0
CLASS
  1
AM_DWGMGR_NAME
  2
AcDmDwgMgrName
  3
AcMechDwgViewMgmt
 90
     1024
280
     0
281
     0
  0
CLASS
  1
ACME_DATABASE
  2
AcMeDbDatabase
  3
AcMeServices
 90
     1024
280
     0
281
     0
  0
CLASS
  1
ACRFINSADJUSTERMGR
  2
AcRfInsAdjusterMgr
  3
AcMeServices
 90
     1024
280
     0
281
     0
  0
CLASS
  1
ACGREFACADMASTER
  2
AcGrefacadMaster
  3
AcGrefServices
 90
     1024
280
     0
281
     0
  0
CLASS
  1
AMDTMENUSTATEMGR
  2
AmdtMenuStateMgr
  3
McadcomServices
 90
     1024
280
     0
281
     0
  0
CLASS
  1
AMDTMCOMMENUSTATE
  2
AmdtMcomMenuState
  3
McadcomServices
 90
     1024
280
     0
281
     0
  0
CLASS
  1
AMIMASTER
  2
AmiMaster
  3
AmiServices
 90
     1024
280
     0
281
     0
  0
CLASS
  1
MAPIAMMOUDLE
  2
MApiAmModule
  3
MApiAmServices
 90
     1024
280
     0
281
     0
  0
CLASS
  1
AMDTWELDINGLIBRARY
  2
AmdtWeldingLibrary
  3
"AcmSymBB|Product Description: AutoCAD Mechanical|Company: Autodesk, Inc."
 90
    36863
280
     0
281
     0
  0
CLASS
  1
AMDTWELDINGLIBOBJECT
  2
AmdtWeldingLibObject
  3
"AcmSymBB|Product Description: AutoCAD Mechanical|Company: Autodesk, Inc."
 90
    36863
280
     0
281
     0
  0
CLASS
  1
AMDTEDGELIBRARY
  2
AmdtEdgeLibrary
  3
"AcmSymBB|Product Description: AutoCAD Mechanical|Company: Autodesk, Inc."
 90
    36863
280
     0
281
     0
  0
CLASS
  1
AMDTEDGELIBOBJECT
  2
AmdtEdgeLibObject
  3
"AcmSymBB|Product Description: AutoCAD Mechanical|Company: Autodesk, Inc."
 90
    36863
280
     0
281
     0
  0
CLASS
  1
AMDTFCFLIBRARY
  2
AmdtFCFLibrary
  3
"AcmSymBB|Product Description: AutoCAD Mechanical|Company: Autodesk, Inc."
 90
    36863
280
     0
281
     0
  0
CLASS
  1
AMDTFCFLIBOBJECT
  2
AmdtFCFLibObject
  3
"AcmSymBB|Product Description: AutoCAD Mechanical|Company: Autodesk, Inc."
 90
    36863
280
     0
281
     0
  0
CLASS
  1
ACMSTANDARDJIS
  2
AcmStandardJIS
  3
"Amdt_StdImp|Product Description: AutoCAD Mechanical|Company: Autodesk, Inc."
 90
     1024
280
     0
281
     0
  0
CLASS
  1
ACMSURFSTANDARDJIS2003
  2
AcmSurfTextStdJIS2003
  3
"Amdt_StdImp|Product Description: AutoCAD Mechanical|Company: Autodesk, Inc."
 90
     1024
280
     0
281
     0
  0
CLASS
  1
ACMFCFSTANDARDJIS98
  2
AcmFCFStdJIS98
  3
"Amdt_StdImp|Product Description: AutoCAD Mechanical|Company: Autodesk, Inc."
 90
     1024
280
     0
281
     0
  0
CLASS
  1
ACMWELDSTANDARDJIS
  2
AcmWeldingStdJIS
  3
"Amdt_StdImp|Product Description: AutoCAD Mechanical|Company: Autodesk, Inc."
 90
     1024
280
     0
281
     0
  0
CLASS
  1
ACMIDSTANDARDJIS
  2
AcmIdStdJIS
  3
"Amdt_StdImp|Product Description: AutoCAD Mechanical|Company: Autodesk, Inc."
 90
     1024
280
     0
281
     0
  0
CLASS
  1
ACMDATUMSTANDARDJIS
  2
AcmDatumStdJIS
  3
"Amdt_StdImp|Product Description: AutoCAD Mechanical|Company: Autodesk, Inc."
 90
     1024
280
     0
281
     0
  0
CLASS
  1
ACMBOMSTANDARDJIS
  2
AcmBOMStdJIS
  3
"Amdt_StdImp|Product Description: AutoCAD Mechanical|Company: Autodesk, Inc."
 90
     1024
280
     0
281
     0
  0
CLASS
  1
ACMDETAILSTANDARDJIS
  2
AmdtDetailSymStdJIS
  3
"Amdt_StdImp|Product Description: AutoCAD Mechanical|Company: Autodesk, Inc."
 90
     1024
280
     0
281
     0
  0
CLASS
  1
ACMSECTIONSTANDARDJIS
  2
AmdtSectionSymStdJIS
  3
"Amdt_StdImp|Product Description: AutoCAD Mechanical|Company: Autodesk, Inc."
 90
     1024
280
     0
281
     0
  0
CLASS
  1
ACMCENTERLINESTANDARDJIS
  2
AmdtCenterLineStdJIS
  3
"Amdt_StdImp|Product Description: AutoCAD Mechanical|Company: Autodesk, Inc."
 90
     1024
280
     0
281
     0
  0
CLASS
  1
ACMTHREADLINESTANDARDJIS
  2
AmdtThreadLineStdJIS
  3
"Amdt_StdImp|Product Description: AutoCAD Mechanical|Company: Autodesk, Inc."
 90
     1024
280
     0
281
     0
  0
CLASS
  1
ACAMGLAYSTD
  2
AcAmgLayStd
  3
"AmgLay|Product Description: AutoCAD Mechanical|Company: Autodesk, Inc."
 90
     1024
280
     0
281
     0
  0
CLASS
  1
ACAMGDIMSTD
  2
AcAmgDimStd
  3
"AmgDim|Product Description: AutoCAD Mechanical|Company: Autodesk, Inc."
 90
     1024
280
     0
281
     0
  0
CLASS
  1
ACAMGTITLESTD
  2
AcAmgTitleStd
  3
"AmgTitle|Product Description: AutoCAD Mechanical|Company: Autodesk, Inc."
 90
     4095
280
     0
281
     0
  0
CLASS
  1
ACMNOTESTANDARDJIS
  2
AmdtNoteStdJIS
  3
"Amdt_StdImp|Product Description: AutoCAD Mechanical|Company: Autodesk, Inc."
 90
     1024
280
     0
281
     0
  0
CLASS
  1
AMDTNOTETEMPLATEDB
  2
AmdtNoteTemplateDB
  3
AcmSymBB|Product Description: AutoCAD Mechanical|Company: Autodesk, Inc.
 90
     1024
280
     0
281
     0
  0
CLASS
  1
ACAMGHOLECHARTSTDJIS
  2
AcAmgHoleChartStdJIS
  3
AmgDim|Product Description: AutoCAD Mechanical|Company: Autodesk, Inc.
 90
     1024
280
     0
281
     0
  0
CLASS
  1
ACMTAPERSTANDARDJIS
  2
AcmTaperStdJIS
  3
"Amdt_StdImp|Product Description: AutoCAD Mechanical|Company: Autodesk, Inc."
 90
     1024
280
     0
281
     0
  0
CLASS
  1
ACMANOOTATIONVIEWSTANDARDJIS
  2
AmdtAnViewStdJIS
  3
"Amdt_StdImp|Product Description: AutoCAD Mechanical|Company: Autodesk, Inc."
 90
     1024
280
     0
281
     0
  0
CLASS
  1
AMDTEDGESTANDARDJIS
  2
AmdtEdgeStdJIS
  3
"Amdt_StdImp|Product Description: AutoCAD Mechanical|Company: Autodesk, Inc."
 90
     1024
280
     0
281
     0
  0
CLASS
  1
ACIMSTRSYSVAR
  2
AcImStrSysVar
  3
AcMeServices
 90
     1024
280
     0
281
     0
  0
CLASS
  1
AMDTADMENUSTATE
  2
AmdtAdMenuState
  3
DesignerServices
 90
     1024
280
     0
281
     0
  0
CLASS
  1
ADAPPL
  2
AcAdAppl
  3
DesignerServices
 90
     1024
280
     0
281
     0
  0
CLASS
  1
DEPMGR
  2
AcAdDepMgr
  3
DesignerServices
 90
     1024
280
     0
281
     0
  0
CLASS
  1
PARAMMGR
  2
AcAdParamMgr
  3
DesignerServices
 90
     1024
280
     0
281
     0
  0
CLASS
  1
PARAMSCOPE
  2
AcAdParamScope
  3
DesignerServices
 90
     1024
280
     0
281
     0
  0
CLASS
  1
NAMEDAPPL
  2
AcAdNamedAppl
  3
DesignerServices
 90
     1024
280
     0
281
     0
  0
CLASS
  1
AMDTDMMENUSTATE
  2
AmdtDmMenuState
  3
AcMechDwgViewMgmt
 90
     1024
280
     0
281
     0
  0
CLASS
  1
AMDTAMMENUSTATE
  2
AmdtAmMenuState
  3
DesignerAssemblies
 90
     1024
280
     0
281
     0
  0
CLASS
  1
ACAMPROJECT
  2
AcAmProject
  3
DesignerAssemblies
 90
     1024
280
     0
281
     0
  0
CLASS
  1
ACAMGRCOMPDEF
  2
AcAmGrCompDef
  3
DesignerAssemblies
 90
     1024
280
     0
281
     0
  0
CLASS
  1
ACAMCOMPDEF
  2
AcAmCompDef
  3
DesignerAssemblies
 90
     1024
280
     0
281
     0
  0
CLASS
  1
ACAMCOMPDEFMGR
  2
AcAmCompDefMgr
  3
DesignerAssemblies
 90
     1024
280
     0
281
     0
  0
CLASS
  1
AMCONTEXTMGR
  2
AcAmContextMgr
  3
DesignerAssemblies
 90
     1024
280
     0
281
     0
  0
CLASS
  1
ACAMCONTEXTMODELER
  2
AcAmContextModeler
  3
DesignerAssemblies
 90
     1024
280
     0
281
     0
  0
CLASS
  1
ACMDATADICTIONARY
  2
AcmDataDictionary
  3
"AcmSymBB|Product Description: AutoCAD Mechanical|Company: Autodesk, Inc."
 90
     1024
280
     0
281
     0
  0
CLASS
  1
CATALOGSTATE
  2
AcAmCatalogState
  3
DesignerAssemblies
 90
     1024
280
     0
281
     0
  0
CLASS
  1
ACAMGRCOMPDEFSET
  2
AcAmGrCompDefSet
  3
DesignerAssemblies
 90
     1024
280
     0
281
     0
  0
CLASS
  1
AMDTBROWSERDBTAB
  2
AmdtBrowserDbTab
  3
McadcomServices
 90
     1024
280
     0
281
     0
  0
CLASS
  1
CBROWSERAPPOBJECT
  2
CBrowserAppObject
  3
McadcomServices
 90
     1024
280
     0
281
     0
  0
CLASS
  1
DM_PLACEHOLDER
  2
AcDmSelsetPlaceholder
  3
AcMechDwgViewMgmt
 90
     1024
280
     0
281
     0
  0
CLASS
  1
EXACXREFPANELOBJECT
  2
ExAcXREFPanelObject
  3
EXAC_ESW
 90
    33793
280
     0
281
     0
  0
CLASS
  1
NPOCOLLECTION
  2
AcDbImpNonPersistentObjectsCollection
  3
ObjectDBX Classes
 90
    33921
280
     0
281
     0
  0
CLASS
  1
ACAMGFILTERDAT
  2
AcAmgFilterDat
  3
"AcadM|Product Description: AutoCAD Mechanical|Company: Autodesk, Inc."
 90
    33792
280
     0
281
     0
  0
CLASS
  1
CELLSTYLEMAP
  2
AcDbCellStyleMap
  3
ObjectDBX Classes
 90
     1152
280
     0
281
     0
  0
CLASS
  1
ACDBPLACEHOLDER
  2
AcDbPlaceHolder
  3
ObjectDBX Classes
 90
        0
280
     0
281
     0
  0
CLASS
  1
LAYOUT
  2
AcDbLayout
  3
ObjectDBX Classes
 90
        0
280
     0
281
     0
  0
CLASS
  1
ACMSTANDARDISO
  2
AcmStandardISO
  3
"Amdt_StdImp|Product Description: AutoCAD Mechanical|Company: Autodesk, Inc."
 90
     1024
280
     0
281
     0
  0
CLASS
  1
AMDTEDGESTANDARDISO13715
  2
AmdtEdgeStdISO13715
  3
"Amdt_StdImp|Product Description: AutoCAD Mechanical|Company: Autodesk, Inc."
 90
     1024
280
     0
281
     0
  0
CLASS
  1
ACMSURFSTANDARDISO2002
  2
AcmSurfTextStdISO2002
  3
"Amdt_StdImp|Product Description: AutoCAD Mechanical|Company: Autodesk, Inc."
 90
     1024
280
     0
281
     0
  0
CLASS
  1
ACMFCFSTANDARDISO
  2
AcmFCFStdISO
  3
"Amdt_StdImp|Product Description: AutoCAD Mechanical|Company: Autodesk, Inc."
 90
     1024
280
     0
281
     0
  0
CLASS
  1
ACMWELDSTANDARDISO
  2
AcmWeldingStdISO
  3
"Amdt_StdImp|Product Description: AutoCAD Mechanical|Company: Autodesk, Inc."
 90
     1024
280
     0
281
     0
  0
CLASS
  1
ACMIDSTANDARDISO
  2
AcmIdStdISO
  3
"Amdt_StdImp|Product Description: AutoCAD Mechanical|Company: Autodesk, Inc."
 90
     1024
280
     0
281
     0
  0
CLASS
  1
ACMDATUMSTANDARDISO
  2
AcmDatumStdISO
  3
"Amdt_StdImp|Product Description: AutoCAD Mechanical|Company: Autodesk, Inc."
 90
     1024
280
     0
281
     0
  0
CLASS
  1
ACMBOMSTANDARDISO
  2
AcmBOMStdISO
  3
"Amdt_StdImp|Product Description: AutoCAD Mechanical|Company: Autodesk, Inc."
 90
     1024
280
     0
281
     0
  0
CLASS
  1
ACMDETAILSTANDARDISO
  2
AmdtDetailSymStdISO
  3
"Amdt_StdImp|Product Description: AutoCAD Mechanical|Company: Autodesk, Inc."
 90
     1024
280
     0
281
     0
  0
CLASS
  1
ACMSECTIONSTANDARDISO2001
  2
AmdtSectionSymStdISO2001
  3
"Amdt_StdImp|Product Description: AutoCAD Mechanical|Company: Autodesk, Inc."
 90
     1024
280
     0
281
     0
  0
CLASS
  1
ACMCENTERLINESTANDARDISO
  2
AmdtCenterLineStdISO
  3
"Amdt_StdImp|Product Description: AutoCAD Mechanical|Company: Autodesk, Inc."
 90
     1024
280
     0
281
     0
  0
CLASS
  1
ACMTHREADLINESTANDARDISO
  2
AmdtThreadLineStdISO
  3
"Amdt_StdImp|Product Description: AutoCAD Mechanical|Company: Autodesk, Inc."
 90
     1024
280
     0
281
     0
  0
CLASS
  1
ACMNOTESTANDARDISO
  2
AmdtNoteStdISO
  3
"Amdt_StdImp|Product Description: AutoCAD Mechanical|Company: Autodesk, Inc."
 90
     1024
280
     0
281
     0
  0
CLASS
  1
ACMTAPERSTANDARDISO
  2
AcmTaperStdISO
  3
"Amdt_StdImp|Product Description: AutoCAD Mechanical|Company: Autodesk, Inc."
 90
     1024
280
     0
281
     0
  0
CLASS
  1
ACMANOOTATIONVIEWSTANDARDISO
  2
AmdtAnViewStdISO
  3
"Amdt_StdImp|Product Description: AutoCAD Mechanical|Company: Autodesk, Inc."
 90
     1024
280
     0
281
     0
  0
CLASS
  1
ACAMGHOLECHARTSTDISO
  2
AcAmgHoleChartStdISO
  3
AmgDim|Product Description: AutoCAD Mechanical|Company: Autodesk, Inc.
 90
     1024
280
     0
281
     0
  0
CLASS
  1
AMDTNOTE
  2
AmdtNote
  3
"AcmSymBB|Product Description: AutoCAD Mechanical|Company: Autodesk, Inc."
 90
     4095
280
     0
281
     1
  0
ENDSEC
  0
SECTION
  2
TABLES
  0
TABLE
  2
VPORT
  5
8
330
0
100
AcDbSymbolTable
 70
     1
  0
VPORT
  5
52
330
8
100
AcDbSymbolTableRecord
100
AcDbViewportTableRecord
  2
*Active
 70
     0
 10
0.0
 20
0.0
 11
1.0
 21
1.0
 12
120.0007222753679
 22
47.5030947121445
 13
0.0
 23
0.0
 14
10.0
 24
10.0
 15
10.0
 25
10.0
 16
0.0
 26
0.0
 36
1.0
 17
0.0
 27
0.0
 37
0.0
 40
95.86877365760654
 41
2.783458646616541
 42
50.0
 43
0.0
 44
0.0
 50
0.0
 51
0.0
 71
     0
 72
  1000
 73
     1
 74
     1
 75
     0
 76
     0
 77
     0
 78
     0
281
     0
 65
     0
110
0.0
120
0.0
130
0.0
111
1.0
121
0.0
131
0.0
112
0.0
122
1.0
132
0.0
 79
     0
146
0.0
  0
ENDTAB
  0
TABLE
  2
LTYPE
  5
5
330
0
100
AcDbSymbolTable
 70
    18
  0
LTYPE
  5
56
330
5
100
AcDbSymbolTableRecord
100
AcDbLinetypeTableRecord
  2
ByBlock
 70
     0
  3

 72
    65
 73
     0
 40
0.0
  0
LTYPE
  5
57
330
5
100
AcDbSymbolTableRecord
100
AcDbLinetypeTableRecord
  2
ByLayer
 70
     0
  3

 72
    65
 73
     0
 40
0.0
  0
LTYPE
  5
58
330
5
100
AcDbSymbolTableRecord
100
AcDbLinetypeTableRecord
  2
Continuous
 70
     0
  3
Solid line
 72
    65
 73
     0
 40
0.0
  0
LTYPE
  5
93
330
5
100
AcDbSymbolTableRecord
100
AcDbLinetypeTableRecord
  2
AM_ISO02W050
 70
     0
  3
__ __ __ __ __ __ __ __ __ __ __ __ __ __ __
 72
    65
 73
     2
 40
7.5
 49
6.0
 74
     0
 49
-1.5
 74
     0
  0
LTYPE
  5
94
330
5
100
AcDbSymbolTableRecord
100
AcDbLinetypeTableRecord
  2
AM_ISO08W050
 70
     0
  3
____ . ____ . ____ . ____ . ____ . ____ . ____
 72
    65
 73
     4
 40
18.0
 49
12.0
 74
     0
 49
-1.5
 74
     0
 49
3.0
 74
     0
 49
-1.5
 74
     0
  0
LTYPE
  5
95
330
5
100
AcDbSymbolTableRecord
100
AcDbLinetypeTableRecord
  2
AM_ISO09W050
 70
     0
  3
_____ . . _____ . . _____ . . ____ .. ____
 72
    65
 73
     6
 40
22.5
 49
12.0
 74
     0
 49
-1.5
 74
     0
 49
3.0
 74
     0
 49
-1.5
 74
     0
 49
3.0
 74
     0
 49
-1.5
 74
     0
  0
LTYPE
  5
96
330
5
100
AcDbSymbolTableRecord
100
AcDbLinetypeTableRecord
  2
Amconstr
 70
     0
  3
_______________________
 72
    65
 73
     2
 40
9999.0
 49
9999.0
 74
     0
 49
0.0
 74
     0
  0
LTYPE
  5
97
330
5
100
AcDbSymbolTableRecord
100
AcDbLinetypeTableRecord
  2
AM_ISO08W050x2
 70
     0
  3
__ . __ . __ . __ . __ . __
 72
    65
 73
     4
 40
9.0
 49
6.0
 74
     0
 49
-0.75
 74
     0
 49
1.5
 74
     0
 49
-0.75
 74
     0
  0
LTYPE
  5
98
330
5
100
AcDbSymbolTableRecord
100
AcDbLinetypeTableRecord
  2
AM_ISO02W050x2
 70
     0
  3
 _ _ _ _ _ _ _ _ _ _ _ _
 72
    65
 73
     2
 40
3.75
 49
3.0
 74
     0
 49
-0.75
 74
     0
  0
LTYPE
  5
99
330
5
100
AcDbSymbolTableRecord
100
AcDbLinetypeTableRecord
  2
Amzigzag
 70
     0
  3
/\/-/\/-/\/-/\/-/\/-/\/
 72
    65
 73
     2
 40
11.0001
 49
0.0001
 74
     4
 75
   136
340
8A
 46
0.04
 50
0.0
 44
0.0
 45
0.0
 49
-11.0
 74
     0
  0
LTYPE
  5
9A
330
5
100
AcDbSymbolTableRecord
100
AcDbLinetypeTableRecord
  2
ACJISTGB
 70
     0
  3
__ . . __ . .
 72
    65
 73
     6
 40
9.0
 49
4.0
 74
     0
 49
-1.0
 74
     0
 49
1.0
 74
     0
 49
-1.0
 74
     0
 49
1.0
 74
     0
 49
-1.0
 74
     0
  0
LTYPE
  5
9B
330
5
100
AcDbSymbolTableRecord
100
AcDbLinetypeTableRecord
  2
ACJISTGL
 70
     0
  3
_ _ _ _ _
 72
    65
 73
     2
 40
3.0
 49
2.0
 74
     0
 49
-1.0
 74
     0
  0
LTYPE
  5
9C
330
5
100
AcDbSymbolTableRecord
100
AcDbLinetypeTableRecord
  2
HIDDEN
 70
     0
  3
Hidden __ __ __ __ __ __ __ __ __ __ __ __ __ _
 72
    65
 73
     2
 40
9.524999999999996
 49
6.349999999999998
 74
     0
 49
-3.174999999999998
 74
     0
  0
LTYPE
  5
9D
330
5
100
AcDbSymbolTableRecord
100
AcDbLinetypeTableRecord
  2
ACJISWELD
 70
     0
  3
_ _ _ _ _
 72
    65
 73
     2
 40
2.0
 49
2.0
 74
     0
 49
-1.0
 74
     0
  0
LTYPE
  5
9E
330
5
100
AcDbSymbolTableRecord
100
AcDbLinetypeTableRecord
  2
DASH_DOT
 70
     0
  3
Dash dot __ . __ . __ . __ . __ . __ . __ . __
 72
    65
 73
     4
 40
0.37
 49
0.24
 74
     0
 49
-0.06
 74
     0
 49
0.01
 74
     0
 49
-0.06
 74
     0
  0
LTYPE
  5
9F
330
5
100
AcDbSymbolTableRecord
100
AcDbLinetypeTableRecord
  2
PHANTOM2
 70
     0
  3
Phantom (.5x) ___ _ _ ___ _ _ ___ _ _ ___ _ _
 72
    65
 73
     6
 40
31.75
 49
15.875
 74
     0
 49
-3.174999999999998
 74
     0
 49
3.174999999999998
 74
     0
 49
-3.174999999999998
 74
     0
 49
3.174999999999998
 74
     0
 49
-3.174999999999998
 74
     0
  0
LTYPE
  5
A0
330
5
100
AcDbSymbolTableRecord
100
AcDbLinetypeTableRecord
  2
CENTER
 70
     0
  3
Center ____ _ ____ _ ____ _ ____ _ ____ _ ____
 72
    65
 73
     4
 40
50.8
 49
31.75
 74
     0
 49
-6.349999999999998
 74
     0
 49
6.349999999999998
 74
     0
 49
-6.349999999999998
 74
     0
  0
LTYPE
  5
6D4
330
5
100
AcDbSymbolTableRecord
100
AcDbLinetypeTableRecord
  2
ACISOWELD
 70
     0
  3
_ _ _ _ _
 72
    65
 73
     2
 40
2.0
 49
2.0
 74
     0
 49
-1.0
 74
     0
  0
LTYPE
  5
6D5
330
5
100
AcDbSymbolTableRecord
100
AcDbLinetypeTableRecord
  2
ACISOTGB
 70
     0
  3
__ . . __ . .
 72
    65
 73
     6
 40
9.0
 49
4.0
 74
     0
 49
-1.0
 74
     0
 49
1.0
 74
     0
 49
-1.0
 74
     0
 49
1.0
 74
     0
 49
-1.0
 74
     0
  0
LTYPE
  5
6D6
330
5
100
AcDbSymbolTableRecord
100
AcDbLinetypeTableRecord
  2
ACISOTGL
 70
     0
  3
_ _ _ _ _
 72
    65
 73
     2
 40
3.0
 49
2.0
 74
     0
 49
-1.0
 74
     0
  0
ENDTAB
  0
TABLE
  2
LAYER
  5
2
102
{ACAD_XDICTIONARY
360
729
102
}
330
0
100
AcDbSymbolTable
 70
     8
  0
LAYER
  5
4F
102
{ACAD_XDICTIONARY
360
607
102
}
330
2
100
AcDbSymbolTableRecord
100
AcDbLayerTableRecord
  2
0
 70
     0
 62
     7
  6
Continuous
370
    -3
390
F
1001
AcAecLayerStandard
1000

1000

  0
LAYER
  5
70
330
2
100
AcDbSymbolTableRecord
100
AcDbLayerTableRecord
  2
Defpoints
 70
     0
 62
     7
  6
Continuous
290
     0
370
    -3
390
F
1001
AcAecLayerStandard
1000

1000

  0
LAYER
  5
C8
102
{ACAD_XDICTIONARY
360
C9
102
}
330
2
100
AcDbSymbolTableRecord
100
AcDbLayerTableRecord
  2
AM_VIEWS
 70
     0
 62
     1
  6
Continuous
290
     0
370
    25
390
F
1001
AcAecLayerStandard
1000

1000

  0
LAYER
  5
D1
102
{ACAD_XDICTIONARY
360
D2
102
}
330
2
100
AcDbSymbolTableRecord
100
AcDbLayerTableRecord
  2
AM_5
 70
     0
 62
    92
  6
Continuous
370
    13
390
F
1001
AcAecLayerStandard
1000

1000

  0
LAYER
  5
F0
102
{ACAD_XDICTIONARY
360
F1
102
}
330
2
100
AcDbSymbolTableRecord
100
AcDbLayerTableRecord
  2
AM_0
 70
     0
 62
     7
  6
Continuous
370
    35
390
F
  0
LAYER
  5
136
102
{ACAD_XDICTIONARY
360
137
102
}
330
2
100
AcDbSymbolTableRecord
100
AcDbLayerTableRecord
  2
AM_7
 70
     0
 62
   142
  6
AM_ISO08W050x2
370
    13
390
F
1001
AcAecLayerStandard
1000

1000

  0
LAYER
  5
234
102
{ACAD_XDICTIONARY
360
609
102
}
330
2
100
AcDbSymbolTableRecord
100
AcDbLayerTableRecord
  2
Viewport2ForCustomObjects_0
 70
     0
 62
     7
  6
Continuous
370
    -3
390
F
  0
LAYER
  5
728
330
2
100
AcDbSymbolTableRecord
100
AcDbLayerTableRecord
  2
AM_6KM
 70
     0
 62
   140
  6
Continuous
370
    13
390
F
1001
AcAecLayerStandard
1000

1000

  0
ENDTAB
  0
TABLE
  2
STYLE
  5
3
330
0
100
AcDbSymbolTable
 70
    14
  0
STYLE
  5
50
330
3
100
AcDbSymbolTableRecord
100
AcDbTextStyleTableRecord
  2
STANDARD
 70
     0
 40
0.0
 41
1.0
 50
0.0
 71
     0
 42
2.5
  3
TAHOMA.TTF
  4

1001
ACAD
1000
Tahoma
1071
       34
  0
STYLE
  5
55
330
3
100
AcDbSymbolTableRecord
100
AcDbTextStyleTableRecord
  2
Annotative
 70
     0
 40
0.0
 41
1.0
 50
0.0
 71
     0
 42
0.2
  3
txt
  4

1001
AcadAnnotative
1000
AnnotativeData
1002
{
1070
     1
1070
     1
1002
}
  0
STYLE
  5
89
330
3
100
AcDbSymbolTableRecord
100
AcDbTextStyleTableRecord
  2
ACJISGDT
 70
     0
 40
0.0
 41
1.0
 50
0.0
 71
     0
 42
2.5
  3
amgdt.shx
  4
extfont2.shx
  0
STYLE
  5
8A
330
3
100
AcDbSymbolTableRecord
100
AcDbTextStyleTableRecord
  2

 70
     1
 40
0.0
 41
1.0
 50
0.0
 71
     0
 42
2.5
  3
genltshp.shx
  4

  0
STYLE
  5
8B
330
3
100
AcDbSymbolTableRecord
100
AcDbTextStyleTableRecord
  2
Note Text (JIS)
 70
     0
 40
0.0
 41
1.0
 50
0.0
 71
     0
 42
0.2
  3
TAHOMA.TTF
  4

1001
ACAD
1000
Tahoma
1071
      256
  0
STYLE
  5
8C
330
3
100
AcDbSymbolTableRecord
100
AcDbTextStyleTableRecord
  2
CustomTextStyle0
 70
     0
 40
3.5
 41
1.0
 50
0.0
 71
     0
 42
2.5
  3
TAHOMA.TTF
  4

1001
ACAD
1000
Tahoma
1071
      290
  0
STYLE
  5
8D
330
3
100
AcDbSymbolTableRecord
100
AcDbTextStyleTableRecord
  2
CustomTextStyle1
 70
     0
 40
3.5
 41
1.0
 50
0.0
 71
     0
 42
2.5
  3
MS PGothic.ttf
  4

1001
ACAD
1000
MS PGothic
1071
      306
  0
STYLE
  5
8E
330
3
100
AcDbSymbolTableRecord
100
AcDbTextStyleTableRecord
  2
CustomTextStyle2
 70
     0
 40
3.5
 41
1.0
 50
0.0
 71
     0
 42
2.5
  3
TAHOMA.TTF
  4

1001
ACAD
1000
Tahoma
1071
      290
  0
STYLE
  5
8F
330
3
100
AcDbSymbolTableRecord
100
AcDbTextStyleTableRecord
  2
CustomTextStyle3
 70
     0
 40
3.5
 41
1.0
 50
0.0
 71
     0
 42
2.5
  3
MS PGothic.ttf
  4

1001
ACAD
1000
MS PGothic
1071
      306
  0
STYLE
  5
90
330
3
100
AcDbSymbolTableRecord
100
AcDbTextStyleTableRecord
  2
CustomTextStyle4
 70
     0
 40
3.5
 41
1.0
 50
0.0
 71
     0
 42
2.5
  3
TAHOMA.TTF
  4

1001
ACAD
1000
Tahoma
1071
      290
  0
STYLE
  5
91
330
3
100
AcDbSymbolTableRecord
100
AcDbTextStyleTableRecord
  2
CustomTextStyle5
 70
     0
 40
3.5
 41
1.0
 50
0.0
 71
     0
 42
2.5
  3
MS PGothic.ttf
  4

1001
ACAD
1000
MS PGothic
1071
      306
  0
STYLE
  5
92
330
3
100
AcDbSymbolTableRecord
100
AcDbTextStyleTableRecord
  2
CustomTextStyle6
 70
     0
 40
3.5
 41
1.0
 50
0.0
 71
     0
 42
2.5
  3
MS PGothic.ttf
  4

1001
ACAD
1000
MS PGothic
1071
      306
  0
STYLE
  5
6D2
330
3
100
AcDbSymbolTableRecord
100
AcDbTextStyleTableRecord
  2
ACISOTS
 70
     0
 40
1.0
 41
1.0
 50
0.0
 71
     0
 42
2.5
  3
isocp.shx
  4
extfont.shx
  0
STYLE
  5
6D3
330
3
100
AcDbSymbolTableRecord
100
AcDbTextStyleTableRecord
  2
ACISOGDT
 70
     0
 40
0.0
 41
1.0
 50
0.0
 71
     0
 42
2.5
  3
amgdt.shx
  4

  0
ENDTAB
  0
TABLE
  2
VIEW
  5
6
330
0
100
AcDbSymbolTable
 70
     0
  0
ENDTAB
  0
TABLE
  2
UCS
  5
7
330
0
100
AcDbSymbolTable
 70
     0
  0
ENDTAB
  0
TABLE
  2
APPID
  5
9
330
0
100
AcDbSymbolTable
 70
    44
  0
APPID
  5
51
330
9
100
AcDbSymbolTableRecord
100
AcDbRegAppTableRecord
  2
ACAD
 70
     0
  0
APPID
  5
59
330
9
100
AcDbSymbolTableRecord
100
AcDbRegAppTableRecord
  2
AcadAnnotative
 70
     0
  0
APPID
  5
6F
330
9
100
AcDbSymbolTableRecord
100
AcDbRegAppTableRecord
  2
ACAD_PSEXT
 70
     0
  0
APPID
  5
71
330
9
100
AcDbSymbolTableRecord
100
AcDbRegAppTableRecord
  2
ACAD_DSTYLE_DIMJOGGED_JOGANGLE_SYMBOL
 70
     0
  0
APPID
  5
72
330
9
100
AcDbSymbolTableRecord
100
AcDbRegAppTableRecord
  2
ACAD_DSTYLE_DIMJAG
 70
     0
  0
APPID
  5
73
330
9
100
AcDbSymbolTableRecord
100
AcDbRegAppTableRecord
  2
ACAD_DSTYLE_DIMBREAK
 70
     0
  0
APPID
  5
74
330
9
100
AcDbSymbolTableRecord
100
AcDbRegAppTableRecord
  2
AcAecLayerStandard
 70
     0
  0
APPID
  5
75
330
9
100
AcDbSymbolTableRecord
100
AcDbRegAppTableRecord
  2
GENIUS_GENREC_14
 70
     0
  0
APPID
  5
76
330
9
100
AcDbSymbolTableRecord
100
AcDbRegAppTableRecord
  2
GENIUS_GENODEF_13
 70
     0
  0
APPID
  5
77
330
9
100
AcDbSymbolTableRecord
100
AcDbRegAppTableRecord
  2
GENIUS_GENOBJ-N-REC_13
 70
     0
  0
APPID
  5
78
330
9
100
AcDbSymbolTableRecord
100
AcDbRegAppTableRecord
  2
ACAD_DSTYLE_DIMTALN
 70
     0
  0
APPID
  5
79
330
9
100
AcDbSymbolTableRecord
100
AcDbRegAppTableRecord
  2
GENIUS_GENOENT_13
 70
     0
  0
APPID
  5
7A
330
9
100
AcDbSymbolTableRecord
100
AcDbRegAppTableRecord
  2
GENIUS_GENOBJ-N-FITL_13
 70
     0
  0
APPID
  5
7B
330
9
100
AcDbSymbolTableRecord
100
AcDbRegAppTableRecord
  2
GENIUS_GENOLIS_13
 70
     0
  0
APPID
  5
7C
330
9
100
AcDbSymbolTableRecord
100
AcDbRegAppTableRecord
  2
GENIUS_GENFITL_13
 70
     0
  0
APPID
  5
7D
330
9
100
AcDbSymbolTableRecord
100
AcDbRegAppTableRecord
  2
GENIUS_GENOREF_13
 70
     0
  0
APPID
  5
7E
330
9
100
AcDbSymbolTableRecord
100
AcDbRegAppTableRecord
  2
GENIUS_GENOBJ-N-RSSYM_13
 70
     0
  0
APPID
  5
7F
330
9
100
AcDbSymbolTableRecord
100
AcDbRegAppTableRecord
  2
GENIUS_GENSYMENT_13
 70
     0
  0
APPID
  5
80
330
9
100
AcDbSymbolTableRecord
100
AcDbRegAppTableRecord
  2
ACAD_DSTYLE_DIMINSPECT
 70
     0
  0
APPID
  5
81
330
9
100
AcDbSymbolTableRecord
100
AcDbRegAppTableRecord
  2
GENIUS_GENSCREG_15
 70
     0
  0
APPID
  5
82
330
9
100
AcDbSymbolTableRecord
100
AcDbRegAppTableRecord
  2
GENIUS_GENOBJ-N-SDF_13
 70
     0
  0
APPID
  5
83
330
9
100
AcDbSymbolTableRecord
100
AcDbRegAppTableRecord
  2
GENIUS_GENOBJ-N-CRS_13
 70
     0
  0
APPID
  5
84
330
9
100
AcDbSymbolTableRecord
100
AcDbRegAppTableRecord
  2
AcDbDynamicBlockGUID
 70
     0
  0
APPID
  5
85
330
9
100
AcDbSymbolTableRecord
100
AcDbRegAppTableRecord
  2
GENIUS_AMGTXT_16
 70
     0
  0
APPID
  5
86
330
9
100
AcDbSymbolTableRecord
100
AcDbRegAppTableRecord
  2
GENIUS_GENOBJ-N-CEN_13
 70
     0
  0
APPID
  5
87
330
9
100
AcDbSymbolTableRecord
100
AcDbRegAppTableRecord
  2
GENIUS_GENCEN_19
 70
     0
  0
APPID
  5
88
330
9
100
AcDbSymbolTableRecord
100
AcDbRegAppTableRecord
  2
ACATTRIBSERVICES
 70
     0
  0
APPID
  5
55A
330
9
100
AcDbSymbolTableRecord
100
AcDbRegAppTableRecord
  2
MCAD_NO_VIS
 70
     0
  0
APPID
  5
55B
330
9
100
AcDbSymbolTableRecord
100
AcDbRegAppTableRecord
  2
ACAD_TEMP_GRAPHIC
 70
     0
  0
APPID
  5
55C
330
9
100
AcDbSymbolTableRecord
100
AcDbRegAppTableRecord
  2
AD_DRAW
 70
     0
  0
APPID
  5
55D
330
9
100
AcDbSymbolTableRecord
100
AcDbRegAppTableRecord
  2
DESIGNERASSEMBLIES
 70
     0
  0
APPID
  5
55E
330
9
100
AcDbSymbolTableRecord
100
AcDbRegAppTableRecord
  2
ACADM_DIM_EDIT
 70
     0
  0
APPID
  5
55F
330
9
100
AcDbSymbolTableRecord
100
AcDbRegAppTableRecord
  2
AMDT_DM_ADJ
 70
     0
  0
APPID
  5
560
330
9
100
AcDbSymbolTableRecord
100
AcDbRegAppTableRecord
  2
ACAD_DSTYLE_DIMARC_LENGTH_SYMBOL
 70
     0
  0
APPID
  5
561
330
9
100
AcDbSymbolTableRecord
100
AcDbRegAppTableRecord
  2
ACAD_MLEADERVER
 70
     0
  0
APPID
  5
562
330
9
100
AcDbSymbolTableRecord
100
AcDbRegAppTableRecord
  2
ACAD_EXEMPT_FROM_CAD_STANDARDS
 70
     0
  0
APPID
  5
563
330
9
100
AcDbSymbolTableRecord
100
AcDbRegAppTableRecord
  2
AcadAnnoPO
 70
     0
  0
APPID
  5
564
330
9
100
AcDbSymbolTableRecord
100
AcDbRegAppTableRecord
  2
GENIUS_GENTRA_14
 70
     0
  0
APPID
  5
565
330
9
100
AcDbSymbolTableRecord
100
AcDbRegAppTableRecord
  2
GENIUS_GENSCSYM_13
 70
     0
  0
APPID
  5
566
330
9
100
AcDbSymbolTableRecord
100
AcDbRegAppTableRecord
  2
ACAD_DSTYLE_DIMRADIAL_EXTENSION
 70
     0
  0
APPID
  5
650
330
9
100
AcDbSymbolTableRecord
100
AcDbRegAppTableRecord
  2
ACAD_DSTYLE_DIM_LINETYPE
 70
     0
  0
APPID
  5
651
330
9
100
AcDbSymbolTableRecord
100
AcDbRegAppTableRecord
  2
ACAD_DSTYLE_DIM_EXT1_LINETYPE
 70
     0
  0
APPID
  5
652
330
9
100
AcDbSymbolTableRecord
100
AcDbRegAppTableRecord
  2
ACAD_DSTYLE_DIM_EXT2_LINETYPE
 70
     0
  0
APPID
  5
7EF
330
9
100
AcDbSymbolTableRecord
100
AcDbRegAppTableRecord
  2
ACAD_DSTYLE_DIMANGULAR_EXTENSION
 70
     0
  0
ENDTAB
  0
TABLE
  2
DIMSTYLE
  5
A
330
0
100
AcDbSymbolTable
 70
    19
100
AcDbDimStyleTable
 71
     1
340
A2
  0
DIMSTYLE
105
53
330
A
100
AcDbSymbolTableRecord
100
AcDbDimStyleTableRecord
  2
Standard
 70
     0
340
50
  0
DIMSTYLE
105
54
330
A
100
AcDbSymbolTableRecord
100
AcDbDimStyleTableRecord
  2
Annotative
 70
     0
340
50
1001
AcadAnnotative
1000
AnnotativeData
1002
{
1070
     1
1070
     1
1002
}
  0
DIMSTYLE
105
A1
330
A
100
AcDbSymbolTableRecord
100
AcDbDimStyleTableRecord
  2
ISO-25
 70
     0
 41
2.5
 42
0.625
 43
3.75
 44
1.25
 73
     0
 74
     0
 77
     1
 78
     8
140
2.5
141
2.5
143
0.03937007874016
147
0.625
171
     3
172
     1
271
     2
272
     2
274
     3
278
    44
283
     0
284
     8
340
50
  0
DIMSTYLE
105
A2
330
A
100
AcDbSymbolTableRecord
100
AcDbDimStyleTableRecord
  2
AM_JIS
 70
     0
  4
"
 41
2.5
 42
0.5
 43
8.0
 44
1.0
 47
0.1
 48
0.1000000001
 73
     0
 74
     0
 77
     3
 78
     8
 79
     2
140
3.5
141
0.0
143
0.0393701
146
0.55
147
0.8
172
     1
176
   256
177
   256
178
   140
271
     3
272
     3
283
     0
284
     8
340
50
341
A3
342
A3
371
    -1
372
    -1
1001
ACAD_DSTYLE_DIMJOGGED_JOGANGLE_SYMBOL
1070
   384
1040
0.7853981633974483
1001
ACAD_DSTYLE_DIMBREAK
1070
   391
1040
3.75
1001
ACAD_DSTYLE_DIMJAG
1070
   388
1040
1.5
1001
ACAD_DSTYLE_DIMTALN
1070
   392
1070
     0
1001
ACAD_DSTYLE_DIMARC_LENGTH_SYMBOL
1070
   379
1070
     1
1001
ACAD_DSTYLE_DIM_LINETYPE
1070
   380
1005
56
1001
ACAD_DSTYLE_DIM_EXT1_LINETYPE
1070
   381
1005
56
1001
ACAD_DSTYLE_DIM_EXT2_LINETYPE
1070
   382
1005
56
  0
DIMSTYLE
105
A9
330
A
100
AcDbSymbolTableRecord
100
AcDbDimStyleTableRecord
  2
AM_JIS$3
 70
     0
  4
"
 41
2.5
 42
0.5
 43
8.0
 44
1.0
 47
0.1
 48
0.1000000001
 73
     0
 77
     3
 78
     8
 79
     2
140
3.5
141
0.0
143
0.0393701
146
0.55
147
0.8
176
   256
177
   256
178
   140
271
     3
272
     3
283
     0
284
     8
288
     1
289
     0
340
50
341
A3
342
A3
371
    -1
372
    -1
1001
ACAD_DSTYLE_DIMJOGGED_JOGANGLE_SYMBOL
1070
   384
1040
0.7853981633974483
1001
ACAD_DSTYLE_DIMBREAK
1070
   391
1040
3.75
1001
ACAD_DSTYLE_DIMJAG
1070
   388
1040
1.5
1001
ACAD_DSTYLE_DIMTALN
1070
   392
1070
     0
1001
ACAD_DSTYLE_DIMARC_LENGTH_SYMBOL
1070
   379
1070
     1
1001
ACAD_DSTYLE_DIM_LINETYPE
1070
   380
1005
56
1001
ACAD_DSTYLE_DIM_EXT1_LINETYPE
1070
   381
1005
56
1001
ACAD_DSTYLE_DIM_EXT2_LINETYPE
1070
   382
1005
56
  0
DIMSTYLE
105
AA
330
A
100
AcDbSymbolTableRecord
100
AcDbDimStyleTableRecord
  2
AM_JIS$4
 70
     0
  4
"
 41
2.5
 42
0.5
 43
8.0
 44
1.0
 47
0.1
 48
0.1000000001
 73
     0
 74
     0
 77
     3
 78
     8
 79
     2
140
3.5
141
0.0
143
0.0393701
146
0.55
147
0.8
172
     1
176
   256
177
   256
178
   140
271
     3
272
     3
283
     0
284
     8
340
50
341
A3
342
A3
371
    -1
372
    -1
1001
ACAD_DSTYLE_DIMJOGGED_JOGANGLE_SYMBOL
1070
   384
1040
0.7853981633974483
1001
ACAD_DSTYLE_DIMBREAK
1070
   391
1040
3.75
1001
ACAD_DSTYLE_DIMJAG
1070
   388
1040
1.5
1001
ACAD_DSTYLE_DIMTALN
1070
   392
1070
     0
1001
ACAD_DSTYLE_DIMARC_LENGTH_SYMBOL
1070
   379
1070
     1
1001
ACAD_DSTYLE_DIM_LINETYPE
1070
   380
1005
56
1001
ACAD_DSTYLE_DIM_EXT1_LINETYPE
1070
   381
1005
56
1001
ACAD_DSTYLE_DIM_EXT2_LINETYPE
1070
   382
1005
56
  0
DIMSTYLE
105
AB
330
A
100
AcDbSymbolTableRecord
100
AcDbDimStyleTableRecord
  2
AM_JIS$6
 70
     0
  4
"
 41
2.5
 42
0.5
 43
8.0
 44
1.0
 47
0.1
 48
0.1000000001
 73
     0
 74
     0
 78
     8
 79
     2
140
3.5
141
0.0
143
0.0393701
146
0.55
147
0.8
172
     1
176
   256
177
   256
178
   140
271
     3
272
     3
283
     0
284
     8
340
50
341
A3
342
A3
371
    -1
372
    -1
1001
ACAD_DSTYLE_DIMJOGGED_JOGANGLE_SYMBOL
1070
   384
1040
0.7853981633974483
1001
ACAD_DSTYLE_DIMBREAK
1070
   391
1040
3.75
1001
ACAD_DSTYLE_DIMJAG
1070
   388
1040
1.5
1001
ACAD_DSTYLE_DIMTALN
1070
   392
1070
     0
1001
ACAD_DSTYLE_DIMARC_LENGTH_SYMBOL
1070
   379
1070
     1
1001
ACAD_DSTYLE_DIM_LINETYPE
1070
   380
1005
56
1001
ACAD_DSTYLE_DIM_EXT1_LINETYPE
1070
   381
1005
56
1001
ACAD_DSTYLE_DIM_EXT2_LINETYPE
1070
   382
1005
56
  0
DIMSTYLE
105
AC
330
A
100
AcDbSymbolTableRecord
100
AcDbDimStyleTableRecord
  2
AM_JIS$7
 70
     0
  4
"
 41
2.5
 42
0.5
 43
8.0
 44
1.0
 47
0.1
 48
0.1000000001
 73
     0
 74
     0
 77
     3
 78
     8
 79
     2
140
3.5
141
0.0
143
0.0393701
146
0.55
147
0.8
172
     1
176
   256
177
   256
178
   140
271
     3
272
     3
283
     0
284
     8
340
50
341
A3
342
A3
371
    -1
372
    -1
1001
ACAD_DSTYLE_DIMJOGGED_JOGANGLE_SYMBOL
1070
   384
1040
0.7853981633974483
1001
ACAD_DSTYLE_DIMBREAK
1070
   391
1040
3.75
1001
ACAD_DSTYLE_DIMJAG
1070
   388
1040
1.5
1001
ACAD_DSTYLE_DIMTALN
1070
   392
1070
     0
1001
ACAD_DSTYLE_DIMARC_LENGTH_SYMBOL
1070
   379
1070
     1
1001
ACAD_DSTYLE_DIM_LINETYPE
1070
   380
1005
56
1001
ACAD_DSTYLE_DIM_EXT1_LINETYPE
1070
   381
1005
56
1001
ACAD_DSTYLE_DIM_EXT2_LINETYPE
1070
   382
1005
56
  0
DIMSTYLE
105
AD
330
A
100
AcDbSymbolTableRecord
100
AcDbDimStyleTableRecord
  2
AM_JIS$SF
 70
     0
  4
"
 41
2.5
 42
0.5
 43
8.0
 44
1.0
 47
0.1
 48
0.1000000001
 73
     0
 74
     0
 75
     1
 76
     1
 77
     3
 78
     8
 79
     2
140
3.5
141
0.0
143
0.0393701
146
0.55
147
0.8
172
     1
176
   256
177
   256
178
   140
271
     3
272
     3
283
     0
284
     8
340
50
341
A3
342
A3
371
    -1
372
    -1
1001
ACAD_DSTYLE_DIMJOGGED_JOGANGLE_SYMBOL
1070
   384
1040
0.7853981633974483
1001
ACAD_DSTYLE_DIMBREAK
1070
   391
1040
3.75
1001
ACAD_DSTYLE_DIMJAG
1070
   388
1040
1.5
1001
ACAD_DSTYLE_DIMTALN
1070
   392
1070
     0
1001
ACAD_DSTYLE_DIMARC_LENGTH_SYMBOL
1070
   379
1070
     1
1001
ACAD_DSTYLE_DIM_LINETYPE
1070
   380
1005
56
1001
ACAD_DSTYLE_DIM_EXT1_LINETYPE
1070
   381
1005
56
1001
ACAD_DSTYLE_DIM_EXT2_LINETYPE
1070
   382
1005
56
  0
DIMSTYLE
105
AE
330
A
100
AcDbSymbolTableRecord
100
AcDbDimStyleTableRecord
  2
AM_JIS$SH
 70
     0
  4
"
 41
2.5
 42
0.5
 43
8.0
 44
1.0
 47
0.1
 48
0.1000000001
 73
     0
 74
     0
 75
     1
 76
     1
 77
     3
 78
     8
 79
     2
140
3.5
141
0.0
143
0.0393701
144
2.0
146
0.55
147
0.8
172
     1
173
     1
176
   256
177
   256
178
   140
271
     3
272
     3
283
     0
284
     8
340
50
341
A3
342
A3
343
AF
371
    -1
372
    -1
1001
ACAD_DSTYLE_DIMJOGGED_JOGANGLE_SYMBOL
1070
   384
1040
0.7853981633974483
1001
ACAD_DSTYLE_DIMBREAK
1070
   391
1040
3.75
1001
ACAD_DSTYLE_DIMJAG
1070
   388
1040
1.5
1001
ACAD_DSTYLE_DIMTALN
1070
   392
1070
     0
1001
ACAD_DSTYLE_DIMARC_LENGTH_SYMBOL
1070
   379
1070
     1
1001
ACAD_DSTYLE_DIM_LINETYPE
1070
   380
1005
56
1001
ACAD_DSTYLE_DIM_EXT1_LINETYPE
1070
   381
1005
56
1001
ACAD_DSTYLE_DIM_EXT2_LINETYPE
1070
   382
1005
56
  0
DIMSTYLE
105
B3
102
{ACAD_REACTORS
330
143
330
163
330
174
330
184
330
195
330
1A4
330
1B3
330
1C4
330
1D3
330
1E2
330
1F1
330
207
330
79E
102
}
330
A
100
AcDbSymbolTableRecord
100
AcDbDimStyleTableRecord
  2
AM_JIS$0
 70
     0
  4
"
 41
2.5
 42
0.5
 43
8.0
 44
1.0
 47
0.1
 48
0.1000000001
 73
     0
 74
     0
 77
     3
 78
     8
 79
     2
140
3.5
141
0.0
143
0.0393701
146
0.55
147
0.8
172
     1
176
   256
177
   256
178
   140
271
     3
272
     3
283
     0
284
     8
340
50
341
A3
342
A3
371
    -1
372
    -1
1001
ACAD_DSTYLE_DIMBREAK
1070
   391
1040
3.75
1001
ACAD_DSTYLE_DIMJAG
1070
   388
1040
1.5
1001
ACAD_DSTYLE_DIMTALN
1070
   392
1070
     0
1001
ACAD_DSTYLE_DIMARC_LENGTH_SYMBOL
1070
   379
1070
     1
1001
ACAD_DSTYLE_DIM_LINETYPE
1070
   380
1005
56
1001
ACAD_DSTYLE_DIM_EXT1_LINETYPE
1070
   381
1005
56
1001
ACAD_DSTYLE_DIM_EXT2_LINETYPE
1070
   382
1005
56
  0
DIMSTYLE
105
B4
102
{ACAD_REACTORS
330
152
330
7BF
102
}
330
A
100
AcDbSymbolTableRecord
100
AcDbDimStyleTableRecord
  2
AM_JIS$2
 70
     0
  4
"
 41
2.5
 42
0.5
 43
8.0
 44
1.0
 47
0.1
 48
0.1000000001
 73
     0
 74
     0
 77
     3
 78
     8
 79
     2
140
3.5
141
0.0
143
0.0393701
146
0.55
147
0.8
172
     1
176
   256
177
   256
178
   140
271
     3
272
     3
283
     0
284
     8
340
50
341
A3
342
A3
371
    -1
372
    -1
1001
ACAD_DSTYLE_DIMJOGGED_JOGANGLE_SYMBOL
1070
   384
1040
0.7853981633974483
1001
ACAD_DSTYLE_DIMBREAK
1070
   391
1040
3.75
1001
ACAD_DSTYLE_DIMJAG
1070
   388
1040
1.5
1001
ACAD_DSTYLE_DIMTALN
1070
   392
1070
     0
1001
ACAD_DSTYLE_DIMARC_LENGTH_SYMBOL
1070
   379
1070
     1
1001
ACAD_DSTYLE_DIM_LINETYPE
1070
   380
1005
56
1001
ACAD_DSTYLE_DIM_EXT1_LINETYPE
1070
   381
1005
56
1001
ACAD_DSTYLE_DIM_EXT2_LINETYPE
1070
   382
1005
56
  0
DIMSTYLE
105
6C8
102
{ACAD_REACTORS
330
6B7
102
}
330
A
100
AcDbSymbolTableRecord
100
AcDbDimStyleTableRecord
  2
AM_ISO
 70
     0
  4
"
 41
3.5
 42
1.0
 43
10.0
 44
1.0
 47
0.1
 48
0.1
 73
     0
 74
     0
 77
     1
 78
     8
 79
     2
140
3.5
141
0.0
143
0.0393701
146
0.71
147
1.5
172
     1
176
   256
177
   256
178
   140
271
     2
272
     3
274
     4
283
     0
284
     8
340
50
371
    -1
372
    -1
1001
ACAD_DSTYLE_DIMJAG
1070
   388
1040
1.5
1001
ACAD_DSTYLE_DIMBREAK
1070
   391
1040
3.75
1001
ACAD_DSTYLE_DIMARC_LENGTH_SYMBOL
1070
   379
1070
     1
1001
ACAD_DSTYLE_DIM_LINETYPE
1070
   380
1005
56
1001
ACAD_DSTYLE_DIM_EXT1_LINETYPE
1070
   381
1005
56
1001
ACAD_DSTYLE_DIM_EXT2_LINETYPE
1070
   382
1005
56
  0
DIMSTYLE
105
6CA
330
A
100
AcDbSymbolTableRecord
100
AcDbDimStyleTableRecord
  2
AM_ISO$3
 70
     0
  4
"
 41
3.5
 42
1.0
 43
10.0
 44
1.0
 47
0.1
 48
0.1
 73
     0
 77
     1
 78
     8
 79
     2
140
3.5
141
0.0
143
0.0393701
146
0.71
147
1.5
176
   256
177
   256
178
   140
271
     2
272
     3
274
     4
283
     0
284
     8
288
     1
289
     0
340
50
371
    -1
372
    -1
1001
ACAD_DSTYLE_DIMBREAK
1070
   391
1040
3.75
1001
ACAD_DSTYLE_DIMJAG
1070
   388
1040
1.5
1001
ACAD_DSTYLE_DIMARC_LENGTH_SYMBOL
1070
   379
1070
     1
1001
ACAD_DSTYLE_DIM_LINETYPE
1070
   380
1005
56
1001
ACAD_DSTYLE_DIM_EXT1_LINETYPE
1070
   381
1005
56
1001
ACAD_DSTYLE_DIM_EXT2_LINETYPE
1070
   382
1005
56
  0
DIMSTYLE
105
6CB
330
A
100
AcDbSymbolTableRecord
100
AcDbDimStyleTableRecord
  2
AM_ISO$4
 70
     0
  4
"
 41
3.5
 42
1.0
 43
10.0
 44
1.0
 47
0.1
 48
0.1
 73
     0
 77
     1
 78
     8
 79
     2
140
3.5
141
0.0
143
0.0393701
146
0.71
147
1.5
176
   256
177
   256
178
   140
271
     2
272
     3
274
     4
283
     0
284
     8
288
     1
289
     0
340
50
371
    -1
372
    -1
1001
ACAD_DSTYLE_DIMBREAK
1070
   391
1040
3.75
1001
ACAD_DSTYLE_DIMJAG
1070
   388
1040
1.5
1001
ACAD_DSTYLE_DIMARC_LENGTH_SYMBOL
1070
   379
1070
     1
1001
ACAD_DSTYLE_DIM_LINETYPE
1070
   380
1005
56
1001
ACAD_DSTYLE_DIM_EXT1_LINETYPE
1070
   381
1005
56
1001
ACAD_DSTYLE_DIM_EXT2_LINETYPE
1070
   382
1005
56
  0
DIMSTYLE
105
6CC
330
A
100
AcDbSymbolTableRecord
100
AcDbDimStyleTableRecord
  2
AM_ISO$6
 70
     0
  4
"
 41
3.5
 42
1.0
 43
10.0
 44
1.0
 47
0.1
 48
0.1
 73
     0
 74
     0
 78
     8
 79
     2
140
3.5
141
0.0
143
0.0393701
146
0.71
147
1.5
172
     1
176
   256
177
   256
178
   140
271
     2
272
     3
274
     4
283
     0
284
     8
340
50
371
    -1
372
    -1
1001
ACAD_DSTYLE_DIMBREAK
1070
   391
1040
3.75
1001
ACAD_DSTYLE_DIMJAG
1070
   388
1040
1.5
1001
ACAD_DSTYLE_DIMARC_LENGTH_SYMBOL
1070
   379
1070
     1
1001
ACAD_DSTYLE_DIM_LINETYPE
1070
   380
1005
56
1001
ACAD_DSTYLE_DIM_EXT1_LINETYPE
1070
   381
1005
56
1001
ACAD_DSTYLE_DIM_EXT2_LINETYPE
1070
   382
1005
56
  0
DIMSTYLE
105
6CD
330
A
100
AcDbSymbolTableRecord
100
AcDbDimStyleTableRecord
  2
AM_ISO$7
 70
     0
  4
"
 41
3.5
 42
1.0
 43
10.0
 44
1.0
 47
0.1
 48
0.1
 73
     0
 74
     0
 77
     1
 78
     8
 79
     2
140
3.5
141
0.0
143
0.0393701
146
0.71
147
1.5
172
     1
176
   256
177
   256
178
   140
271
     2
272
     3
274
     4
283
     0
284
     8
340
50
371
    -1
372
    -1
1001
ACAD_DSTYLE_DIMBREAK
1070
   391
1040
3.75
1001
ACAD_DSTYLE_DIMJAG
1070
   388
1040
1.5
1001
ACAD_DSTYLE_DIMARC_LENGTH_SYMBOL
1070
   379
1070
     1
1001
ACAD_DSTYLE_DIM_LINETYPE
1070
   380
1005
56
1001
ACAD_DSTYLE_DIM_EXT1_LINETYPE
1070
   381
1005
56
1001
ACAD_DSTYLE_DIM_EXT2_LINETYPE
1070
   382
1005
56
  0
DIMSTYLE
105
6CE
330
A
100
AcDbSymbolTableRecord
100
AcDbDimStyleTableRecord
  2
AM_ISO$SF
 70
     0
  4
"
 41
3.5
 42
1.0
 43
10.0
 44
1.0
 47
0.1
 48
0.1
 73
     0
 74
     0
 75
     1
 76
     1
 77
     1
 78
     8
 79
     2
140
3.5
141
0.0
143
0.0393701
146
0.71
147
1.5
172
     1
176
   256
177
   256
178
   140
271
     2
272
     3
274
     4
283
     0
284
     8
340
50
371
    -1
372
    -1
1001
ACAD_DSTYLE_DIMBREAK
1070
   391
1040
3.75
1001
ACAD_DSTYLE_DIMJAG
1070
   388
1040
1.5
1001
ACAD_DSTYLE_DIMARC_LENGTH_SYMBOL
1070
   379
1070
     1
1001
ACAD_DSTYLE_DIM_LINETYPE
1070
   380
1005
56
1001
ACAD_DSTYLE_DIM_EXT1_LINETYPE
1070
   381
1005
56
1001
ACAD_DSTYLE_DIM_EXT2_LINETYPE
1070
   382
1005
56
  0
DIMSTYLE
105
6CF
330
A
100
AcDbSymbolTableRecord
100
AcDbDimStyleTableRecord
  2
AM_ISO$SH
 70
     0
  4
"
 41
3.5
 42
1.0
 43
10.0
 44
1.0
 47
0.1
 48
0.1
 73
     0
 74
     0
 75
     1
 76
     1
 77
     1
 78
     8
 79
     2
140
3.5
141
0.0
143
0.0393701
144
2.0
146
0.71
147
1.5
172
     1
173
     1
176
   256
177
   256
178
   140
271
     2
272
     3
274
     4
283
     0
284
     8
340
50
343
AF
371
    -1
372
    -1
1001
ACAD_DSTYLE_DIMBREAK
1070
   391
1040
3.75
1001
ACAD_DSTYLE_DIMJAG
1070
   388
1040
1.5
1001
ACAD_DSTYLE_DIMARC_LENGTH_SYMBOL
1070
   379
1070
     1
1001
ACAD_DSTYLE_DIM_LINETYPE
1070
   380
1005
56
1001
ACAD_DSTYLE_DIM_EXT1_LINETYPE
1070
   381
1005
56
1001
ACAD_DSTYLE_DIM_EXT2_LINETYPE
1070
   382
1005
56
  0
ENDTAB
  0
TABLE
  2
BLOCK_RECORD
  5
1
330
0
100
AcDbSymbolTable
 70
    33
  0
BLOCK_RECORD
  5
67
102
{ACAD_XDICTIONARY
360
4C0
102
}
330
1
100
AcDbSymbolTableRecord
100
AcDbBlockTableRecord
  2
*Model_Space
340
6A
  0
BLOCK_RECORD
  5
63
330
1
100
AcDbSymbolTableRecord
100
AcDbBlockTableRecord
  2
*Paper_Space
340
66
  0
BLOCK_RECORD
  5
6B
330
1
100
AcDbSymbolTableRecord
100
AcDbBlockTableRecord
  2
*Paper_Space0
340
6E
  0
BLOCK_RECORD
  5
A3
330
1
100
AcDbSymbolTableRecord
100
AcDbBlockTableRecord
  2
_Open
340
0
102
{BLKREFS
331
53D
331
53C
331
534
331
533
331
529
331
528
331
520
331
51F
331
517
331
516
331
50E
331
50D
331
503
331
502
331
4FA
331
4F9
331
4F1
331
4F0
331
4E6
331
4E5
331
4DC
331
4DB
331
4CF
331
4CE
331
71F
331
720
331
75A
331
75B
331
78C
331
78D
331
797
331
798
331
7B9
331
7BA
331
7F3
331
7F4
102
}
  0
BLOCK_RECORD
  5
AF
330
1
100
AcDbSymbolTableRecord
100
AcDbBlockTableRecord
  2
GENAXEH
340
0
  0
BLOCK_RECORD
  5
235
330
1
100
AcDbSymbolTableRecord
100
AcDbBlockTableRecord
  2
CustomObjectsInViewport2_0
340
0
  0
BLOCK_RECORD
  5
26E
330
1
100
AcDbSymbolTableRecord
100
AcDbBlockTableRecord
  2
*D4
340
0
  0
BLOCK_RECORD
  5
27A
330
1
100
AcDbSymbolTableRecord
100
AcDbBlockTableRecord
  2
*D5
340
0
  0
BLOCK_RECORD
  5
288
330
1
100
AcDbSymbolTableRecord
100
AcDbBlockTableRecord
  2
*D6
340
0
  0
BLOCK_RECORD
  5
296
330
1
100
AcDbSymbolTableRecord
100
AcDbBlockTableRecord
  2
*D7
340
0
  0
BLOCK_RECORD
  5
2A3
330
1
100
AcDbSymbolTableRecord
100
AcDbBlockTableRecord
  2
*D8
340
0
  0
BLOCK_RECORD
  5
2B1
330
1
100
AcDbSymbolTableRecord
100
AcDbBlockTableRecord
  2
*D9
340
0
  0
BLOCK_RECORD
  5
2BD
330
1
100
AcDbSymbolTableRecord
100
AcDbBlockTableRecord
  2
*D10
340
0
  0
BLOCK_RECORD
  5
2C9
330
1
100
AcDbSymbolTableRecord
100
AcDbBlockTableRecord
  2
*D11
340
0
  0
BLOCK_RECORD
  5
2D7
330
1
100
AcDbSymbolTableRecord
100
AcDbBlockTableRecord
  2
*D12
340
0
  0
BLOCK_RECORD
  5
2E3
330
1
100
AcDbSymbolTableRecord
100
AcDbBlockTableRecord
  2
*D13
340
0
  0
BLOCK_RECORD
  5
2EF
330
1
100
AcDbSymbolTableRecord
100
AcDbBlockTableRecord
  2
*D14
340
0
  0
BLOCK_RECORD
  5
2FB
330
1
100
AcDbSymbolTableRecord
100
AcDbBlockTableRecord
  2
*D15
340
0
  0
BLOCK_RECORD
  5
309
330
1
100
AcDbSymbolTableRecord
100
AcDbBlockTableRecord
  2
*D16
340
0
  0
BLOCK_RECORD
  5
716
330
1
100
AcDbSymbolTableRecord
100
AcDbBlockTableRecord
  2
*D18
340
0
  0
BLOCK_RECORD
  5
72B
102
{ACAD_XDICTIONARY
360
735
102
}
330
1
100
AcDbSymbolTableRecord
100
AcDbBlockTableRecord
  2
A$C14233291
340
0
1001
ACAD
1000
DesignCenter Data
1002
{
1070
     1
1070
     4
1002
}
  0
BLOCK_RECORD
  5
755
330
1
100
AcDbSymbolTableRecord
100
AcDbBlockTableRecord
  2
*D20
340
0
  0
BLOCK_RECORD
  5
77B
330
1
100
AcDbSymbolTableRecord
100
AcDbBlockTableRecord
  2
*D22
340
0
  0
BLOCK_RECORD
  5
79F
330
1
100
AcDbSymbolTableRecord
100
AcDbBlockTableRecord
  2
*D23
340
0
  0
BLOCK_RECORD
  5
7C0
330
1
100
AcDbSymbolTableRecord
100
AcDbBlockTableRecord
  2
*D24
340
0
  0
BLOCK_RECORD
  5
891
330
1
100
AcDbSymbolTableRecord
100
AcDbBlockTableRecord
  2
*S25
340
0
  0
BLOCK_RECORD
  5
89C
330
1
100
AcDbSymbolTableRecord
100
AcDbBlockTableRecord
  2
*S26
340
0
  0
BLOCK_RECORD
  5
8A6
330
1
100
AcDbSymbolTableRecord
100
AcDbBlockTableRecord
  2
*S27
340
0
  0
BLOCK_RECORD
  5
8B1
330
1
100
AcDbSymbolTableRecord
100
AcDbBlockTableRecord
  2
*S28
340
0
  0
BLOCK_RECORD
  5
8BC
330
1
100
AcDbSymbolTableRecord
100
AcDbBlockTableRecord
  2
*S29
340
0
  0
BLOCK_RECORD
  5
8C7
330
1
100
AcDbSymbolTableRecord
100
AcDbBlockTableRecord
  2
*S30
340
0
  0
BLOCK_RECORD
  5
8D1
330
1
100
AcDbSymbolTableRecord
100
AcDbBlockTableRecord
  2
*S31
340
0
  0
BLOCK_RECORD
  5
8DC
330
1
100
AcDbSymbolTableRecord
100
AcDbBlockTableRecord
  2
*S32
340
0
  0
ENDTAB
  0
ENDSEC
  0
SECTION
  2
BLOCKS
  0
BLOCK
  5
68
330
67
100
AcDbEntity
  8
0
100
AcDbBlockBegin
  2
*Model_Space
 70
     0
 10
0.0
 20
0.0
 30
0.0
  3
*Model_Space
  1

  0
ENDBLK
  5
69
330
67
100
AcDbEntity
  8
0
100
AcDbBlockEnd
  0
BLOCK
  5
64
330
63
100
AcDbEntity
 67
     1
  8
0
100
AcDbBlockBegin
  2
*Paper_Space
 70
     0
 10
0.0
 20
0.0
 30
0.0
  3
*Paper_Space
  1

  0
ENDBLK
  5
65
330
63
100
AcDbEntity
 67
     1
  8
0
100
AcDbBlockEnd
  0
BLOCK
  5
6C
330
6B
100
AcDbEntity
 67
     1
  8
0
100
AcDbBlockBegin
  2
*Paper_Space0
 70
     0
 10
0.0
 20
0.0
 30
0.0
  3
*Paper_Space0
  1

  0
ENDBLK
  5
6D
330
6B
100
AcDbEntity
 67
     1
  8
0
100
AcDbBlockEnd
  0
BLOCK
  5
5C9
330
A3
100
AcDbEntity
  8
0
100
AcDbBlockBegin
  2
_Open
 70
     0
 10
0.0
 20
0.0
 30
0.0
  3
_Open
  1

  0
LINE
  5
5CA
330
A3
100
AcDbEntity
  8
0
  6
ByBlock
 62
     0
370
    -2
100
AcDbLine
 10
-1.0
 20
0.1666666666666666
 30
0.0
 11
0.0
 21
0.0
 31
0.0
  0
LINE
  5
5CB
330
A3
100
AcDbEntity
  8
0
  6
ByBlock
 62
     0
370
    -2
100
AcDbLine
 10
-1.0
 20
-0.1666666666666666
 30
0.0
 11
0.0
 21
0.0
 31
0.0
  0
LINE
  5
5CC
330
A3
100
AcDbEntity
  8
0
  6
ByBlock
 62
     0
370
    -2
100
AcDbLine
 10
0.0
 20
0.0
 30
0.0
 11
-1.0
 21
0.0
 31
0.0
  0
ENDBLK
  5
5CD
330
A3
100
AcDbEntity
  8
0
100
AcDbBlockEnd
  0
BLOCK
  5
5D6
330
AF
100
AcDbEntity
  8
0
100
AcDbBlockBegin
  2
GENAXEH
 70
     0
 10
0.0
 20
0.0
 30
0.0
  3
GENAXEH
  1

  0
LINE
  5
5D7
330
AF
100
AcDbEntity
  8
0
100
AcDbLine
 10
-1.0
 20
0.0
 30
0.0
 11
1.0
 21
0.0
 31
0.0
  0
ENDBLK
  5
5D8
330
AF
100
AcDbEntity
  8
0
100
AcDbBlockEnd
  0
BLOCK
  5
236
330
235
100
AcDbEntity
  8
0
100
AcDbBlockBegin
  2
CustomObjectsInViewport2_0
 70
     0
 10
0.0
 20
0.0
 30
0.0
  3
CustomObjectsInViewport2_0
  1

  0
LINE
  5
237
330
235
100
AcDbEntity
  8
AM_5
100
AcDbLine
 10
33.2624339727445
 20
73.33173952659615
 30
0.0
 11
58.07086626409319
 21
73.33173952659615
 31
0.0
  0
LINE
  5
238
330
235
100
AcDbEntity
  8
AM_5
100
AcDbLine
 10
58.07086626409319
 20
73.33173952659615
 30
0.0
 11
50.48913316043543
 21
51.13713103912902
 31
0.0
  0
LINE
  5
239
330
235
100
AcDbEntity
  8
AM_5
  6
Continuous
100
AcDbLine
 10
50.48913316043543
 20
51.13713103912902
 30
0.0
 11
49.68097890970264
 21
48.77135702054175
 31
0.0
  0
LINE
  5
23A
330
235
100
AcDbEntity
  8
AM_5
  6
Continuous
100
AcDbLine
 10
50.09483750644271
 20
51.27182340886345
 30
0.0
 11
49.68097890970264
 21
48.77135702054175
 31
0.0
  0
LINE
  5
23B
330
235
100
AcDbEntity
  8
AM_5
  6
Continuous
100
AcDbLine
 10
49.68097890970264
 20
48.77135702054175
 30
0.0
 11
50.88342881442815
 21
51.00243866939457
 31
0.0
  0
TEXT
  5
23C
330
235
100
AcDbEntity
  8
AM_5
 62
   140
100
AcDbText
 10
33.00622174977608
 20
74.04631306588426
 30
0.0
 40
3.5
  1
2-M3
  7
CustomTextStyle0
100
AcDbText
  0
TEXT
  5
23D
330
235
100
AcDbEntity
  8
AM_5
 62
   140
100
AcDbText
 10
32.98402488183541
 20
67.57661609618728
 30
0.0
 40
3.5
  1
有効深さ
  7
CustomTextStyle1
100
AcDbText
  0
TEXT
  5
23E
330
235
100
AcDbEntity
  8
AM_5
 62
   140
100
AcDbText
 10
52.15447942728996
 20
67.57661609618728
 30
0.0
 40
3.5
  1
2
  7
CustomTextStyle2
100
AcDbText
  0
LINE
  5
23F
330
235
100
AcDbEntity
  8
AM_5
100
AcDbLine
 10
33.2624339727445
 20
73.33173952659615
 30
0.0
 11
54.57086626409317
 21
73.33173952659615
 31
0.0
  0
LINE
  5
240
330
235
100
AcDbEntity
  8
AM_5
100
AcDbLine
 10
183.4304052064771
 20
11.77750025659566
 30
0.0
 11
160.183246115568
 21
11.77750025659566
 31
0.0
  0
LINE
  5
241
330
235
100
AcDbEntity
  8
AM_5
100
AcDbLine
 10
160.183246115568
 20
11.77750025659566
 30
0.0
 11
151.5370712468836
 21
25.09824920314152
 31
0.0
  0
LINE
  5
242
330
235
100
AcDbEntity
  8
AM_5
  6
Continuous
100
AcDbLine
 10
151.5370712468836
 20
25.09824920314152
 30
0.0
 11
150.1759631787232
 21
27.19524343937318
 31
0.0
  0
LINE
  5
243
330
235
100
AcDbEntity
  8
AM_5
  6
Continuous
100
AcDbLine
 10
151.8865702722756
 20
25.32510053876086
 30
0.0
 11
150.1759631787232
 21
27.19524343937318
 31
0.0
  0
LINE
  5
244
330
235
100
AcDbEntity
  8
AM_5
  6
Continuous
100
AcDbLine
 10
150.1759631787232
 20
27.19524343937318
 30
0.0
 11
151.1875722214916
 21
24.87139786752218
 31
0.0
  0
TEXT
  5
245
330
235
100
AcDbEntity
  8
AM_5
 62
   140
100
AcDbText
 10
163.3650642973862
 20
13.96500025659566
 30
0.0
 40
3.5
  1
入力端子
  7
CustomTextStyle3
100
AcDbText
  0
LINE
  5
246
330
235
100
AcDbEntity
  8
AM_5
100
AcDbLine
 10
219.6904000257998
 20
74.49718690971315
 30
0.0
 11
203.1735663515828
 21
74.49718690971315
 31
0.0
  0
LINE
  5
247
330
235
100
AcDbEntity
  8
AM_5
100
AcDbLine
 10
203.1735663515828
 20
74.49718690971315
 30
0.0
 11
209.8888432212173
 21
56.60285007234744
 31
0.0
  0
LINE
  5
248
330
235
100
AcDbEntity
  8
AM_5
  6
Continuous
100
AcDbLine
 10
209.8888432212173
 20
56.60285007234744
 30
0.0
 11
210.7672137739665
 21
54.26223793616106
 31
0.0
  0
LINE
  5
249
330
235
100
AcDbEntity
  8
AM_5
  6
Continuous
100
AcDbLine
 10
209.4987412141236
 20
56.45645498607837
 30
0.0
 11
210.7672137739665
 21
54.26223793616106
 31
0.0
  0
LINE
  5
24A
330
235
100
AcDbEntity
  8
AM_5
  6
Continuous
100
AcDbLine
 10
210.7672137739665
 20
54.26223793616106
 30
0.0
 11
210.278945228311
 21
56.74924515861651
 31
0.0
  0
TEXT
  5
24B
330
235
100
AcDbEntity
  8
AM_5
 62
   140
100
AcDbText
 10
206.3045267276742
 20
76.68468690971315
 30
0.0
 40
3.5
  1
+
  7
CustomTextStyle4
100
AcDbText
  0
TEXT
  5
24C
330
235
100
AcDbEntity
  8
AM_5
 62
   140
100
AcDbText
 10
209.8068772985271
 20
76.68468690971315
 30
0.0
 40
3.5
  1
端子
  7
CustomTextStyle5
100
AcDbText
  0
LINE
  5
24D
330
235
100
AcDbEntity
  8
AM_5
100
AcDbLine
 10
139.3272180426559
 20
65.60819074168091
 30
0.0
 11
116.0800589517469
 21
65.60819074168091
 31
0.0
  0
LINE
  5
24E
330
235
100
AcDbEntity
  8
AM_5
100
AcDbLine
 10
116.0800589517469
 20
65.60819074168091
 30
0.0
 11
113.2871669107689
 21
59.49200723794246
 31
0.0
  0
LWPOLYLINE
  5
24F
330
235
100
AcDbEntity
  8
AM_5
  6
Continuous
100
AcDbPolyline
 90
        2
 70
   129
 43
0.4464285714285701
 10
112.0254998137078
 20
57.21788856060697
 42
1.0
 10
112.4719283851364
 20
57.21788856060697
 42
1.0
  0
LINE
  5
250
330
235
100
AcDbEntity
  8
AM_5
  6
Continuous
100
AcDbLine
 10
112.4341521014483
 20
57.62398118155974
 30
0.0
 11
113.2871669107689
 21
59.49200723794246
 31
0.0
  0
TEXT
  5
251
330
235
100
AcDbEntity
  8
AM_5
 62
   140
100
AcDbText
 10
119.2419907699287
 20
67.87523619622636
 30
0.0
 40
3.5
  1
定格銘板
  7
CustomTextStyle6
100
AcDbText
  0
ENDBLK
  5
252
330
235
100
AcDbEntity
  8
0
100
AcDbBlockEnd
  0
BLOCK
  5
26F
330
26E
100
AcDbEntity
  8
0
100
AcDbBlockBegin
  2
*D4
 70
     1
 10
0.0
 20
0.0
 30
0.0
  3
*D4
  1

  0
LINE
  5
794
330
26E
100
AcDbEntity
  8
AM_5
  6
ByBlock
100
AcDbLine
 10
27.19743592585963
 20
35.32226321688855
 30
0.0
 11
13.75796998659999
 21
58.6001010502776
 31
0.0
  0
LINE
  5
795
330
26E
100
AcDbEntity
  8
AM_5
  6
ByBlock
100
AcDbLine
 10
48.84807102047057
 20
47.82226321688854
 30
0.0
 11
35.40860508121094
 21
71.1001010502776
 31
0.0
  0
LINE
  5
796
330
26E
100
AcDbEntity
  8
AM_5
  6
ByBlock
100
AcDbLine
 10
16.42303349606109
 20
58.98407564649315
 30
0.0
 11
33.74354157174984
 21
68.98407564649315
 31
0.0
  0
INSERT
  5
797
330
26E
100
AcDbEntity
  8
AM_5
100
AcDbBlockReference
  2
_Open
 10
14.25796998659999
 20
57.73407564649315
 30
0.0
 41
2.5
 42
2.5
 43
2.5
 50
210.0
  0
INSERT
  5
798
330
26E
100
AcDbEntity
  8
AM_5
100
AcDbBlockReference
  2
_Open
 10
35.90860508121095
 20
70.23407564649315
 30
0.0
 41
2.5
 42
2.5
 43
2.5
 50
30.00000000000002
  0
MTEXT
  5
799
330
26E
100
AcDbEntity
  8
AM_5
 62
   140
100
AcDbMText
 10
23.77185368568519
 20
66.25554570237625
 30
0.0
 40
3.5
 41
0.0
 71
     5
 72
     1
  1
25
 11
0.8660254037844385
 21
0.5000000000000002
 31
0.0
 73
     1
 44
1.0
1001
ACAD
1000
MTEXTBEGIN
1070
    73
1070
     1
1070
    44
1040
1.0
1070
    74
1070
     0
1000
MTEXTEND
  0
POINT
  5
79A
330
26E
100
AcDbEntity
  8
Defpoints
 62
     0
100
AcDbPoint
 10
27.44743592585963
 20
34.88925051499633
 30
0.0
  0
POINT
  5
79B
330
26E
100
AcDbEntity
  8
Defpoints
 62
     0
100
AcDbPoint
 10
49.09807102047057
 20
47.38925051499633
 30
0.0
  0
POINT
  5
79C
330
26E
100
AcDbEntity
  8
Defpoints
 62
     0
100
AcDbPoint
 10
35.90860508121095
 20
70.23407564649315
 30
0.0
  0
ENDBLK
  5
270
330
26E
100
AcDbEntity
  8
0
100
AcDbBlockEnd
  0
BLOCK
  5
27B
330
27A
100
AcDbEntity
  8
0
100
AcDbBlockBegin
  2
*D5
 70
     1
 10
0.0
 20
0.0
 30
0.0
  3
*D5
  1

  0
LINE
  5
4CB
330
27A
100
AcDbEntity
  8
AM_5
  6
ByBlock
100
AcDbLine
 10
24.41634701261409
 20
33.13925051499634
 30
0.0
 11
13.4864830117008
 21
26.82889059186304
 31
0.0
  0
LINE
  5
4CC
330
27A
100
AcDbEntity
  8
AM_5
  6
ByBlock
100
AcDbLine
 10
38.27275347316515
 20
18.38925051499632
 30
0.0
 11
38.27275347316515
 21
12.51853066872972
 31
0.0
  0
ARC
  5
4CD
330
27A
100
AcDbEntity
  8
AM_5
  6
ByBlock
100
AcDbCircle
 10
38.27275347316515
 20
41.13925051499636
 30
0.0
 40
27.62071984626663
100
AcDbArc
 50
215.1877137655606
 51
264.8122862344394
  0
INSERT
  5
4CE
330
27A
100
AcDbEntity
  8
AM_5
100
AcDbBlockReference
  2
_Open
 10
14.35250841548523
 20
27.32889059186304
 30
0.0
 41
2.5
 42
2.5
 43
2.5
 50
122.5938568827803
  0
INSERT
  5
4CF
330
27A
100
AcDbEntity
  8
AM_5
100
AcDbBlockReference
  2
_Open
 10
38.27275347316515
 20
13.51853066872972
 30
0.0
 41
2.5
 42
2.5
 43
2.5
 50
357.4061431172197
  0
MTEXT
  5
4D0
102
{ACAD_XDICTIONARY
360
91D
102
}
330
27A
100
AcDbEntity
  8
AM_5
 62
   140
100
AcDbMText
 10
25.7732397555389
 20
19.48945768616352
 30
0.0
 40
3.5
 41
0.0
 71
     5
 72
     1
  1
60\U+00B0
 11
0.8660254037844389
 21
-0.4999999999999995
 31
0.0
 73
     1
 44
1.0
1001
ACAD
1000
MTEXTBEGIN
1070
    73
1070
     1
1070
    44
1040
1.0
1070
    74
1070
     0
1000
MTEXTEND
  0
POINT
  5
4D1
330
27A
100
AcDbEntity
  8
Defpoints
 62
     0
100
AcDbPoint
 10
20.51849698536186
 20
19.98055156181773
 30
0.0
  0
POINT
  5
4D2
330
27A
100
AcDbEntity
  8
Defpoints
 62
     0
100
AcDbPoint
 10
24.84935971450631
 20
33.38925051499633
 30
0.0
  0
POINT
  5
4D3
330
27A
100
AcDbEntity
  8
Defpoints
 62
     0
100
AcDbPoint
 10
38.27275347316515
 20
41.13925051499633
 30
0.0
  0
POINT
  5
4D4
330
27A
100
AcDbEntity
  8
Defpoints
 62
     0
100
AcDbPoint
 10
38.27275347316515
 20
18.88925051499632
 30
0.0
  0
POINT
  5
4D5
102
{ACAD_REACTORS
330
7AC
102
}
330
27A
100
AcDbEntity
  8
Defpoints
 62
     0
100
AcDbPoint
 10
51.69614723182388
 20
48.88925051499632
 30
0.0
  0
ENDBLK
  5
27C
330
27A
100
AcDbEntity
  8
0
100
AcDbBlockEnd
  0
BLOCK
  5
289
330
288
100
AcDbEntity
  8
0
100
AcDbBlockBegin
  2
*D6
 70
     1
 10
0.0
 20
0.0
 30
0.0
  3
*D6
  1

  0
LINE
  5
4D6
330
288
100
AcDbEntity
  8
AM_5
  6
ByBlock
100
AcDbLine
 10
85.52269945911694
 20
39.88925051499633
 30
0.0
 11
76.82236948750959
 21
39.88925051499633
 31
0.0
  0
LINE
  5
4D7
330
288
100
AcDbEntity
  8
AM_5
  6
ByBlock
100
AcDbLine
 10
85.52269945911694
 20
42.38925051499633
 30
0.0
 11
76.82236948750959
 21
42.38925051499633
 31
0.0
  0
LINE
  5
4D8
330
288
100
AcDbEntity
  8
AM_5
  6
ByBlock
100
AcDbLine
 10
77.82236948750959
 20
37.38925051499633
 30
0.0
 11
77.82236948750959
 21
34.88925051499633
 31
0.0
  0
LINE
  5
4D9
330
288
100
AcDbEntity
  8
AM_5
  6
ByBlock
100
AcDbLine
 10
77.82236948750959
 20
44.88925051499633
 30
0.0
 11
77.82236948750959
 21
58.25096978967732
 31
0.0
  0
LINE
  5
4DA
330
288
100
AcDbEntity
  8
AM_5
  6
ByBlock
100
AcDbLine
 10
77.82236948750959
 20
39.88925051499633
 30
0.0
 11
77.82236948750959
 21
42.38925051499633
 31
0.0
  0
INSERT
  5
4DB
330
288
100
AcDbEntity
  8
AM_5
100
AcDbBlockReference
  2
_Open
 10
77.82236948750959
 20
39.88925051499633
 30
0.0
 41
2.5
 42
2.5
 43
2.5
 50
90.0
  0
INSERT
  5
4DC
330
288
100
AcDbEntity
  8
AM_5
100
AcDbBlockReference
  2
_Open
 10
77.82236948750959
 20
42.38925051499633
 30
0.0
 41
2.5
 42
2.5
 43
2.5
 50
270.0
  0
MTEXT
  5
4DD
330
288
100
AcDbEntity
  8
AM_5
 62
   140
100
AcDbMText
 10
75.19950179106903
 20
52.82011015233685
 30
0.0
 40
3.5
 41
0.0
 71
     5
 72
     1
  1
%%c2.5
 11
0.0000000000000001
 21
1.0
 31
0.0
 73
     1
 44
1.0
1001
ACAD
1000
MTEXTBEGIN
1070
    73
1070
     1
1070
    44
1040
1.0
1070
    74
1070
     0
1000
MTEXTEND
  0
POINT
  5
4DE
330
288
100
AcDbEntity
  8
Defpoints
 62
     0
100
AcDbPoint
 10
86.02269945911695
 20
39.88925051499633
 30
0.0
  0
POINT
  5
4DF
330
288
100
AcDbEntity
  8
Defpoints
 62
     0
100
AcDbPoint
 10
86.02269945911695
 20
42.38925051499633
 30
0.0
  0
POINT
  5
4E0
330
288
100
AcDbEntity
  8
Defpoints
 62
     0
100
AcDbPoint
 10
77.82236948750959
 20
42.38925051499633
 30
0.0
  0
ENDBLK
  5
28A
330
288
100
AcDbEntity
  8
0
100
AcDbBlockEnd
  0
BLOCK
  5
297
330
296
100
AcDbEntity
  8
0
100
AcDbBlockBegin
  2
*D7
 70
     1
 10
0.0
 20
0.0
 30
0.0
  3
*D7
  1

  0
LINE
  5
4E1
330
296
100
AcDbEntity
  8
AM_5
  6
ByBlock
100
AcDbLine
 10
92.32237049750963
 20
35.03925051499596
 30
0.0
 11
68.82236948750962
 21
35.03925051499597
 31
0.0
  0
LINE
  5
4E2
330
296
100
AcDbEntity
  8
AM_5
  6
ByBlock
100
AcDbLine
 10
92.32237049750963
 20
47.23925051499577
 30
0.0
 11
68.82236948750962
 21
47.23925051499578
 31
0.0
  0
LINE
  5
4E3
330
296
100
AcDbEntity
  8
AM_5
  6
ByBlock
100
AcDbLine
 10
69.8223694875096
 20
37.53925051499597
 30
0.0
 11
69.8223694875096
 21
44.73925051499578
 31
0.0
  0
LINE
  5
4E4
330
296
100
AcDbEntity
  8
AM_5
  6
ByBlock
100
AcDbLine
 10
69.8223694875096
 20
47.23925051499578
 30
0.0
 11
69.8223694875096
 21
63.26886770774259
 31
0.0
  0
INSERT
  5
4E5
330
296
100
AcDbEntity
  8
AM_5
100
AcDbBlockReference
  2
_Open
 10
69.8223694875096
 20
35.03925051499597
 30
0.0
 41
2.5
 42
2.5
 43
2.5
 50
270.0
  0
INSERT
  5
4E6
330
296
100
AcDbEntity
  8
AM_5
100
AcDbBlockReference
  2
_Open
 10
69.8223694875096
 20
47.23925051499578
 30
0.0
 41
2.5
 42
2.5
 43
2.5
 50
90.0
  0
MTEXT
  5
4E7
330
296
100
AcDbEntity
  8
AM_5
 62
   140
100
AcDbMText
 10
67.23593563928931
 20
56.50405911136918
 30
0.0
 40
3.5
 41
0.0
 71
     5
 72
     1
  1
%%c12.2
 11
0.0000000000000001
 21
1.0
 31
0.0
 73
     1
 44
1.0
1001
ACAD
1000
MTEXTBEGIN
1070
    73
1070
     1
1070
    44
1040
1.0
1070
    74
1070
     0
1000
MTEXTEND
  0
POINT
  5
4E8
330
296
100
AcDbEntity
  8
Defpoints
 62
     0
100
AcDbPoint
 10
92.82237049750959
 20
35.03925051499596
 30
0.0
  0
POINT
  5
4E9
330
296
100
AcDbEntity
  8
Defpoints
 62
     0
100
AcDbPoint
 10
92.82237049750959
 20
47.23925051499577
 30
0.0
  0
POINT
  5
4EA
330
296
100
AcDbEntity
  8
Defpoints
 62
     0
100
AcDbPoint
 10
69.8223694875096
 20
47.23925051499578
 30
0.0
  0
ENDBLK
  5
298
330
296
100
AcDbEntity
  8
0
100
AcDbBlockEnd
  0
BLOCK
  5
2A4
330
2A3
100
AcDbEntity
  8
0
100
AcDbBlockBegin
  2
*D8
 70
     1
 10
0.0
 20
0.0
 30
0.0
  3
*D8
  1

  0
LINE
  5
4EB
330
2A3
100
AcDbEntity
  8
AM_5
  6
ByBlock
100
AcDbLine
 10
92.82237049750959
 20
47.73925051499578
 30
0.0
 11
92.82237049750959
 21
76.38925151499634
 31
0.0
  0
LINE
  5
4EC
330
2A3
100
AcDbEntity
  8
AM_5
  6
ByBlock
100
AcDbLine
 10
96.32237049750964
 20
60.88925051499632
 30
0.0
 11
96.32237049750964
 21
76.38925151499634
 31
0.0
  0
LINE
  5
4ED
330
2A3
100
AcDbEntity
  8
AM_5
  6
ByBlock
100
AcDbLine
 10
90.32237049750959
 20
75.38925151499634
 30
0.0
 11
87.82237049750959
 21
75.38925151499634
 31
0.0
  0
LINE
  5
4EE
330
2A3
100
AcDbEntity
  8
AM_5
  6
ByBlock
100
AcDbLine
 10
98.82237049750964
 20
75.38925151499634
 30
0.0
 11
109.1560843994572
 21
75.38925151499634
 31
0.0
  0
LINE
  5
4EF
330
2A3
100
AcDbEntity
  8
AM_5
  6
ByBlock
100
AcDbLine
 10
92.82237049750959
 20
75.38925151499634
 30
0.0
 11
96.32237049750964
 21
75.38925151499634
 31
0.0
  0
INSERT
  5
4F0
330
2A3
100
AcDbEntity
  8
AM_5
100
AcDbBlockReference
  2
_Open
 10
92.82237049750959
 20
75.38925151499634
 30
0.0
 41
2.5
 42
2.5
 43
2.5
  0
INSERT
  5
4F1
330
2A3
100
AcDbEntity
  8
AM_5
100
AcDbBlockReference
  2
_Open
 10
96.32237049750964
 20
75.38925151499634
 30
0.0
 41
2.5
 42
2.5
 43
2.5
 50
180.0
  0
MTEXT
  5
4F2
330
2A3
100
AcDbEntity
  8
AM_5
 62
   140
100
AcDbMText
 10
105.2392274484834
 20
78.01211921143691
 30
0.0
 40
3.5
 41
0.0
 71
     5
 72
     1
  1
3.5
 73
     1
 44
1.0
1001
ACAD
1000
MTEXTBEGIN
1070
    73
1070
     1
1070
    44
1040
1.0
1070
    74
1070
     0
1000
MTEXTEND
  0
POINT
  5
4F3
330
2A3
100
AcDbEntity
  8
Defpoints
 62
     0
100
AcDbPoint
 10
92.82237049750959
 20
47.23925051499578
 30
0.0
  0
POINT
  5
4F4
330
2A3
100
AcDbEntity
  8
Defpoints
 62
     0
100
AcDbPoint
 10
96.32237049750964
 20
60.38925051499631
 30
0.0
  0
POINT
  5
4F5
330
2A3
100
AcDbEntity
  8
Defpoints
 62
     0
100
AcDbPoint
 10
96.32237049750964
 20
75.38925151499634
 30
0.0
  0
ENDBLK
  5
2A5
330
2A3
100
AcDbEntity
  8
0
100
AcDbBlockEnd
  0
BLOCK
  5
2B2
330
2B1
100
AcDbEntity
  8
0
100
AcDbBlockBegin
  2
*D9
 70
     1
 10
0.0
 20
0.0
 30
0.0
  3
*D9
  1

  0
LINE
  5
4F6
330
2B1
100
AcDbEntity
  8
AM_5
  6
ByBlock
100
AcDbLine
 10
96.32237049750964
 20
60.88925051499632
 30
0.0
 11
96.32237049750964
 21
84.38925151499635
 31
0.0
  0
LINE
  5
4F7
330
2B1
100
AcDbEntity
  8
AM_5
  6
ByBlock
100
AcDbLine
 10
85.82237049750961
 20
41.63925051499631
 30
0.0
 11
85.82237049750961
 21
84.38925151499635
 31
0.0
  0
LINE
  5
4F8
330
2B1
100
AcDbEntity
  8
AM_5
  6
ByBlock
100
AcDbLine
 10
93.8223704975096
 20
83.38925151499635
 30
0.0
 11
88.32237049750961
 21
83.38925151499635
 31
0.0
  0
INSERT
  5
4F9
330
2B1
100
AcDbEntity
  8
AM_5
100
AcDbBlockReference
  2
_Open
 10
96.32237049750964
 20
83.38925151499635
 30
0.0
 41
2.5
 42
2.5
 43
2.5
  0
INSERT
  5
4FA
330
2B1
100
AcDbEntity
  8
AM_5
100
AcDbBlockReference
  2
_Open
 10
85.82237049750961
 20
83.38925151499635
 30
0.0
 41
2.5
 42
2.5
 43
2.5
 50
180.0
  0
MTEXT
  5
4FB
330
2B1
100
AcDbEntity
  8
AM_5
 62
   140
100
AcDbMText
 10
91.07237049750963
 20
86.01094392601046
 30
0.0
 40
3.5
 41
0.0
 71
     5
 72
     1
  1
10.5
 73
     1
 44
1.0
1001
ACAD
1000
MTEXTBEGIN
1070
    73
1070
     1
1070
    44
1040
1.0
1070
    74
1070
     0
1000
MTEXTEND
  0
POINT
  5
4FC
330
2B1
100
AcDbEntity
  8
Defpoints
 62
     0
100
AcDbPoint
 10
96.32237049750964
 20
60.38925051499631
 30
0.0
  0
POINT
  5
4FD
330
2B1
100
AcDbEntity
  8
Defpoints
 62
     0
100
AcDbPoint
 10
85.82237049750961
 20
41.13925051499633
 30
0.0
  0
POINT
  5
4FE
330
2B1
100
AcDbEntity
  8
Defpoints
 62
     0
100
AcDbPoint
 10
85.82237049750961
 20
83.38925151499635
 30
0.0
  0
ENDBLK
  5
2B3
330
2B1
100
AcDbEntity
  8
0
100
AcDbBlockEnd
  0
BLOCK
  5
2BE
330
2BD
100
AcDbEntity
  8
0
100
AcDbBlockBegin
  2
*D10
 70
     1
 10
0.0
 20
0.0
 30
0.0
  3
*D10
  1

  0
LINE
  5
4FF
330
2BD
100
AcDbEntity
  8
AM_5
  6
ByBlock
100
AcDbLine
 10
96.32237049750964
 20
60.88925051499632
 30
0.0
 11
96.32237049750964
 21
84.38925151499635
 31
0.0
  0
LINE
  5
500
330
2BD
100
AcDbEntity
  8
AM_5
  6
ByBlock
100
AcDbLine
 10
146.3223704975095
 20
59.4392505149965
 30
0.0
 11
146.3223704975095
 21
84.38925151499635
 31
0.0
  0
LINE
  5
501
330
2BD
100
AcDbEntity
  8
AM_5
  6
ByBlock
100
AcDbLine
 10
98.82237049750964
 20
83.38925151499635
 30
0.0
 11
143.8223704975095
 21
83.38925151499635
 31
0.0
  0
INSERT
  5
502
330
2BD
100
AcDbEntity
  8
AM_5
100
AcDbBlockReference
  2
_Open
 10
96.32237049750964
 20
83.38925151499635
 30
0.0
 41
2.5
 42
2.5
 43
2.5
 50
180.0
  0
INSERT
  5
503
330
2BD
100
AcDbEntity
  8
AM_5
100
AcDbBlockReference
  2
_Open
 10
146.3223704975095
 20
83.38925151499635
 30
0.0
 41
2.5
 42
2.5
 43
2.5
  0
MTEXT
  5
504
330
2BD
100
AcDbEntity
  8
AM_5
 62
   140
100
AcDbMText
 10
121.3223704975096
 20
86.01094392601046
 30
0.0
 40
3.5
 41
0.0
 71
     5
 72
     1
  1
50
 73
     1
 44
1.0
1001
ACAD
1000
MTEXTBEGIN
1070
    73
1070
     1
1070
    44
1040
1.0
1070
    74
1070
     0
1000
MTEXTEND
  0
POINT
  5
505
330
2BD
100
AcDbEntity
  8
Defpoints
 62
     0
100
AcDbPoint
 10
96.32237049750964
 20
60.38925051499631
 30
0.0
  0
POINT
  5
506
330
2BD
100
AcDbEntity
  8
Defpoints
 62
     0
100
AcDbPoint
 10
146.3223704975095
 20
58.93925051499651
 30
0.0
  0
POINT
  5
507
330
2BD
100
AcDbEntity
  8
Defpoints
 62
     0
100
AcDbPoint
 10
146.3223704975095
 20
83.38925151499635
 30
0.0
  0
ENDBLK
  5
2BF
330
2BD
100
AcDbEntity
  8
0
100
AcDbBlockEnd
  0
BLOCK
  5
2CA
330
2C9
100
AcDbEntity
  8
0
100
AcDbBlockBegin
  2
*D11
 70
     1
 10
0.0
 20
0.0
 30
0.0
  3
*D11
  1

  0
LINE
  5
508
330
2C9
100
AcDbEntity
  8
AM_5
  6
ByBlock
100
AcDbLine
 10
146.3223704975095
 20
59.4392505149965
 30
0.0
 11
146.3223704975095
 21
77.38925151499626
 31
0.0
  0
LINE
  5
509
330
2C9
100
AcDbEntity
  8
AM_5
  6
ByBlock
100
AcDbLine
 10
149.5223704975095
 20
47.43925051499561
 30
0.0
 11
149.5223704975095
 21
77.38925151499626
 31
0.0
  0
LINE
  5
50A
330
2C9
100
AcDbEntity
  8
AM_5
  6
ByBlock
100
AcDbLine
 10
152.0223704975095
 20
76.38925151499626
 30
0.0
 11
154.5223704975095
 21
76.38925151499626
 31
0.0
  0
LINE
  5
50B
330
2C9
100
AcDbEntity
  8
AM_5
  6
ByBlock
100
AcDbLine
 10
143.8223704975095
 20
76.38925151499626
 30
0.0
 11
133.4486968910622
 21
76.38925151499626
 31
0.0
  0
LINE
  5
50C
330
2C9
100
AcDbEntity
  8
AM_5
  6
ByBlock
100
AcDbLine
 10
149.5223704975095
 20
76.38925151499626
 30
0.0
 11
146.3223704975095
 21
76.38925151499626
 31
0.0
  0
INSERT
  5
50D
330
2C9
100
AcDbEntity
  8
AM_5
100
AcDbBlockReference
  2
_Open
 10
149.5223704975095
 20
76.38925151499626
 30
0.0
 41
2.5
 42
2.5
 43
2.5
 50
180.0
  0
INSERT
  5
50E
330
2C9
100
AcDbEntity
  8
AM_5
100
AcDbBlockReference
  2
_Open
 10
146.3223704975095
 20
76.38925151499626
 30
0.0
 41
2.5
 42
2.5
 43
2.5
  0
MTEXT
  5
50F
330
2C9
100
AcDbEntity
  8
AM_5
 62
   140
100
AcDbMText
 10
137.3855336942859
 20
79.01211921143683
 30
0.0
 40
3.5
 41
0.0
 71
     5
 72
     1
  1
3.2
 73
     1
 44
1.0
1001
ACAD
1000
MTEXTBEGIN
1070
    73
1070
     1
1070
    44
1040
1.0
1070
    74
1070
     0
1000
MTEXTEND
  0
POINT
  5
510
330
2C9
100
AcDbEntity
  8
Defpoints
 62
     0
100
AcDbPoint
 10
146.3223704975095
 20
58.93925051499651
 30
0.0
  0
POINT
  5
511
330
2C9
100
AcDbEntity
  8
Defpoints
 62
     0
100
AcDbPoint
 10
149.5223704975095
 20
46.93925051499561
 30
0.0
  0
POINT
  5
512
330
2C9
100
AcDbEntity
  8
Defpoints
 62
     0
100
AcDbPoint
 10
149.5223704975095
 20
76.38925151499626
 30
0.0
  0
ENDBLK
  5
2CB
330
2C9
100
AcDbEntity
  8
0
100
AcDbBlockEnd
  0
BLOCK
  5
2D8
330
2D7
100
AcDbEntity
  8
0
100
AcDbBlockBegin
  2
*D12
 70
     1
 10
0.0
 20
0.0
 30
0.0
  3
*D12
  1

  0
LINE
  5
513
330
2D7
100
AcDbEntity
  8
AM_5
  6
ByBlock
100
AcDbLine
 10
149.8223704975095
 20
35.13925051499614
 30
0.0
 11
166.5223714975095
 21
35.13925051499614
 31
0.0
  0
LINE
  5
514
330
2D7
100
AcDbEntity
  8
AM_5
  6
ByBlock
100
AcDbLine
 10
149.8223704975095
 20
47.13925051499631
 30
0.0
 11
166.5223714975095
 21
47.13925051499631
 31
0.0
  0
LINE
  5
515
330
2D7
100
AcDbEntity
  8
AM_5
  6
ByBlock
100
AcDbLine
 10
165.5223714975095
 20
37.63925051499614
 30
0.0
 11
165.5223714975095
 21
44.63925051499631
 31
0.0
  0
INSERT
  5
516
330
2D7
100
AcDbEntity
  8
AM_5
100
AcDbBlockReference
  2
_Open
 10
165.5223714975095
 20
35.13925051499614
 30
0.0
 41
2.5
 42
2.5
 43
2.5
 50
270.0
  0
INSERT
  5
517
330
2D7
100
AcDbEntity
  8
AM_5
100
AcDbBlockReference
  2
_Open
 10
165.5223714975095
 20
47.13925051499631
 30
0.0
 41
2.5
 42
2.5
 43
2.5
 50
90.0
  0
MTEXT
  5
518
330
2D7
100
AcDbEntity
  8
AM_5
 62
   140
100
AcDbMText
 10
162.9359376492892
 20
41.13925051499625
 30
0.0
 40
3.5
 41
0.0
 71
     5
 72
     1
  1
%%c12
 11
0.0000000000000001
 21
1.0
 31
0.0
 73
     1
 44
1.0
1001
ACAD
1000
MTEXTBEGIN
1070
    73
1070
     1
1070
    44
1040
1.0
1070
    74
1070
     0
1000
MTEXTEND
  0
POINT
  5
519
330
2D7
100
AcDbEntity
  8
Defpoints
 62
     0
100
AcDbPoint
 10
149.3223704975095
 20
35.13925051499614
 30
0.0
  0
POINT
  5
51A
330
2D7
100
AcDbEntity
  8
Defpoints
 62
     0
100
AcDbPoint
 10
149.3223704975095
 20
47.13925051499631
 30
0.0
  0
POINT
  5
51B
330
2D7
100
AcDbEntity
  8
Defpoints
 62
     0
100
AcDbPoint
 10
165.5223714975095
 20
47.13925051499631
 30
0.0
  0
ENDBLK
  5
2D9
330
2D7
100
AcDbEntity
  8
0
100
AcDbBlockEnd
  0
BLOCK
  5
2E4
330
2E3
100
AcDbEntity
  8
0
100
AcDbBlockBegin
  2
*D13
 70
     1
 10
0.0
 20
0.0
 30
0.0
  3
*D13
  1

  0
LINE
  5
51C
330
2E3
100
AcDbEntity
  8
AM_5
  6
ByBlock
100
AcDbLine
 10
146.6223704975095
 20
23.13925051499633
 30
0.0
 11
174.5223714975096
 21
23.13925051499632
 31
0.0
  0
LINE
  5
51D
330
2E3
100
AcDbEntity
  8
AM_5
  6
ByBlock
100
AcDbLine
 10
146.6223704975095
 20
59.13925051499651
 30
0.0
 11
174.5223714975096
 21
59.13925051499651
 31
0.0
  0
LINE
  5
51E
330
2E3
100
AcDbEntity
  8
AM_5
  6
ByBlock
100
AcDbLine
 10
173.5223714975095
 20
25.63925051499632
 30
0.0
 11
173.5223714975095
 21
56.63925051499651
 31
0.0
  0
INSERT
  5
51F
330
2E3
100
AcDbEntity
  8
AM_5
100
AcDbBlockReference
  2
_Open
 10
173.5223714975095
 20
23.13925051499632
 30
0.0
 41
2.5
 42
2.5
 43
2.5
 50
270.0
  0
INSERT
  5
520
330
2E3
100
AcDbEntity
  8
AM_5
100
AcDbBlockReference
  2
_Open
 10
173.5223714975095
 20
59.13925051499651
 30
0.0
 41
2.5
 42
2.5
 43
2.5
 50
90.0
  0
MTEXT
  5
521
330
2E3
100
AcDbEntity
  8
AM_5
 62
   140
100
AcDbMText
 10
170.899503801069
 20
41.13925051499644
 30
0.0
 40
3.5
 41
0.0
 71
     5
 72
     1
  1
%%c36
 11
0.0000000000000001
 21
1.0
 31
0.0
 73
     1
 44
1.0
1001
ACAD
1000
MTEXTBEGIN
1070
    73
1070
     1
1070
    44
1040
1.0
1070
    74
1070
     0
1000
MTEXTEND
  0
POINT
  5
522
330
2E3
100
AcDbEntity
  8
Defpoints
 62
     0
100
AcDbPoint
 10
146.1223704975095
 20
23.13925051499633
 30
0.0
  0
POINT
  5
523
330
2E3
100
AcDbEntity
  8
Defpoints
 62
     0
100
AcDbPoint
 10
146.1223704975095
 20
59.13925051499651
 30
0.0
  0
POINT
  5
524
330
2E3
100
AcDbEntity
  8
Defpoints
 62
     0
100
AcDbPoint
 10
173.5223714975095
 20
59.13925051499651
 30
0.0
  0
ENDBLK
  5
2E5
330
2E3
100
AcDbEntity
  8
0
100
AcDbBlockEnd
  0
BLOCK
  5
2F0
330
2EF
100
AcDbEntity
  8
0
100
AcDbBlockBegin
  2
*D14
 70
     1
 10
0.0
 20
0.0
 30
0.0
  3
*D14
  1

  0
LINE
  5
525
330
2EF
100
AcDbEntity
  8
AM_5
  6
ByBlock
100
AcDbLine
 10
133.3223704975095
 20
21.88925051499633
 30
0.0
 11
182.5223714975095
 21
21.88925051499631
 31
0.0
  0
LINE
  5
526
330
2EF
100
AcDbEntity
  8
AM_5
  6
ByBlock
100
AcDbLine
 10
133.3223704975095
 20
60.38925051499631
 30
0.0
 11
182.5223714975095
 21
60.38925051499631
 31
0.0
  0
LINE
  5
527
330
2EF
100
AcDbEntity
  8
AM_5
  6
ByBlock
100
AcDbLine
 10
181.5223714975095
 20
24.38925051499631
 30
0.0
 11
181.5223714975095
 21
57.88925051499631
 31
0.0
  0
INSERT
  5
528
330
2EF
100
AcDbEntity
  8
AM_5
100
AcDbBlockReference
  2
_Open
 10
181.5223714975095
 20
21.88925051499631
 30
0.0
 41
2.5
 42
2.5
 43
2.5
 50
270.0
  0
INSERT
  5
529
330
2EF
100
AcDbEntity
  8
AM_5
100
AcDbBlockReference
  2
_Open
 10
181.5223714975095
 20
60.38925051499631
 30
0.0
 41
2.5
 42
2.5
 43
2.5
 50
90.0
  0
MTEXT
  5
52A
330
2EF
100
AcDbEntity
  8
AM_5
 62
   140
100
AcDbMText
 10
178.8924520885101
 20
41.13925051499633
 30
0.0
 40
3.5
 41
0.0
 71
     5
 72
     1
  1
%%c38.5
 11
0.0000000000000001
 21
1.0
 31
0.0
 73
     1
 44
1.0
1001
ACAD
1000
MTEXTBEGIN
1070
    73
1070
     1
1070
    44
1040
1.0
1070
    74
1070
     0
1000
MTEXTEND
  0
POINT
  5
52B
330
2EF
100
AcDbEntity
  8
Defpoints
 62
     0
100
AcDbPoint
 10
132.8223704975095
 20
21.88925051499633
 30
0.0
  0
POINT
  5
52C
330
2EF
100
AcDbEntity
  8
Defpoints
 62
     0
100
AcDbPoint
 10
132.8223704975095
 20
60.38925051499631
 30
0.0
  0
POINT
  5
52D
330
2EF
100
AcDbEntity
  8
Defpoints
 62
     0
100
AcDbPoint
 10
181.5223714975095
 20
60.38925051499631
 30
0.0
  0
ENDBLK
  5
2F1
330
2EF
100
AcDbEntity
  8
0
100
AcDbBlockEnd
  0
BLOCK
  5
2FC
330
2FB
100
AcDbEntity
  8
0
100
AcDbBlockBegin
  2
*D15
 70
     1
 10
0.0
 20
0.0
 30
0.0
  3
*D15
  1

  0
LINE
  5
52E
330
2FB
100
AcDbEntity
  8
AM_5
  6
ByBlock
100
AcDbLine
 10
151.3223704975086
 20
27.00218174968564
 30
0.0
 11
151.3223704975086
 21
14.13924951499633
 31
0.0
  0
LINE
  5
52F
330
2FB
100
AcDbEntity
  8
AM_5
  6
ByBlock
100
AcDbLine
 10
146.3223704975095
 20
22.83925051499615
 30
0.0
 11
146.3223704975095
 21
14.13924951499633
 31
0.0
  0
LINE
  5
530
330
2FB
100
AcDbEntity
  8
AM_5
  6
ByBlock
100
AcDbLine
 10
153.8223704975086
 20
15.13924951499634
 30
0.0
 11
156.3223704975086
 21
15.13924951499634
 31
0.0
  0
LINE
  5
531
330
2FB
100
AcDbEntity
  8
AM_5
  6
ByBlock
100
AcDbLine
 10
143.8223704975095
 20
15.13924951499634
 30
0.0
 11
133.9164604907935
 21
15.13924951499634
 31
0.0
  0
LINE
  5
532
330
2FB
100
AcDbEntity
  8
AM_5
  6
ByBlock
100
AcDbLine
 10
151.3223704975086
 20
15.13924951499634
 30
0.0
 11
146.3223704975095
 21
15.13924951499634
 31
0.0
  0
INSERT
  5
533
330
2FB
100
AcDbEntity
  8
AM_5
100
AcDbBlockReference
  2
_Open
 10
151.3223704975086
 20
15.13924951499634
 30
0.0
 41
2.5
 42
2.5
 43
2.5
 50
180.0
  0
INSERT
  5
534
330
2FB
100
AcDbEntity
  8
AM_5
100
AcDbBlockReference
  2
_Open
 10
146.3223704975095
 20
15.13924951499634
 30
0.0
 41
2.5
 42
2.5
 43
2.5
  0
MTEXT
  5
535
330
2FB
100
AcDbEntity
  8
AM_5
 62
   140
100
AcDbMText
 10
137.6194154941515
 20
18.25221123427101
 30
0.0
 40
3.5
 41
0.0
 71
     5
 72
     1
  1
(5)
 73
     1
 44
1.0
1001
ACAD
1000
MTEXTBEGIN
1070
    73
1070
     1
1070
    44
1040
1.0
1070
    74
1070
     0
1000
MTEXTEND
  0
POINT
  5
536
330
2FB
100
AcDbEntity
  8
Defpoints
 62
     0
100
AcDbPoint
 10
151.3223704975086
 20
27.50218174968564
 30
0.0
  0
POINT
  5
537
330
2FB
100
AcDbEntity
  8
Defpoints
 62
     0
100
AcDbPoint
 10
146.3223704975095
 20
23.33925051499615
 30
0.0
  0
POINT
  5
538
330
2FB
100
AcDbEntity
  8
Defpoints
 62
     0
100
AcDbPoint
 10
146.3223704975095
 20
15.13924951499634
 30
0.0
  0
ENDBLK
  5
2FD
330
2FB
100
AcDbEntity
  8
0
100
AcDbBlockEnd
  0
BLOCK
  5
30A
330
309
100
AcDbEntity
  8
0
100
AcDbBlockBegin
  2
*D16
 70
     1
 10
0.0
 20
0.0
 30
0.0
  3
*D16
  1

  0
LINE
  5
539
330
309
100
AcDbEntity
  8
AM_5
  6
ByBlock
100
AcDbLine
 10
146.3223704975095
 20
59.4392505149965
 30
0.0
 11
146.3223704975095
 21
84.38925151499626
 31
0.0
  0
LINE
  5
53A
330
309
100
AcDbEntity
  8
AM_5
  6
ByBlock
100
AcDbLine
 10
156.3223704975095
 20
42.78925051499596
 30
0.0
 11
156.3223704975095
 21
84.38925151499626
 31
0.0
  0
LINE
  5
53B
330
309
100
AcDbEntity
  8
AM_5
  6
ByBlock
100
AcDbLine
 10
148.8223704975095
 20
83.38925151499626
 30
0.0
 11
153.8223704975095
 21
83.38925151499626
 31
0.0
  0
INSERT
  5
53C
330
309
100
AcDbEntity
  8
AM_5
100
AcDbBlockReference
  2
_Open
 10
146.3223704975095
 20
83.38925151499626
 30
0.0
 41
2.5
 42
2.5
 43
2.5
 50
180.0
  0
INSERT
  5
53D
330
309
100
AcDbEntity
  8
AM_5
100
AcDbBlockReference
  2
_Open
 10
156.3223704975095
 20
83.38925151499626
 30
0.0
 41
2.5
 42
2.5
 43
2.5
  0
MTEXT
  5
53E
330
309
100
AcDbEntity
  8
AM_5
 62
   140
100
AcDbMText
 10
151.3223704975095
 20
86.01094392601039
 30
0.0
 40
3.5
 41
0.0
 71
     5
 72
     1
  1
10
 73
     1
 44
1.0
1001
ACAD
1000
MTEXTBEGIN
1070
    73
1070
     1
1070
    44
1040
1.0
1070
    74
1070
     0
1000
MTEXTEND
  0
POINT
  5
53F
330
309
100
AcDbEntity
  8
Defpoints
 62
     0
100
AcDbPoint
 10
146.3223704975095
 20
58.93925051499651
 30
0.0
  0
POINT
  5
540
330
309
100
AcDbEntity
  8
Defpoints
 62
     0
100
AcDbPoint
 10
156.3223704975095
 20
42.28925051499596
 30
0.0
  0
POINT
  5
541
330
309
100
AcDbEntity
  8
Defpoints
 62
     0
100
AcDbPoint
 10
156.3223704975095
 20
83.38925151499626
 30
0.0
  0
ENDBLK
  5
30B
330
309
100
AcDbEntity
  8
0
100
AcDbBlockEnd
  0
BLOCK
  5
717
330
716
100
AcDbEntity
  8
0
100
AcDbBlockBegin
  2
*D18
 70
     1
 10
0.0
 20
0.0
 30
0.0
  3
*D18
  1

  0
LINE
  5
718
330
716
100
AcDbEntity
  8
AM_5
  6
ByBlock
100
AcDbLine
 10
188.8796157612959
 20
34.52166858106445
 30
0.0
 11
195.1812406868039
 21
34.52166858106447
 31
0.0
  0
LINE
  5
719
330
716
100
AcDbEntity
  8
AM_5
  6
ByBlock
100
AcDbLine
 10
183.8751456242501
 20
37.43027555698557
 30
0.0
 11
194.7588715342736
 21
39.34937008555854
 31
0.0
  0
ARC
  5
71A
330
716
100
AcDbEntity
  8
AM_5
  6
ByBlock
100
AcDbCircle
 10
167.3796157612957
 20
34.52166858106444
 30
0.0
 40
26.80162492550818
100
AcDbArc
 50
349.2955757482647
 51
0.0000000000000382
  0
LINE
  5
71B
330
716
100
AcDbEntity
  8
AM_5
  6
ByBlock
100
AcDbLine
 10
193.7148510542819
 20
29.54346803160123
 30
0.0
 11
192.1633087330888
 21
21.33563636840085
 31
0.0
  0
ARC
  5
71C
330
716
100
AcDbEntity
  8
AM_5
  6
ByBlock
100
AcDbCircle
 10
167.3796157612957
 20
34.52166858106444
 30
0.0
 40
26.80162492550818
100
AcDbArc
 50
349.3072581246868
 51
354.6536290623434
  0
ARC
  5
71D
330
716
100
AcDbEntity
  8
AM_5
  6
ByBlock
100
AcDbCircle
 10
167.3796157612957
 20
34.52166858106444
 30
0.0
 40
26.80162492550818
100
AcDbArc
 50
15.34637093765679
 51
20.6927418753134
  0
ARC
  5
71E
330
716
100
AcDbEntity
  8
AM_5
  6
ByBlock
100
AcDbCircle
 10
167.3796157612957
 20
34.52166858106444
 30
0.0
 40
26.80162492550818
100
AcDbArc
 50
0.0000000000000382
 51
10.00000000000018
  0
INSERT
  5
71F
330
716
100
AcDbEntity
  8
AM_5
100
AcDbBlockReference
  2
_Open
 10
194.1812406868038
 20
34.52166858106446
 30
0.0
 41
2.5
 42
2.5
 43
2.5
 50
87.32681453117173
  0
INSERT
  5
720
330
716
100
AcDbEntity
  8
AM_5
100
AcDbBlockReference
  2
_Open
 10
193.7740637812614
 20
39.1757219078916
 30
0.0
 41
2.5
 42
2.5
 43
2.5
 50
282.6731854688285
  0
MTEXT
  5
721
330
716
100
AcDbEntity
  8
AM_5
 62
   140
100
AcDbMText
 10
195.5151508110939
 20
24.95259252358929
 30
0.0
 40
3.5
 41
0.0
 71
     5
 72
     1
  1
10\U+00B0
 11
-0.185742489990794
 21
-0.9825984568540802
 31
0.0
 73
     1
 44
1.0
1001
ACAD
1000
MTEXTBEGIN
1070
    73
1070
     1
1070
    44
1040
1.0
1070
    74
1070
     0
1000
MTEXTEND
  0
POINT
  5
722
330
716
100
AcDbEntity
  8
Defpoints
 62
     0
100
AcDbPoint
 10
194.000017687123
 20
37.63314732195816
 30
0.0
  0
POINT
  5
723
330
716
100
AcDbEntity
  8
Defpoints
 62
     0
100
AcDbPoint
 10
167.3796157612959
 20
34.52166858106444
 30
0.0
  0
POINT
  5
724
330
716
100
AcDbEntity
  8
Defpoints
 62
     0
100
AcDbPoint
 10
151.3764897748473
 20
31.69988569397677
 30
0.0
  0
POINT
  5
725
330
716
100
AcDbEntity
  8
Defpoints
 62
     0
100
AcDbPoint
 10
183.382741747744
 20
37.3434514681521
 30
0.0
  0
POINT
  5
726
330
716
100
AcDbEntity
  8
Defpoints
 62
     0
100
AcDbPoint
 10
188.3796157612959
 20
34.52166858106445
 30
0.0
  0
ENDBLK
  5
727
330
716
100
AcDbEntity
  8
0
100
AcDbBlockEnd
  0
BLOCK
  5
737
330
72B
100
AcDbEntity
  8
0
100
AcDbBlockBegin
  2
A$C14233291
 70
     0
 10
0.0
 20
0.0
 30
0.0
  3
A$C14233291
  1

  0
INSERT
  5
72C
330
72B
100
AcDbEntity
  8
AM_5
100
AcDbBlockReference
  2
*S29
 10
0.0
 20
0.0
 30
0.0
  0
TEXT
  5
72D
102
{ACAD_XDICTIONARY
360
72E
102
}
330
72B
100
AcDbEntity
  8
AM_6KM
100
AcDbText
 10
169.886812881394
 20
0.9661285439256062
 30
0.0
 40
3.0
  1
Unit(mm)
  7
Note Text (JIS)
100
AcDbText
1001
AcadAnnotative
1000
AnnotativeData
1002
{
1070
     1
1070
     0
1002
}
  0
INSERT
  5
731
330
72B
100
AcDbEntity
  8
AM_5
100
AcDbBlockReference
  2
*S30
 10
0.0
 20
0.0
 30
0.0
  0
INSERT
  5
732
330
72B
100
AcDbEntity
  8
AM_5
100
AcDbBlockReference
  2
*S31
 10
0.0
 20
0.0
 30
0.0
  0
INSERT
  5
733
330
72B
100
AcDbEntity
  8
AM_5
100
AcDbBlockReference
  2
*S32
 10
0.0
 20
0.0
 30
0.0
  0
DIMENSION
  5
734
330
72B
100
AcDbEntity
  8
AM_5
100
AcDbDimension
  2
*D18
 10
178.6655489677981
 20
31.31226944776172
 30
0.0
 11
185.8010840175961
 21
21.74319339028659
 31
0.0
 12
-9.71406679349775
 22
-3.209399133302724
 32
0.0
 70
    34
 71
     5
 42
0.1745329251994354
  3
AM_JIS$2
100
AcDb2LineAngularDimension
 13
141.6624229813496
 23
28.49048656067405
 33
0.0
 14
173.6686749542462
 24
34.13405233484938
 34
0.0
 15
157.6655489677982
 25
31.31226944776172
 35
0.0
 16
184.2859508936252
 26
34.42374818865544
 36
0.0
1001
ACAD
1000
DSTYLE
1002
{
1070
    47
1040
0.0
1070
    48
1040
0.0
1070
   271
1070
     2
1002
}
1001
ACAD_DSTYLE_DIMINSPECT
1070
   396
1000
100%
1070
   395
1000

1070
   394
1070
    33
1070
   393
1070
     0
  0
ENDBLK
  5
738
330
72B
100
AcDbEntity
  8
0
100
AcDbBlockEnd
  0
BLOCK
  5
756
330
755
100
AcDbEntity
  8
0
100
AcDbBlockBegin
  2
*D20
 70
     1
 10
0.0
 20
0.0
 30
0.0
  3
*D20
  1

  0
LINE
  5
757
330
755
100
AcDbEntity
  8
AM_5
  6
ByBlock
100
AcDbLine
 10
30.27275347316517
 20
54.9956569755474
 30
0.0
 11
24.02023922179788
 21
65.82532933396409
 31
0.0
  0
LINE
  5
758
330
755
100
AcDbEntity
  8
AM_5
  6
ByBlock
100
AcDbLine
 10
24.41634701261409
 20
33.13925051499634
 30
0.0
 11
13.58667465419746
 21
26.88673626362902
 31
0.0
  0
ARC
  5
759
330
755
100
AcDbEntity
  8
AM_5
  6
ByBlock
100
AcDbCircle
 10
38.27275347316515
 20
41.13925051499636
 30
0.0
 40
27.50502850273464
100
AcDbArc
 50
125.2095492828408
 51
204.7904507171591
  0
INSERT
  5
75A
330
755
100
AcDbEntity
  8
AM_5
100
AcDbBlockReference
  2
_Open
 10
24.52023922179787
 20
64.95930393017964
 30
0.0
 41
2.5
 42
2.5
 43
2.5
 50
32.60477464142037
  0
INSERT
  5
75B
330
755
100
AcDbEntity
  8
AM_5
100
AcDbBlockReference
  2
_Open
 10
14.4527000579819
 20
27.38673626362903
 30
0.0
 41
2.5
 42
2.5
 43
2.5
 50
297.3952253585795
  0
MTEXT
  5
75C
330
755
100
AcDbEntity
  8
AM_5
 62
   140
100
AcDbMText
 10
9.172575681172247
 20
48.93661965396296
 30
0.0
 40
3.5
 41
0.0
 71
     5
 72
     1
  1
90\U+00B0
 11
0.2588190451025214
 21
0.9659258262890681
 31
0.0
 73
     1
 44
1.0
1001
ACAD
1000
MTEXTBEGIN
1070
    73
1070
     1
1070
    44
1040
1.0
1070
    74
1070
     0
1000
MTEXTEND
  0
POINT
  5
75D
330
755
100
AcDbEntity
  8
Defpoints
 62
     0
100
AcDbPoint
 10
14.4527000579819
 20
54.8917647663637
 30
0.0
  0
POINT
  5
75E
330
755
100
AcDbEntity
  8
Defpoints
 62
     0
100
AcDbPoint
 10
24.84935971450631
 20
33.38925051499634
 30
0.0
  0
POINT
  5
75F
330
755
100
AcDbEntity
  8
Defpoints
 62
     0
100
AcDbPoint
 10
39.77275347316516
 20
38.54117430364301
 30
0.0
  0
POINT
  5
760
330
755
100
AcDbEntity
  8
Defpoints
 62
     0
100
AcDbPoint
 10
30.52275347316517
 20
54.56264427365518
 30
0.0
  0
POINT
  5
761
330
755
100
AcDbEntity
  8
Defpoints
 62
     0
100
AcDbPoint
 10
51.69614723182388
 20
48.88925051499633
 30
0.0
  0
ENDBLK
  5
762
330
755
100
AcDbEntity
  8
0
100
AcDbBlockEnd
  0
BLOCK
  5
77C
330
77B
100
AcDbEntity
  8
0
100
AcDbBlockBegin
  2
*D22
 70
     1
 10
0.0
 20
0.0
 30
0.0
  3
*D22
  1

  0
LINE
  5
789
330
77B
100
AcDbEntity
  8
AM_5
  6
ByBlock
100
AcDbLine
 10
30.27275347316516
 20
54.99565697554739
 30
0.0
 11
24.02023922179788
 21
65.82532933396411
 31
0.0
  0
LINE
  5
78A
330
77B
100
AcDbEntity
  8
AM_5
  6
ByBlock
100
AcDbLine
 10
24.41634701261409
 20
33.13925051499634
 30
0.0
 11
13.58667465419745
 21
26.88673626362902
 31
0.0
  0
ARC
  5
78B
330
77B
100
AcDbEntity
  8
AM_5
  6
ByBlock
100
AcDbCircle
 10
38.27275347316515
 20
41.13925051499636
 30
0.0
 40
27.50502850273465
100
AcDbArc
 50
125.2095492828408
 51
204.7904507171591
  0
INSERT
  5
78C
330
77B
100
AcDbEntity
  8
AM_5
100
AcDbBlockReference
  2
_Open
 10
24.52023922179787
 20
64.95930393017966
 30
0.0
 41
2.5
 42
2.5
 43
2.5
 50
32.60477464142037
  0
INSERT
  5
78D
330
77B
100
AcDbEntity
  8
AM_5
100
AcDbBlockReference
  2
_Open
 10
14.45270005798188
 20
27.38673626362901
 30
0.0
 41
2.5
 42
2.5
 43
2.5
 50
297.3952253585795
  0
MTEXT
  5
78E
330
77B
100
AcDbEntity
  8
AM_5
 62
   140
100
AcDbMText
 10
9.172575681172233
 20
48.93661965396296
 30
0.0
 40
3.5
 41
0.0
 71
     5
 72
     1
  1
90\U+00B0
 11
0.2588190451025214
 21
0.9659258262890681
 31
0.0
 73
     1
 44
1.0
1001
ACAD
1000
MTEXTBEGIN
1070
    73
1070
     1
1070
    44
1040
1.0
1070
    74
1070
     0
1000
MTEXTEND
  0
POINT
  5
78F
330
77B
100
AcDbEntity
  8
Defpoints
 62
     0
100
AcDbPoint
 10
14.45270005798189
 20
54.89176476636372
 30
0.0
  0
POINT
  5
790
330
77B
100
AcDbEntity
  8
Defpoints
 62
     0
100
AcDbPoint
 10
24.84935971450631
 20
33.38925051499634
 30
0.0
  0
POINT
  5
791
330
77B
100
AcDbEntity
  8
Defpoints
 62
     0
100
AcDbPoint
 10
39.77275347316516
 20
38.54117430364301
 30
0.0
  0
POINT
  5
792
330
77B
100
AcDbEntity
  8
Defpoints
 62
     0
100
AcDbPoint
 10
30.52275347316516
 20
54.56264427365518
 30
0.0
  0
POINT
  5
793
330
77B
100
AcDbEntity
  8
Defpoints
 62
     0
100
AcDbPoint
 10
51.69614723182388
 20
48.88925051499633
 30
0.0
  0
ENDBLK
  5
77D
330
77B
100
AcDbEntity
  8
0
100
AcDbBlockEnd
  0
BLOCK
  5
7A0
330
79F
100
AcDbEntity
  8
0
100
AcDbBlockBegin
  2
*D23
 70
     1
 10
0.0
 20
0.0
 30
0.0
  3
*D23
  1

  0
LINE
  5
7B6
330
79F
100
AcDbEntity
  8
AM_5
  6
ByBlock
100
AcDbLine
 10
52.12915993371611
 20
49.13925051499631
 30
0.0
 11
58.24887084061043
 21
52.67246725445446
 31
0.0
  0
LINE
  5
7B7
330
79F
100
AcDbEntity
  8
AM_5
  6
ByBlock
100
AcDbLine
 10
49.60288049208735
 20
31.51489486201418
 30
0.0
 11
65.24887084061046
 21
40.54811160147229
 31
0.0
  0
LINE
  5
7B8
330
79F
100
AcDbEntity
  8
AM_5
  6
ByBlock
100
AcDbLine
 10
58.63284543682601
 20
50.00740374499336
 30
0.0
 11
63.13284543682602
 21
42.21317511093339
 31
0.0
  0
INSERT
  5
7B9
330
79F
100
AcDbEntity
  8
AM_5
100
AcDbBlockReference
  2
_Open
 10
57.382845436826
 20
52.17246725445446
 30
0.0
 41
2.5
 42
2.5
 43
2.5
 50
120.0
  0
INSERT
  5
7BA
330
79F
100
AcDbEntity
  8
AM_5
100
AcDbBlockReference
  2
_Open
 10
64.38284543682603
 20
40.04811160147229
 30
0.0
 41
2.5
 42
2.5
 43
2.5
 50
300.0
  0
MTEXT
  5
7BB
330
79F
100
AcDbEntity
  8
AM_5
 62
   140
100
AcDbMText
 10
63.0962993516564
 20
47.38822764152952
 30
0.0
 40
3.5
 41
0.0
 71
     5
 72
     1
  1
14
 11
0.5000000000000004
 21
-0.8660254037844385
 31
0.0
 73
     1
 44
1.0
1001
ACAD
1000
MTEXTBEGIN
1070
    73
1070
     1
1070
    44
1040
1.0
1070
    74
1070
     0
1000
MTEXTEND
  0
POINT
  5
7BC
330
79F
100
AcDbEntity
  8
Defpoints
 62
     0
100
AcDbPoint
 10
51.69614723182388
 20
48.88925051499632
 30
0.0
  0
POINT
  5
7BD
330
79F
100
AcDbEntity
  8
Defpoints
 62
     0
100
AcDbPoint
 10
49.16986779019513
 20
31.26489486201418
 30
0.0
  0
POINT
  5
7BE
330
79F
100
AcDbEntity
  8
Defpoints
 62
     0
100
AcDbPoint
 10
64.38284543682603
 20
40.04811160147229
 30
0.0
  0
ENDBLK
  5
7A1
330
79F
100
AcDbEntity
  8
0
100
AcDbBlockEnd
  0
BLOCK
  5
7C1
330
7C0
100
AcDbEntity
  8
0
100
AcDbBlockBegin
  2
*D24
 70
     1
 10
0.0
 20
0.0
 30
0.0
  3
*D24
  1

  0
LINE
  5
7F0
330
7C0
100
AcDbEntity
  8
AM_5
  6
ByBlock
100
AcDbLine
 10
38.27275347316515
 20
18.38925051499632
 30
0.0
 11
38.27275347316515
 21
12.51940350494427
 31
0.0
  0
LINE
  5
7F1
330
7C0
100
AcDbEntity
  8
AM_5
  6
ByBlock
100
AcDbLine
 10
47.77275347316515
 20
24.68476784309199
 30
0.0
 11
52.58267697819117
 21
16.35373595186712
 31
0.0
  0
ARC
  5
7F2
330
7C0
100
AcDbEntity
  8
AM_5
  6
ByBlock
100
AcDbCircle
 10
38.27275347316516
 20
41.13925051499633
 30
0.0
 40
27.61984701005206
100
AcDbArc
 50
275.1878778186242
 51
294.8121221813758
  0
INSERT
  5
7F3
330
7C0
100
AcDbEntity
  8
AM_5
100
AcDbBlockReference
  2
_Open
 10
38.27275347316515
 20
13.51940350494427
 30
0.0
 41
2.5
 42
2.5
 43
2.5
 50
182.593938909312
  0
INSERT
  5
7F4
330
7C0
100
AcDbEntity
  8
AM_5
100
AcDbBlockReference
  2
_Open
 10
52.08267697819117
 20
17.21976135565156
 30
0.0
 41
2.5
 42
2.5
 43
2.5
 50
27.40606109068787
  0
MTEXT
  5
7F5
330
7C0
100
AcDbEntity
  8
AM_5
 62
   140
100
AcDbMText
 10
44.74244778956153
 20
16.99402261676539
 30
0.0
 40
3.5
 41
0.0
 71
     5
 72
     1
  1
30\U+00B0
 11
0.9659258262890682
 21
0.2588190451025205
 31
0.0
 73
     1
 44
1.0
1001
ACAD
1000
MTEXTBEGIN
1070
    73
1070
     1
1070
    44
1040
1.0
1070
    74
1070
     0
1000
MTEXTEND
  0
POINT
  5
7F6
330
7C0
100
AcDbEntity
  8
Defpoints
 62
     0
100
AcDbPoint
 10
43.0688895739001
 20
13.939011042486
 30
0.0
  0
POINT
  5
7F7
330
7C0
100
AcDbEntity
  8
Defpoints
 62
     0
100
AcDbPoint
 10
45.27275347316516
 20
29.01489486201418
 30
0.0
  0
POINT
  5
7F8
330
7C0
100
AcDbEntity
  8
Defpoints
 62
     0
100
AcDbPoint
 10
38.27275347316516
 20
41.13925051499633
 30
0.0
  0
POINT
  5
7F9
330
7C0
100
AcDbEntity
  8
Defpoints
 62
     0
100
AcDbPoint
 10
38.27275347316515
 20
18.88925051499633
 30
0.0
  0
POINT
  5
7FA
330
7C0
100
AcDbEntity
  8
Defpoints
 62
     0
100
AcDbPoint
 10
47.52275347316516
 20
25.11778054498421
 30
0.0
  0
ENDBLK
  5
7C2
330
7C0
100
AcDbEntity
  8
0
100
AcDbBlockEnd
  0
BLOCK
  5
899
330
891
100
AcDbEntity
  8
0
100
AcDbBlockBegin
  2
*S25
 70
     1
 10
0.0
 20
0.0
 30
0.0
  3
*S25
  1

  0
LINE
  5
892
330
891
100
AcDbEntity
  8
AM_5
  6
Continuous
 62
    92
100
AcDbLine
 10
10.10039600883645
 20
88.02124426105171
 30
0.0
 11
65.84888492757386
 21
88.02124426105171
 31
0.0
  0
LINE
  5
893
330
891
100
AcDbEntity
  8
AM_5
  6
Continuous
 62
    92
100
AcDbLine
 10
65.84888492757386
 20
88.02124426105171
 30
0.0
 11
50.63316500269398
 21
51.08292394458135
 31
0.0
  0
LINE
  5
894
330
891
100
AcDbEntity
  8
AM_5
  6
Continuous
 62
    92
100
AcDbLine
 10
50.63316500269398
 20
51.08292394458135
 30
0.0
 11
49.68097890970264
 21
48.77135702054176
 31
0.0
  0
LINE
  5
895
330
891
100
AcDbEntity
  8
AM_5
  6
Continuous
 62
    92
100
AcDbLine
 10
50.01378251776678
 20
51.33806143692765
 30
0.0
 11
49.68097890970264
 21
48.77135702054176
 31
0.0
  0
LINE
  5
896
330
891
100
AcDbEntity
  8
AM_5
  6
Continuous
 62
    92
100
AcDbLine
 10
49.68097890970264
 20
48.77135702054176
 30
0.0
 11
51.25254748762118
 21
50.82778645223506
 31
0.0
  0
MTEXT
  5
897
102
{ACAD_XDICTIONARY
360
91F
102
}
330
891
100
AcDbEntity
  8
AM_5
 62
   140
100
AcDbMText
 10
10.10039600883645
 20
92.3086854967804
 30
0.0
 40
3.5
 41
0.0
 71
     1
 72
     5
  1
2-M3\U+00D70.5 TAPPED HOLE\P(2mmMAX)
 73
     1
 44
1.0
1001
ACAD
1000
MTEXTBEGIN
1070
    73
1070
     1
1070
    44
1040
1.0
1070
    74
1070
     0
1000
MTEXTEND
  0
LINE
  5
898
330
891
100
AcDbEntity
  8
AM_5
  6
Continuous
 62
    92
100
AcDbLine
 10
10.10039600883645
 20
88.02124426105171
 30
0.0
 11
62.34888492757385
 21
88.02124426105171
 31
0.0
  0
ENDBLK
  5
89A
330
891
100
AcDbEntity
  8
0
100
AcDbBlockEnd
  0
BLOCK
  5
8A3
330
89C
100
AcDbEntity
  8
0
100
AcDbBlockBegin
  2
*S26
 70
     1
 10
0.0
 20
0.0
 30
0.0
  3
*S26
  1

  0
LINE
  5
89D
330
89C
100
AcDbEntity
  8
AM_5
  6
Continuous
 62
    92
100
AcDbLine
 10
133.5341439430699
 20
67.16308203889131
 30
0.0
 11
117.1859236610014
 21
67.16308203889131
 31
0.0
  0
LINE
  5
89E
330
89C
100
AcDbEntity
  8
AM_5
  6
Continuous
 62
    92
100
AcDbLine
 10
117.1859236610014
 20
67.16308203889131
 30
0.0
 11
113.4017010337563
 21
59.88256444224571
 31
0.0
  0
HATCH
  5
89F
330
89C
100
AcDbEntity
  8
AM_5
 62
    92
100
AcDbHatch
 10
0.0
 20
0.0
 30
0.0
210
0.0
220
0.0
230
1.0
  2
SOLID
 70
     1
 71
     0
 91
        1
 92
        0
 93
        1
 72
     2
 10
112.2487140994221
 20
57.66431713203556
 40
0.4464285714285707
 50
0.0
 51
360.0
 73
     1
 97
        0
 75
     0
 76
     1
 98
        1
 10
112.2487140994221
 20
57.66431713203556
  0
LINE
  5
8A0
330
89C
100
AcDbEntity
  8
AM_5
  6
Continuous
 62
    92
100
AcDbLine
 10
112.4546046234103
 20
58.06043272314451
 30
0.0
 11
113.4017010337563
 21
59.88256444224571
 31
0.0
  0
MTEXT
  5
8A1
330
89C
100
AcDbEntity
  8
AM_5
 62
   140
100
AcDbMText
 10
120.6859236610014
 20
71.36308203889131
 30
0.0
 40
3.5
 41
0.0
 71
     1
 72
     5
  1
LABEL
 73
     1
 44
1.0
1001
ACAD
1000
MTEXTBEGIN
1070
    73
1070
     1
1070
    44
1040
1.0
1070
    74
1070
     0
1000
MTEXTEND
  0
LINE
  5
8A2
330
89C
100
AcDbEntity
  8
AM_5
  6
Continuous
 62
    92
100
AcDbLine
 10
120.6859236610014
 20
67.16308203889131
 30
0.0
 11
133.5341439430699
 21
67.16308203889131
 31
0.0
  0
ENDBLK
  5
8A4
330
89C
100
AcDbEntity
  8
0
100
AcDbBlockEnd
  0
BLOCK
  5
8AE
330
8A6
100
AcDbEntity
  8
0
100
AcDbBlockBegin
  2
*S27
 70
     1
 10
0.0
 20
0.0
 30
0.0
  3
*S27
  1

  0
LINE
  5
8A7
330
8A6
100
AcDbEntity
  8
AM_5
  6
Continuous
 62
    92
100
AcDbLine
 10
186.9863358171481
 20
11.77750025659566
 30
0.0
 11
160.9984244672488
 21
11.77750025659566
 31
0.0
  0
LINE
  5
8A8
330
8A6
100
AcDbEntity
  8
AM_5
  6
Continuous
 62
    92
100
AcDbLine
 10
160.9984244672488
 20
11.77750025659566
 30
0.0
 11
151.3525418033284
 21
25.45894566002675
 31
0.0
  0
LINE
  5
8A9
330
8A6
100
AcDbEntity
  8
AM_5
  6
Continuous
 62
    92
100
AcDbLine
 10
151.3525418033284
 20
25.45894566002675
 30
0.0
 11
149.911991116294
 21
27.50218174968563
 31
0.0
  0
LINE
  5
8AA
330
8A6
100
AcDbEntity
  8
AM_5
  6
Continuous
 62
    92
100
AcDbLine
 10
151.9000252585313
 20
25.84494004977158
 30
0.0
 11
149.911991116294
 21
27.50218174968563
 31
0.0
  0
LINE
  5
8AB
330
8A6
100
AcDbEntity
  8
AM_5
  6
Continuous
 62
    92
100
AcDbLine
 10
149.911991116294
 20
27.50218174968563
 30
0.0
 11
150.8050583481256
 21
25.07295127028192
 31
0.0
  0
MTEXT
  5
8AC
330
8A6
100
AcDbEntity
  8
AM_5
 62
   140
100
AcDbMText
 10
164.4984244672488
 20
15.97750025659566
 30
0.0
 40
3.5
 41
0.0
 71
     1
 72
     5
  1
TERMINAL
 73
     1
 44
1.0
1001
ACAD
1000
MTEXTBEGIN
1070
    73
1070
     1
1070
    44
1040
1.0
1070
    74
1070
     0
1000
MTEXTEND
  0
LINE
  5
8AD
330
8A6
100
AcDbEntity
  8
AM_5
  6
Continuous
 62
    92
100
AcDbLine
 10
164.4984244672488
 20
11.77750025659566
 30
0.0
 11
186.9863358171481
 21
11.77750025659566
 31
0.0
  0
ENDBLK
  5
8AF
330
8A6
100
AcDbEntity
  8
0
100
AcDbBlockEnd
  0
BLOCK
  5
8B9
330
8B1
100
AcDbEntity
  8
0
100
AcDbBlockBegin
  2
*S28
 70
     1
 10
0.0
 20
0.0
 30
0.0
  3
*S28
  1

  0
LINE
  5
8B2
330
8B1
100
AcDbEntity
  8
AM_5
  6
Continuous
 62
    92
100
AcDbLine
 10
230.2049216750871
 20
76.22014255693142
 30
0.0
 11
201.7216063140879
 21
76.22014255693142
 31
0.0
  0
LINE
  5
8B3
330
8B1
100
AcDbEntity
  8
AM_5
  6
Continuous
 62
    92
100
AcDbLine
 10
201.7216063140879
 20
76.22014255693142
 30
0.0
 11
209.8053127560967
 21
56.59925153460214
 31
0.0
  0
LINE
  5
8B4
330
8B1
100
AcDbEntity
  8
AM_5
  6
Continuous
 62
    92
100
AcDbLine
 10
209.8053127560967
 20
56.59925153460214
 30
0.0
 11
210.7576421485172
 21
54.28774364399651
 31
0.0
  0
LINE
  5
8B5
330
8B1
100
AcDbEntity
  8
AM_5
  6
Continuous
 62
    92
100
AcDbLine
 10
209.1859460891303
 20
56.34407564528988
 30
0.0
 11
210.7576421485172
 21
54.28774364399651
 31
0.0
  0
LINE
  5
8B6
330
8B1
100
AcDbEntity
  8
AM_5
  6
Continuous
 62
    92
100
AcDbLine
 10
210.7576421485172
 20
54.28774364399651
 30
0.0
 11
210.4246794230631
 21
56.85442742391439
 31
0.0
  0
MTEXT
  5
8B7
102
{ACAD_XDICTIONARY
360
921
102
}
330
8B1
100
AcDbEntity
  8
AM_5
 62
   140
100
AcDbMText
 10
203.3420103251878
 20
80.6110516478405
 30
0.0
 40
3.5
 41
0.0
 71
     1
 72
     5
  1
\U+FF0BTERMINAL
 73
     1
 44
1.0
1001
ACAD
1000
MTEXTBEGIN
1070
    73
1070
     1
1070
    44
1040
1.0
1070
    74
1070
     0
1000
MTEXTEND
  0
LINE
  5
8B8
330
8B1
100
AcDbEntity
  8
AM_5
  6
Continuous
 62
    92
100
AcDbLine
 10
203.3420103251878
 20
76.22014255693142
 30
0.0
 11
230.2049216750871
 21
76.22014255693142
 31
0.0
  0
ENDBLK
  5
8BA
330
8B1
100
AcDbEntity
  8
0
100
AcDbBlockEnd
  0
BLOCK
  5
8C4
330
8BC
100
AcDbEntity
  8
0
100
AcDbBlockBegin
  2
*S29
 70
     1
 10
0.0
 20
0.0
 30
0.0
  3
*S29
  1

  0
LINE
  5
8BD
330
8BC
100
AcDbEntity
  8
AM_5
  6
Continuous
 62
    92
100
AcDbLine
 10
55.77669556856393
 20
68.92722960027731
 30
0.0
 11
-0.0000002004085289
 21
68.92722960027731
 31
0.0
  0
LINE
  5
8BE
330
8BC
100
AcDbEntity
  8
AM_5
  6
Continuous
 62
    92
100
AcDbLine
 10
-0.0000002004085289
 20
68.92722960027731
 30
0.0
 11
6.846096686179955
 21
35.19728797419168
 31
0.0
  0
LINE
  5
8BF
330
8BC
100
AcDbEntity
  8
AM_5
  6
Continuous
 62
    92
100
AcDbLine
 10
6.846096686179955
 20
35.19728797419168
 30
0.0
 11
7.343376943493062
 21
32.74724463872053
 31
0.0
  0
LINE
  5
8C0
330
8BC
100
AcDbEntity
  8
AM_5
  6
Continuous
 62
    92
100
AcDbLine
 10
6.189609558975562
 20
35.06404213204163
 30
0.0
 11
7.343376943493062
 21
32.74724463872053
 31
0.0
  0
LINE
  5
8C1
330
8BC
100
AcDbEntity
  8
AM_5
  6
Continuous
 62
    92
100
AcDbLine
 10
7.343376943493062
 20
32.74724463872053
 30
0.0
 11
7.502583813384349
 21
35.33053381634172
 31
0.0
  0
MTEXT
  5
8C2
102
{ACAD_XDICTIONARY
360
923
102
}
330
8BC
100
AcDbEntity
  8
AM_5
 62
   140
100
AcDbMText
 10
3.499999799591471
 20
73.21467083600599
 30
0.0
 40
3.5
 41
0.0
 71
     1
 72
     5
  1
3-M3\U+00D70.5 TAPPED HOLE\P(3mmMAX)
 73
     1
 44
1.0
1001
ACAD
1000
MTEXTBEGIN
1070
    73
1070
     1
1070
    44
1040
1.0
1070
    74
1070
     0
1000
MTEXTEND
  0
LINE
  5
8C3
330
8BC
100
AcDbEntity
  8
AM_5
  6
Continuous
 62
    92
100
AcDbLine
 10
3.499999799591471
 20
68.92722960027731
 30
0.0
 11
55.77669556856394
 21
68.92722960027731
 31
0.0
  0
ENDBLK
  5
8C5
330
8BC
100
AcDbEntity
  8
0
100
AcDbBlockEnd
  0
BLOCK
  5
8CE
330
8C7
100
AcDbEntity
  8
0
100
AcDbBlockBegin
  2
*S30
 70
     1
 10
0.0
 20
0.0
 30
0.0
  3
*S30
  1

  0
LINE
  5
8C8
330
8C7
100
AcDbEntity
  8
AM_5
  6
Continuous
 62
    92
100
AcDbLine
 10
98.86674720407791
 20
54.57236115979532
 30
0.0
 11
82.51852692200941
 21
54.57236115979532
 31
0.0
  0
LINE
  5
8C9
330
8C7
100
AcDbEntity
  8
AM_5
  6
Continuous
 62
    92
100
AcDbLine
 10
82.51852692200941
 20
54.57236115979532
 30
0.0
 11
89.305307345707
 21
46.94164298339114
 31
0.0
  0
HATCH
  5
8CA
330
8C7
100
AcDbEntity
  8
AM_5
 62
    92
100
AcDbHatch
 10
0.0
 20
0.0
 30
0.0
210
0.0
220
0.0
230
1.0
  2
SOLID
 70
     1
 71
     0
 91
        1
 92
        0
 93
        1
 72
     2
 10
90.966752924969
 20
45.07359625293958
 40
0.4464285714285758
 50
0.0
 51
360.0
 73
     1
 97
        0
 75
     0
 76
     1
 98
        1
 10
90.966752924969
 20
45.07359625293958
  0
LINE
  5
8CB
330
8C7
100
AcDbEntity
  8
AM_5
  6
Continuous
 62
    92
100
AcDbLine
 10
90.67006621438649
 20
45.4071760262345
 30
0.0
 11
89.305307345707
 21
46.94164298339114
 31
0.0
  0
MTEXT
  5
8CC
330
8C7
100
AcDbEntity
  8
AM_5
 62
   140
100
AcDbMText
 10
86.01852692200941
 20
58.77236115979532
 30
0.0
 40
3.5
 41
0.0
 71
     1
 72
     5
  1
LABEL
 73
     1
 44
1.0
1001
ACAD
1000
MTEXTBEGIN
1070
    73
1070
     1
1070
    44
1040
1.0
1070
    74
1070
     0
1000
MTEXTEND
  0
LINE
  5
8CD
330
8C7
100
AcDbEntity
  8
AM_5
  6
Continuous
 62
    92
100
AcDbLine
 10
86.01852692200941
 20
54.57236115979532
 30
0.0
 11
98.86674720407791
 21
54.57236115979532
 31
0.0
  0
ENDBLK
  5
8CF
330
8C7
100
AcDbEntity
  8
0
100
AcDbBlockEnd
  0
BLOCK
  5
8D9
330
8D1
100
AcDbEntity
  8
0
100
AcDbBlockBegin
  2
*S31
 70
     1
 10
0.0
 20
0.0
 30
0.0
  3
*S31
  1

  0
LINE
  5
8D2
330
8D1
100
AcDbEntity
  8
AM_5
  6
Continuous
 62
    92
100
AcDbLine
 10
154.6906352467229
 20
2.185168851598916
 30
0.0
 11
128.7027238968236
 21
2.185168851598916
 31
0.0
  0
LINE
  5
8D3
330
8D1
100
AcDbEntity
  8
AM_5
  6
Continuous
 62
    92
100
AcDbLine
 10
128.7027238968236
 20
2.185168851598916
 30
0.0
 11
118.6166515441121
 21
25.28533531472984
 31
0.0
  0
LINE
  5
8D4
330
8D1
100
AcDbEntity
  8
AM_5
  6
Continuous
 62
    92
100
AcDbLine
 10
118.6166515441121
 20
25.28533531472984
 30
0.0
 11
117.6162905458687
 21
27.57646557580047
 31
0.0
  0
LINE
  5
8D5
330
8D1
100
AcDbEntity
  8
AM_5
  6
Continuous
 62
    92
100
AcDbLine
 10
119.2305580417504
 20
25.55338123391674
 30
0.0
 11
117.6162905458687
 21
27.57646557580047
 31
0.0
  0
LINE
  5
8D6
330
8D1
100
AcDbEntity
  8
AM_5
  6
Continuous
 62
    92
100
AcDbLine
 10
117.6162905458687
 20
27.57646557580047
 30
0.0
 11
118.0027450464737
 21
25.01728939554294
 31
0.0
  0
MTEXT
  5
8D7
330
8D1
100
AcDbEntity
  8
AM_5
 62
   140
100
AcDbMText
 10
132.2027238968236
 20
6.385168851598916
 30
0.0
 40
3.5
 41
0.0
 71
     1
 72
     5
  1
TERMINAL
 73
     1
 44
1.0
1001
ACAD
1000
MTEXTBEGIN
1070
    73
1070
     1
1070
    44
1040
1.0
1070
    74
1070
     0
1000
MTEXTEND
  0
LINE
  5
8D8
330
8D1
100
AcDbEntity
  8
AM_5
  6
Continuous
 62
    92
100
AcDbLine
 10
132.2027238968236
 20
2.185168851598916
 30
0.0
 11
154.6906352467229
 21
2.185168851598916
 31
0.0
  0
ENDBLK
  5
8DA
330
8D1
100
AcDbEntity
  8
0
100
AcDbBlockEnd
  0
BLOCK
  5
8E4
330
8DC
100
AcDbEntity
  8
0
100
AcDbBlockBegin
  2
*S32
 70
     1
 10
0.0
 20
0.0
 30
0.0
  3
*S32
  1

  0
LINE
  5
8DD
330
8DC
100
AcDbEntity
  8
AM_5
  6
Continuous
 62
    92
100
AcDbLine
 10
132.9214647259233
 20
57.52814583413266
 30
0.0
 11
161.4047800869224
 21
57.52814583413266
 31
0.0
  0
LINE
  5
8DE
330
8DC
100
AcDbEntity
  8
AM_5
  6
Continuous
 62
    92
100
AcDbLine
 10
161.4047800869224
 20
57.52814583413266
 30
0.0
 11
169.4884865289312
 21
37.9072548118034
 31
0.0
  0
LINE
  5
8DF
330
8DC
100
AcDbEntity
  8
AM_5
  6
Continuous
 62
    92
100
AcDbLine
 10
169.4884865289312
 20
37.9072548118034
 30
0.0
 11
170.4408159213517
 21
35.59574692119777
 31
0.0
  0
LINE
  5
8E0
330
8DC
100
AcDbEntity
  8
AM_5
  6
Continuous
 62
    92
100
AcDbLine
 10
168.8691198619648
 20
37.65207892249114
 30
0.0
 11
170.4408159213517
 21
35.59574692119777
 31
0.0
  0
LINE
  5
8E1
330
8DC
100
AcDbEntity
  8
AM_5
  6
Continuous
 62
    92
100
AcDbLine
 10
170.4408159213517
 20
35.59574692119777
 30
0.0
 11
170.1078531958976
 21
38.16243070111566
 31
0.0
  0
MTEXT
  5
8E2
102
{ACAD_XDICTIONARY
360
925
102
}
330
8DC
100
AcDbEntity
  8
AM_5
 62
   140
100
AcDbMText
 10
132.9214647259233
 20
61.91905492504175
 30
0.0
 40
3.5
 41
0.0
 71
     1
 72
     5
  1
\U+FF0BTERMINAL
 73
     1
 44
1.0
1001
ACAD
1000
MTEXTBEGIN
1070
    73
1070
     1
1070
    44
1040
1.0
1070
    74
1070
     0
1000
MTEXTEND
  0
LINE
  5
8E3
330
8DC
100
AcDbEntity
  8
AM_5
  6
Continuous
 62
    92
100
AcDbLine
 10
132.9214647259233
 20
57.52814583413266
 30
0.0
 11
159.7843760758225
 21
57.52814583413266
 31
0.0
  0
ENDBLK
  5
8E5
330
8DC
100
AcDbEntity
  8
0
100
AcDbBlockEnd
  0
ENDSEC
  0
SECTION
  2
ENTITIES
  0
LWPOLYLINE
  5
C7
330
67
100
AcDbEntity
  8
AM_VIEWS
  6
Continuous
100
AcDbPolyline
 90
        4
 70
     1
 43
0.0
 10
0.0
 20
0.0
 10
240.0
 20
0.0
 10
240.0
 20
95.0
 10
0.0
 20
95.0
  0
LINE
  5
EF
330
67
100
AcDbEntity
  8
AM_0
100
AcDbLine
 10
55.20928400800051
 20
31.98958202687141
 30
0.0
 11
54.10950929794626
 21
32.58371634428137
 31
0.0
  0
ARC
  5
F3
330
67
100
AcDbEntity
  8
AM_0
100
AcDbCircle
 10
38.27275347316515
 20
41.13925051499633
 30
0.0
 40
18.0
100
AcDbArc
 50
344.3793702084426
 51
331.6206297915617
  0
LINE
  5
F4
330
67
100
AcDbEntity
  8
AM_0
100
AcDbLine
 10
55.60793567160988
 20
36.29245176254904
 30
0.0
 11
56.81176776872405
 21
35.95586851585109
 31
0.0
  0
ARC
  5
F5
330
67
100
AcDbEntity
  8
AM_0
100
AcDbCircle
 10
38.27275347316515
 20
41.13925051499633
 30
0.0
 40
19.25
100
AcDbArc
 50
344.3793702084426
 51
331.6206297915617
  0
CIRCLE
  5
F6
330
67
100
AcDbEntity
  8
AM_0
100
AcDbCircle
 10
27.44743592585962
 20
34.88925051499633
 30
0.0
 40
1.229499999999998
  0
CIRCLE
  5
F7
330
67
100
AcDbEntity
  8
AM_0
100
AcDbCircle
 10
49.09807102047057
 20
47.38925051499633
 30
0.0
 40
1.229499999999998
  0
CIRCLE
  5
F8
102
{ACAD_REACTORS
330
145
102
}
330
67
100
AcDbEntity
  8
AM_0
100
AcDbCircle
 10
27.44743592585962
 20
34.88925051499633
 30
0.0
 40
1.5
  0
CIRCLE
  5
F9
102
{ACAD_REACTORS
330
145
102
}
330
67
100
AcDbEntity
  8
AM_0
100
AcDbCircle
 10
49.09807102047057
 20
47.38925051499633
 30
0.0
 40
1.5
  0
CIRCLE
  5
FA
330
67
100
AcDbEntity
  8
AM_0
100
AcDbCircle
 10
38.27275347316515
 20
41.13925051499633
 30
0.0
 40
1.25
  0
CIRCLE
  5
FB
330
67
100
AcDbEntity
  8
AM_0
100
AcDbCircle
 10
38.27275347316515
 20
41.13925051499633
 30
0.0
 40
6.099999999999997
  0
ARC
  5
FC
330
67
100
AcDbEntity
  8
AM_0
100
AcDbCircle
 10
38.27275347316528
 20
41.13925051499633
 30
0.0
 40
17.99999999999986
100
AcDbArc
 50
331.6206297915617
 51
344.3793702084426
  0
LINE
  5
FD
330
67
100
AcDbEntity
  8
AM_0
100
AcDbLine
 10
132.8223704975145
 20
31.98958202687141
 30
0.0
 11
132.8223704975142
 21
32.58371634428137
 31
0.0
  0
LINE
  5
FE
330
67
100
AcDbEntity
  8
AM_0
100
AcDbLine
 10
98.32237049751428
 20
32.58371634428137
 30
0.0
 11
132.8223704975142
 21
32.58371634428137
 31
0.0
  0
LINE
  5
FF
330
67
100
AcDbEntity
  8
AM_0
100
AcDbLine
 10
96.32237049751429
 20
32.58371634428137
 30
0.0
 11
98.32237049751428
 21
32.58371634428137
 31
0.0
  0
LINE
  5
100
330
67
100
AcDbEntity
  8
AM_0
100
AcDbLine
 10
96.32237049751473
 20
31.98958202687141
 30
0.0
 11
96.32237049751429
 21
32.58371634428137
 31
0.0
  0
LINE
  5
101
330
67
100
AcDbEntity
  8
AM_0
100
AcDbLine
 10
96.32237049751473
 20
31.98958202687141
 30
0.0
 11
132.8223704975145
 21
31.98958202687141
 31
0.0
  0
LINE
  5
102
330
67
100
AcDbEntity
  8
AM_0
100
AcDbLine
 10
96.32237049751509
 20
35.95586851585109
 30
0.0
 11
132.8223704975149
 21
35.95586851585109
 31
0.0
  0
LINE
  5
103
330
67
100
AcDbEntity
  8
AM_0
100
AcDbLine
 10
132.8223704975095
 20
60.38925051499631
 30
0.0
 11
132.8223704975149
 21
35.95586851585109
 31
0.0
  0
LINE
  5
104
330
67
100
AcDbEntity
  8
AM_0
100
AcDbLine
 10
132.8223704975145
 20
31.98958202687141
 30
0.0
 11
132.8223704975095
 21
21.88925051499633
 31
0.0
  0
LINE
  5
105
330
67
100
AcDbEntity
  8
AM_0
100
AcDbLine
 10
96.32237049750964
 20
60.38925051499631
 30
0.0
 11
96.32237049751509
 21
35.95586851585109
 31
0.0
  0
LINE
  5
106
330
67
100
AcDbEntity
  8
AM_0
100
AcDbLine
 10
96.32237049751473
 20
31.98958202687141
 30
0.0
 11
96.32237049750964
 21
21.88925051499633
 31
0.0
  0
LINE
  5
107
102
{ACAD_REACTORS
330
186
330
197
330
1A6
330
1E4
102
}
330
67
100
AcDbEntity
  8
AM_0
100
AcDbLine
 10
96.32237049750964
 20
60.38925051499631
 30
0.0
 11
132.8223704975095
 21
60.38925051499631
 31
0.0
  0
LINE
  5
108
102
{ACAD_REACTORS
330
1E4
102
}
330
67
100
AcDbEntity
  8
AM_0
100
AcDbLine
 10
96.32237049750964
 20
21.88925051499633
 30
0.0
 11
132.8223704975095
 21
21.88925051499633
 31
0.0
  0
LINE
  5
109
330
67
100
AcDbEntity
  8
AM_0
100
AcDbLine
 10
156.3223704975095
 20
42.28925051499596
 30
0.0
 11
156.3223704975095
 21
39.98925051499578
 31
0.0
  0
LINE
  5
10A
330
67
100
AcDbEntity
  8
AM_0
100
AcDbLine
 10
156.2223704975096
 20
39.88925051499633
 30
0.0
 11
156.2223704975096
 21
42.38925051499633
 31
0.0
  0
LINE
  5
10B
330
67
100
AcDbEntity
  8
AM_0
100
AcDbLine
 10
156.3223704975095
 20
39.98925051499578
 30
0.0
 11
156.2223704975096
 21
39.88925051499633
 31
0.0
  0
LINE
  5
10C
102
{ACAD_REACTORS
330
209
102
}
330
67
100
AcDbEntity
  8
AM_0
100
AcDbLine
 10
156.3223704975095
 20
42.28925051499596
 30
0.0
 11
156.2223704975096
 21
42.38925051499633
 31
0.0
  0
LINE
  5
10D
102
{ACAD_REACTORS
330
1B5
102
}
330
67
100
AcDbEntity
  8
AM_0
100
AcDbLine
 10
149.5223704975095
 20
46.93925051499561
 30
0.0
 11
149.5223704975095
 21
35.33925051499615
 31
0.0
  0
LINE
  5
10E
330
67
100
AcDbEntity
  8
AM_0
100
AcDbLine
 10
146.3223704975095
 20
58.93925051499651
 30
0.0
 11
146.3223704975095
 21
23.33925051499615
 31
0.0
  0
ARC
  5
10F
330
67
100
AcDbEntity
  8
AM_0
100
AcDbCircle
 10
149.3223704975095
 20
46.93925051499561
 30
0.0
 40
0.2
100
AcDbArc
 50
0.0
 51
90.0
  0
ARC
  5
110
102
{ACAD_REACTORS
330
1C6
102
}
330
67
100
AcDbEntity
  8
AM_0
100
AcDbCircle
 10
149.3223704975095
 20
35.33925051499615
 30
0.0
 40
0.2
100
AcDbArc
 50
270.0
 51
0.0
  0
ARC
  5
111
102
{ACAD_REACTORS
330
1A6
330
1B5
330
1D5
330
209
102
}
330
67
100
AcDbEntity
  8
AM_0
100
AcDbCircle
 10
146.1223704975095
 20
58.93925051499651
 30
0.0
 40
0.2
100
AcDbArc
 50
0.0
 51
90.0
  0
ARC
  5
112
102
{ACAD_REACTORS
330
1F3
102
}
330
67
100
AcDbEntity
  8
AM_0
100
AcDbCircle
 10
146.1223704975095
 20
23.33925051499615
 30
0.0
 40
0.2
100
AcDbArc
 50
270.0
 51
0.0
  0
LINE
  5
113
330
67
100
AcDbEntity
  8
AM_0
100
AcDbLine
 10
143.5223704975095
 20
23.13925051499633
 30
0.0
 11
143.5223704975095
 21
59.13925051499631
 31
0.0
  0
LINE
  5
114
330
67
100
AcDbEntity
  8
AM_0
100
AcDbLine
 10
143.3223704975095
 20
59.13925051499631
 30
0.0
 11
143.3223704975095
 21
23.13925051499633
 31
0.0
  0
LINE
  5
115
330
67
100
AcDbEntity
  8
AM_0
100
AcDbLine
 10
86.02269945911677
 20
39.88925051499633
 30
0.0
 11
86.02269945911677
 21
42.38925051499633
 31
0.0
  0
LINE
  5
116
330
67
100
AcDbEntity
  8
AM_0
100
AcDbLine
 10
143.5223704975095
 20
23.33925051499615
 30
0.0
 11
143.3223704975095
 21
23.33925051499615
 31
0.0
  0
LINE
  5
117
330
67
100
AcDbEntity
  8
AM_0
100
AcDbLine
 10
143.5223704975095
 20
58.93925051499651
 30
0.0
 11
143.3223704975095
 21
58.93925051499651
 31
0.0
  0
ARC
  5
118
102
{ACAD_REACTORS
330
165
330
197
102
}
330
67
100
AcDbEntity
  8
AM_0
100
AcDbCircle
 10
89.82237049750963
 20
41.13925051499633
 30
0.0
 40
4.0
100
AcDbArc
 50
161.7900431357172
 51
198.2099568642827
  0
LINE
  5
119
330
67
100
AcDbEntity
  8
AM_0
100
AcDbLine
 10
92.82237049750959
 20
35.03925051499596
 30
0.0
 11
92.82237049750959
 21
47.23925051499578
 31
0.0
  0
LINE
  5
11A
102
{ACAD_REACTORS
330
176
102
}
330
67
100
AcDbEntity
  8
AM_0
100
AcDbLine
 10
96.32237049750964
 20
35.03925051499596
 30
0.0
 11
92.82237049750959
 21
35.03925051499596
 31
0.0
  0
LINE
  5
11B
102
{ACAD_REACTORS
330
176
330
186
102
}
330
67
100
AcDbEntity
  8
AM_0
100
AcDbLine
 10
96.32237049750964
 20
47.23925051499578
 30
0.0
 11
92.82237049750959
 21
47.23925051499578
 31
0.0
  0
LINE
  5
11C
330
67
100
AcDbEntity
  8
AM_0
100
AcDbLine
 10
96.32237049751369
 20
32.58371634428137
 30
0.0
 11
96.32237049751404
 21
35.95586851585109
 31
0.0
  0
LINE
  5
11D
330
67
100
AcDbEntity
  8
AM_0
100
AcDbLine
 10
149.5223704975111
 20
42.38925051499633
 30
0.0
 11
156.2223704975096
 21
42.38925051499633
 31
0.0
  0
LINE
  5
11E
330
67
100
AcDbEntity
  8
AM_0
100
AcDbLine
 10
149.5223704975111
 20
39.88925051499633
 30
0.0
 11
156.2223704975096
 21
39.88925051499633
 31
0.0
  0
LINE
  5
11F
102
{ACAD_REACTORS
330
1C6
102
}
330
67
100
AcDbEntity
  8
AM_0
100
AcDbLine
 10
146.3223704975095
 20
47.13925051499631
 30
0.0
 11
149.3223704975095
 21
47.13925051499631
 31
0.0
  0
LINE
  5
120
330
67
100
AcDbEntity
  8
AM_0
100
AcDbLine
 10
146.3223704975095
 20
35.13925051499633
 30
0.0
 11
149.3223704975095
 21
35.13925051499633
 31
0.0
  0
LINE
  5
121
330
67
100
AcDbEntity
  8
AM_0
100
AcDbLine
 10
143.5223704975095
 20
59.13925051499631
 30
0.0
 11
146.1223704975095
 21
59.13925051499631
 31
0.0
  0
LINE
  5
122
102
{ACAD_REACTORS
330
1D5
102
}
330
67
100
AcDbEntity
  8
AM_0
100
AcDbLine
 10
143.5223704975095
 20
23.13925051499633
 30
0.0
 11
146.1223704975095
 21
23.13925051499633
 31
0.0
  0
LINE
  5
123
330
67
100
AcDbEntity
  8
AM_0
100
AcDbLine
 10
132.8223704975095
 20
59.13925051499631
 30
0.0
 11
143.3223704975095
 21
59.13925051499631
 31
0.0
  0
LINE
  5
124
330
67
100
AcDbEntity
  8
AM_0
100
AcDbLine
 10
132.8223704975095
 20
23.13925051499633
 30
0.0
 11
143.3223704975095
 21
23.13925051499633
 31
0.0
  0
LINE
  5
125
102
{ACAD_REACTORS
330
165
102
}
330
67
100
AcDbEntity
  8
AM_0
100
AcDbLine
 10
92.82237049750959
 20
39.88925051499633
 30
0.0
 11
86.02269945911677
 21
39.88925051499633
 31
0.0
  0
LINE
  5
126
102
{ACAD_REACTORS
330
165
102
}
330
67
100
AcDbEntity
  8
AM_0
100
AcDbLine
 10
92.82237049750959
 20
42.38925051499633
 30
0.0
 11
86.02269945911677
 21
42.38925051499633
 31
0.0
  0
LINE
  5
127
330
67
100
AcDbEntity
  8
AM_0
100
AcDbLine
 10
198.4557431549481
 20
31.98958202687141
 30
0.0
 11
199.5555178650023
 21
32.58371634428137
 31
0.0
  0
LINE
  5
128
330
67
100
AcDbEntity
  8
AM_0
100
AcDbLine
 10
198.0570914913386
 20
36.29245176254904
 30
0.0
 11
196.8532593942244
 21
35.95586851585109
 31
0.0
  0
ARC
  5
129
330
67
100
AcDbEntity
  8
AM_0
100
AcDbCircle
 10
215.3922736897833
 20
41.13925051499633
 30
0.0
 40
19.25
100
AcDbArc
 50
208.3793702084382
 51
195.6206297915575
  0
CIRCLE
  5
12A
330
67
100
AcDbEntity
  8
AM_0
100
AcDbCircle
 10
215.3922736897939
 20
41.13925051499633
 30
0.0
 40
1.149999999999999
  0
CIRCLE
  5
12B
330
67
100
AcDbEntity
  8
AM_0
100
AcDbCircle
 10
215.3922736897939
 20
41.13925051499633
 30
0.0
 40
1.25
  0
CIRCLE
  5
12C
330
67
100
AcDbEntity
  8
AM_0
100
AcDbCircle
 10
215.3922736897932
 20
41.13925051499633
 30
0.0
 40
6.0
  0
CIRCLE
  5
12D
330
67
100
AcDbEntity
  8
AM_0
100
AcDbCircle
 10
215.3922736897913
 20
41.13925051499633
 30
0.0
 40
18.0
  0
CIRCLE
  5
12E
330
67
100
AcDbEntity
  8
AM_0
100
AcDbCircle
 10
215.3922736897933
 20
41.13925051499633
 30
0.0
 40
2.25
  0
LINE
  5
12F
330
67
100
AcDbEntity
  8
AM_0
100
AcDbLine
 10
204.9592848479863
 20
50.94500106386954
 30
0.0
 11
206.4577112216502
 21
47.23626564560277
 31
0.0
  0
LINE
  5
130
330
67
100
AcDbEntity
  8
AM_0
100
AcDbLine
 10
107.0723704975094
 20
60.38925051499631
 30
0.0
 11
107.0723704975094
 21
47.88925051499631
 31
0.0
  0
LINE
  5
131
330
67
100
AcDbEntity
  8
AM_0
100
AcDbLine
 10
122.0723704975097
 20
60.38925051499631
 30
0.0
 11
122.0723704975097
 21
47.88925051499631
 31
0.0
  0
LINE
  5
132
330
67
100
AcDbEntity
  8
AM_0
100
AcDbLine
 10
107.0723704975094
 20
47.88925051499631
 30
0.0
 11
122.0723704975097
 21
47.88925051499631
 31
0.0
  0
LINE
  5
133
330
67
100
AcDbEntity
  8
AM_0
100
AcDbLine
 10
207.5628657439517
 20
49.83984654156779
 30
0.0
 11
203.8541303256846
 21
48.34142016790452
 31
0.0
  0
CIRCLE
  5
134
330
67
100
AcDbEntity
  8
AM_0
100
AcDbCircle
 10
205.7084980348182
 20
49.09063335473661
 30
0.0
 40
2.0
  0
LINE
  5
135
330
67
100
AcDbEntity
  8
AM_7
100
AcDbLine
 10
83.02269945911678
 20
41.13925051499633
 30
0.0
 11
159.2929863869585
 21
41.1392505149958
 31
0.0
1001
GENIUS_GENOBJ-N-CEN_13
1002
{
1000
OWNER
1000
GEN
1002
}
1001
GENIUS_GENODEF_13
1002
{
1000
HIER
1070
     0
1002
}
1002
{
1000
MANEDIT
1070
     0
1002
}
1002
{
1000
NOSEL
1070
     0
1002
}
1002
{
1000
BEHIND
1070
     0
1002
}
1002
{
1000
OTHER
1070
     0
1002
}
1002
{
1000
REACTOR
1002
}
1001
GENIUS_GENCEN_19
1002
{
1040
3.0
1002
}
  0
LINE
  5
139
330
67
100
AcDbEntity
  8
AM_7
100
AcDbLine
 10
38.27275347316515
 20
41.13925051499633
 30
0.0
 11
60.52275347316515
 21
41.13925051499633
 31
0.0
1001
GENIUS_GENOREF_13
1005
255
  0
LINE
  5
13A
330
67
100
AcDbEntity
  8
AM_7
100
AcDbLine
 10
38.27275347316515
 20
41.13925051499633
 30
0.0
 11
38.27275347316515
 21
63.38925051499632
 31
0.0
1001
GENIUS_GENOREF_13
1005
255
  0
LINE
  5
13B
330
67
100
AcDbEntity
  8
AM_7
100
AcDbLine
 10
38.27275347316515
 20
41.13925051499633
 30
0.0
 11
16.02275347316515
 21
41.13925051499633
 31
0.0
1001
GENIUS_GENOREF_13
1005
255
  0
LINE
  5
13C
102
{ACAD_REACTORS
330
154
330
7D2
102
}
330
67
100
AcDbEntity
  8
AM_7
100
AcDbLine
 10
38.27275347316515
 20
41.13925051499633
 30
0.0
 11
38.27275347316515
 21
18.88925051499633
 31
0.0
1001
GENIUS_GENOREF_13
1005
255
  0
LINE
  5
13D
330
67
100
AcDbEntity
  8
AM_7
100
AcDbLine
 10
215.3922736897939
 20
41.13925051499633
 30
0.0
 11
237.6422736897939
 21
41.13925051499633
 31
0.0
1001
GENIUS_GENOREF_13
1005
254
  0
LINE
  5
13E
330
67
100
AcDbEntity
  8
AM_7
100
AcDbLine
 10
215.3922736897939
 20
41.13925051499633
 30
0.0
 11
215.3922736897939
 21
63.38925051499632
 31
0.0
1001
GENIUS_GENOREF_13
1005
254
  0
LINE
  5
13F
330
67
100
AcDbEntity
  8
AM_7
100
AcDbLine
 10
215.3922736897939
 20
41.13925051499633
 30
0.0
 11
193.1422736897939
 21
41.13925051499633
 31
0.0
1001
GENIUS_GENOREF_13
1005
254
  0
LINE
  5
140
330
67
100
AcDbEntity
  8
AM_7
100
AcDbLine
 10
215.3922736897939
 20
41.13925051499633
 30
0.0
 11
215.3922736897939
 21
18.88925051499633
 31
0.0
1001
GENIUS_GENOREF_13
1005
254
  0
LINE
  5
141
102
{ACAD_REACTORS
330
154
102
}
330
67
100
AcDbEntity
  8
AM_7
100
AcDbLine
 10
24.84935971450631
 20
33.38925051499633
 30
0.0
 11
51.69614723182388
 21
48.88925051499633
 31
0.0
1001
GENIUS_GENODEF_13
1002
{
1000
HIER
1070
     0
1002
}
1002
{
1000
MANEDIT
1070
     0
1002
}
1002
{
1000
NOSEL
1070
     0
1002
}
1002
{
1000
BEHIND
1070
     0
1002
}
1002
{
1000
OTHER
1070
     0
1002
}
1002
{
1000
REACTOR
1002
}
1001
GENIUS_GENOBJ-N-CEN_13
1002
{
1000
OWNER
1000
GEN
1002
}
1001
GENIUS_GENCEN_19
1002
{
1040
3.0
1002
}
  0
CIRCLE
  5
142
330
67
100
AcDbEntity
  8
AM_7
100
AcDbCircle
 10
38.27275347316515
 20
41.13925051499633
 30
0.0
 40
12.49999999999994
  0
DIMENSION
  5
143
102
{ACAD_XDICTIONARY
360
144
102
}
102
{ACAD_REACTORS
330
145
102
}
330
67
100
AcDbEntity
  8
AM_5
100
AcDbDimension
  2
*D4
 10
35.90860508121095
 20
70.23407564649315
 30
0.0
 11
23.77185368568519
 21
66.25554570237625
 31
0.0
 70
    33
 71
     5
 42
24.99999999999999
  3
AM_JIS$0
100
AcDbAlignedDimension
 13
27.44743592585962
 23
34.88925051499633
 33
0.0
 14
49.09807102047057
 24
47.38925051499633
 34
0.0
1001
ACAD_DSTYLE_DIMINSPECT
1070
   396
1000
100%
1070
   395
1000

1070
   394
1070
    33
1070
   393
1070
     0
1001
ACAD
1000
DSTYLE
1002
{
1070
   144
1040
1.0
1070
    40
1040
1.0
1002
}
  0
DIMENSION
  5
152
102
{ACAD_XDICTIONARY
360
153
102
}
102
{ACAD_REACTORS
330
154
330
7AC
102
}
330
67
100
AcDbEntity
  8
AM_5
100
AcDbDimension
  2
*D5
 10
51.69614723182388
 20
48.88925051499633
 30
0.0
 11
25.7732397555389
 21
19.48945768616352
 31
0.0
 70
    34
 71
     5
 42
1.047197551196596
  3
AM_JIS$2
100
AcDb2LineAngularDimension
 13
38.27275347316515
 23
41.13925051499633
 33
0.0
 14
38.27275347316515
 24
18.88925051499633
 34
0.0
 15
24.84935971450631
 25
33.38925051499633
 35
0.0
 16
20.51849698536186
 26
19.98055156181773
 36
0.0
1001
ACAD_DSTYLE_DIMINSPECT
1070
   396
1000
100%
1070
   395
1000

1070
   394
1070
    33
1070
   393
1070
     0
1001
ACAD
1000
DSTYLE
1002
{
1070
   144
1040
1.0
1070
    40
1040
1.0
1002
}
  0
DIMENSION
  5
163
102
{ACAD_XDICTIONARY
360
164
102
}
102
{ACAD_REACTORS
330
165
102
}
330
67
100
AcDbEntity
  8
AM_5
100
AcDbDimension
  2
*D6
 10
77.82236948750959
 20
42.38925051499633
 30
0.0
 11
75.19950179106903
 21
52.82011015233685
 31
0.0
 70
    32
  1
%%c<>
 71
     5
 42
2.5
  3
AM_JIS$0
100
AcDbAlignedDimension
 13
86.02269945911695
 23
39.88925051499633
 33
0.0
 14
86.02269945911695
 24
42.38925051499633
 34
0.0
 50
90.00000000000005
100
AcDbRotatedDimension
1001
ACAD_DSTYLE_DIMINSPECT
1070
   396
1000
100%
1070
   395
1000

1070
   394
1070
    33
1070
   393
1070
     0
1001
ACAD
1000
DSTYLE
1002
{
1070
   144
1040
1.0
1070
    40
1040
1.0
1002
}
  0
DIMENSION
  5
174
102
{ACAD_XDICTIONARY
360
175
102
}
102
{ACAD_REACTORS
330
176
102
}
330
67
100
AcDbEntity
  8
AM_5
100
AcDbDimension
  2
*D7
 10
69.8223694875096
 20
47.23925051499578
 30
0.0
 11
67.23593563928931
 21
56.50405911136918
 31
0.0
 70
    32
  1
%%c<>
 71
     5
 42
12.19999999999981
  3
AM_JIS$0
100
AcDbAlignedDimension
 13
92.82237049750959
 23
35.03925051499596
 33
0.0
 14
92.82237049750959
 24
47.23925051499577
 34
0.0
 50
90.00000000000005
100
AcDbRotatedDimension
1001
ACAD_DSTYLE_DIMINSPECT
1070
   396
1000
100%
1070
   395
1000

1070
   394
1070
    33
1070
   393
1070
     0
1001
ACAD
1000
DSTYLE
1002
{
1070
   144
1040
1.0
1070
    40
1040
1.0
1002
}
  0
DIMENSION
  5
184
102
{ACAD_XDICTIONARY
360
185
102
}
102
{ACAD_REACTORS
330
186
102
}
330
67
100
AcDbEntity
  8
AM_5
100
AcDbDimension
  2
*D8
 10
96.32237049750964
 20
75.38925151499634
 30
0.0
 11
105.2392274484834
 21
78.01211921143691
 31
0.0
 70
    32
 71
     5
 42
3.5
  3
AM_JIS$0
100
AcDbAlignedDimension
 13
92.82237049750959
 23
47.23925051499578
 33
0.0
 14
96.32237049750964
 24
60.38925051499631
 34
0.0
 50
0.0000000000000114
100
AcDbRotatedDimension
1001
ACAD_DSTYLE_DIMINSPECT
1070
   396
1000
100%
1070
   395
1000

1070
   394
1070
    33
1070
   393
1070
     0
1001
ACAD
1000
DSTYLE
1002
{
1070
   144
1040
1.0
1070
    40
1040
1.0
1002
}
  0
DIMENSION
  5
195
102
{ACAD_XDICTIONARY
360
196
102
}
102
{ACAD_REACTORS
330
197
102
}
330
67
100
AcDbEntity
  8
AM_5
100
AcDbDimension
  2
*D9
 10
85.82237049750961
 20
83.38925151499635
 30
0.0
 11
91.07237049750963
 21
86.01094392601046
 31
0.0
 70
    32
 71
     5
 42
10.5
  3
AM_JIS$0
100
AcDbAlignedDimension
 13
96.32237049750964
 23
60.38925051499631
 33
0.0
 14
85.82237049750961
 24
41.13925051499633
 34
0.0
 50
0.0000000000000114
100
AcDbRotatedDimension
1001
ACAD_DSTYLE_DIMINSPECT
1070
   396
1000
100%
1070
   395
1000

1070
   394
1070
    33
1070
   393
1070
     0
1001
ACAD
1000
DSTYLE
1002
{
1070
   144
1040
1.0
1070
    40
1040
1.0
1002
}
  0
DIMENSION
  5
1A4
102
{ACAD_XDICTIONARY
360
1A5
102
}
102
{ACAD_REACTORS
330
1A6
102
}
330
67
100
AcDbEntity
  8
AM_5
100
AcDbDimension
  2
*D10
 10
146.3223704975095
 20
83.38925151499635
 30
0.0
 11
121.3223704975096
 21
86.01094392601046
 31
0.0
 70
    32
 71
     5
 42
49.99999999999993
  3
AM_JIS$0
100
AcDbAlignedDimension
 13
96.32237049750964
 23
60.38925051499631
 33
0.0
 14
146.3223704975095
 24
58.93925051499651
 34
0.0
 50
0.0000000000000114
100
AcDbRotatedDimension
1001
ACAD_DSTYLE_DIMINSPECT
1070
   396
1000
100%
1070
   395
1000

1070
   394
1070
    33
1070
   393
1070
     0
1001
ACAD
1000
DSTYLE
1002
{
1070
   144
1040
1.0
1070
    40
1040
1.0
1002
}
  0
DIMENSION
  5
1B3
102
{ACAD_XDICTIONARY
360
1B4
102
}
102
{ACAD_REACTORS
330
1B5
102
}
330
67
100
AcDbEntity
  8
AM_5
100
AcDbDimension
  2
*D11
 10
149.5223704975095
 20
76.38925151499626
 30
0.0
 11
137.3855336942859
 21
76.38925151499626
 31
0.0
 70
   160
 71
     5
 42
3.199999999999988
  3
AM_JIS$0
100
AcDbAlignedDimension
 13
146.3223704975095
 23
58.93925051499651
 33
0.0
 14
149.5223704975095
 24
46.93925051499561
 34
0.0
100
AcDbRotatedDimension
1001
ACAD_DSTYLE_DIMINSPECT
1070
   396
1000
100%
1070
   395
1000

1070
   394
1070
    33
1070
   393
1070
     0
1001
ACAD
1000
DSTYLE
1002
{
1070
   144
1040
1.0
1070
    40
1040
1.0
1002
}
  0
DIMENSION
  5
1C4
102
{ACAD_XDICTIONARY
360
1C5
102
}
102
{ACAD_REACTORS
330
1C6
102
}
330
67
100
AcDbEntity
  8
AM_5
100
AcDbDimension
  2
*D12
 10
165.5223714975095
 20
47.13925051499631
 30
0.0
 11
162.9359376492892
 21
41.13925051499625
 31
0.0
 70
    32
  1
%%c<>
 71
     5
 42
12.00000000000018
  3
AM_JIS$0
100
AcDbAlignedDimension
 13
149.3223704975095
 23
35.13925051499614
 33
0.0
 14
149.3223704975095
 24
47.13925051499631
 34
0.0
 50
90.00000000000005
100
AcDbRotatedDimension
1001
ACAD_DSTYLE_DIMINSPECT
1070
   396
1000
100%
1070
   395
1000

1070
   394
1070
    33
1070
   393
1070
     0
1001
ACAD
1000
DSTYLE
1002
{
1070
   144
1040
1.0
1070
    40
1040
1.0
1002
}
  0
DIMENSION
  5
1D3
102
{ACAD_XDICTIONARY
360
1D4
102
}
102
{ACAD_REACTORS
330
1D5
102
}
330
67
100
AcDbEntity
  8
AM_5
100
AcDbDimension
  2
*D13
 10
173.5223714975095
 20
59.13925051499651
 30
0.0
 11
170.899503801069
 21
41.13925051499644
 31
0.0
 70
    32
  1
%%c<>
 71
     5
 42
36.00000000000019
  3
AM_JIS$0
100
AcDbAlignedDimension
 13
146.1223704975095
 23
23.13925051499633
 33
0.0
 14
146.1223704975095
 24
59.13925051499651
 34
0.0
 50
90.00000000000005
100
AcDbRotatedDimension
1001
ACAD_DSTYLE_DIMINSPECT
1070
   396
1000
100%
1070
   395
1000

1070
   394
1070
    33
1070
   393
1070
     0
1001
ACAD
1000
DSTYLE
1002
{
1070
   144
1040
1.0
1070
    40
1040
1.0
1002
}
  0
DIMENSION
  5
1E2
102
{ACAD_XDICTIONARY
360
1E3
102
}
102
{ACAD_REACTORS
330
1E4
102
}
330
67
100
AcDbEntity
  8
AM_5
100
AcDbDimension
  2
*D14
 10
181.5223714975095
 20
60.38925051499631
 30
0.0
 11
178.8924520885101
 21
41.13925051499633
 31
0.0
 70
    32
  1
%%c<>
 71
     5
 42
38.5
  3
AM_JIS$0
100
AcDbAlignedDimension
 13
132.8223704975095
 23
21.88925051499633
 33
0.0
 14
132.8223704975095
 24
60.38925051499631
 34
0.0
 50
90.00000000000005
100
AcDbRotatedDimension
1001
ACAD_DSTYLE_DIMINSPECT
1070
   396
1000
100%
1070
   395
1000

1070
   394
1070
    33
1070
   393
1070
     0
1001
ACAD
1000
DSTYLE
1002
{
1070
   144
1040
1.0
1070
    40
1040
1.0
1002
}
  0
DIMENSION
  5
1F1
102
{ACAD_XDICTIONARY
360
1F2
102
}
102
{ACAD_REACTORS
330
1F3
102
}
330
67
100
AcDbEntity
  8
AM_5
100
AcDbDimension
  2
*D15
 10
146.3223704975095
 20
15.13924951499634
 30
0.0
 11
137.6194154941515
 21
18.25221123427101
 31
0.0
 70
    32
  1
(<>)
 71
     5
 42
4.999999999999032
  3
AM_JIS$0
100
AcDbAlignedDimension
 13
151.3223704975086
 23
27.50218174968564
 33
0.0
 14
146.3223704975095
 24
23.33925051499615
 34
0.0
 50
0.0000000000001132
100
AcDbRotatedDimension
1001
ACAD_DSTYLE_DIMINSPECT
1070
   396
1000
100%
1070
   395
1000

1070
   394
1070
    33
1070
   393
1070
     0
1001
ACAD
1000
DSTYLE
1002
{
1070
   144
1040
1.0
1070
    40
1040
1.0
1002
}
  0
CIRCLE
  5
202
330
67
100
AcDbEntity
  8
AM_0
100
AcDbCircle
 10
45.27275347316515
 20
29.01489486201418
 30
0.0
 40
1.5
  0
LINE
  5
203
102
{ACAD_REACTORS
330
7AC
102
}
330
67
100
AcDbEntity
  8
AM_7
  6
AM_ISO08W050x2
100
AcDbLine
 10
45.27275347316515
 20
29.01489486201418
 30
0.0
 11
49.16986779019513
 21
31.26489486201418
 31
0.0
1001
GENIUS_GENOREF_13
1005
253
  0
LINE
  5
204
330
67
100
AcDbEntity
  8
AM_7
  6
AM_ISO08W050x2
100
AcDbLine
 10
45.27275347316515
 20
29.01489486201418
 30
0.0
 11
43.02275347316515
 21
32.91200917904415
 31
0.0
1001
GENIUS_GENOREF_13
1005
253
  0
LINE
  5
205
330
67
100
AcDbEntity
  8
AM_7
  6
AM_ISO08W050x2
100
AcDbLine
 10
45.27275347316515
 20
29.01489486201418
 30
0.0
 11
41.37563915613517
 21
26.76489486201418
 31
0.0
1001
GENIUS_GENOREF_13
1005
253
  0
LINE
  5
206
102
{ACAD_REACTORS
330
7D2
102
}
330
67
100
AcDbEntity
  8
AM_7
  6
AM_ISO08W050x2
100
AcDbLine
 10
45.27275347316515
 20
29.01489486201418
 30
0.0
 11
47.52275347316515
 21
25.11778054498421
 31
0.0
1001
GENIUS_GENOREF_13
1005
253
  0
DIMENSION
  5
207
102
{ACAD_XDICTIONARY
360
208
102
}
102
{ACAD_REACTORS
330
209
102
}
330
67
100
AcDbEntity
  8
AM_5
100
AcDbDimension
  2
*D16
 10
156.3223704975095
 20
83.38925151499626
 30
0.0
 11
151.3223704975095
 21
86.01094392601039
 31
0.0
 70
    32
 71
     5
 42
10.0
  3
AM_JIS$0
100
AcDbAlignedDimension
 13
146.3223704975095
 23
58.93925051499651
 33
0.0
 14
156.3223704975095
 24
42.28925051499596
 34
0.0
100
AcDbRotatedDimension
1001
ACAD_DSTYLE_DIMINSPECT
1070
   396
1000
100%
1070
   395
1000

1070
   394
1070
    33
1070
   393
1070
     0
1001
ACAD
1000
DSTYLE
1002
{
1070
   144
1040
1.0
1070
    40
1040
1.0
1002
}
  0
LINE
  5
216
330
67
100
AcDbEntity
  8
AM_0
100
AcDbLine
 10
148.1223704975083
 20
28.29336614392177
 30
0.0
 11
150.1223704975083
 21
28.29336614392177
 31
0.0
  0
LINE
  5
217
330
67
100
AcDbEntity
  8
AM_0
100
AcDbLine
 10
150.1223704975083
 20
27.90699581340577
 30
0.0
 11
148.1223704975083
 21
27.90699581340577
 31
0.0
  0
LINE
  5
218
330
67
100
AcDbEntity
  8
AM_0
100
AcDbLine
 10
148.1223704975086
 20
27.90513757626813
 30
0.0
 11
148.1223704975083
 21
28.29336614392177
 31
0.0
  0
LINE
  5
219
330
67
100
AcDbEntity
  8
AM_0
100
AcDbLine
 10
150.1223704975086
 20
27.90513757626813
 30
0.0
 11
148.1223704975086
 21
27.90513757626813
 31
0.0
  0
LINE
  5
21A
330
67
100
AcDbEntity
  8
AM_0
100
AcDbLine
 10
150.1223704975083
 20
28.29336614392177
 30
0.0
 11
150.1223704975086
 21
27.90513757626813
 31
0.0
  0
LINE
  5
21B
330
67
100
AcDbEntity
  8
AM_0
100
AcDbLine
 10
150.1223704975103
 20
54.3733634537255
 30
0.0
 11
148.1223704975103
 21
54.3733634537255
 31
0.0
  0
LINE
  5
21C
330
67
100
AcDbEntity
  8
AM_0
100
AcDbLine
 10
148.1223704975103
 20
54.7597337842415
 30
0.0
 11
150.1223704975103
 21
54.7597337842415
 31
0.0
  0
LINE
  5
21D
330
67
100
AcDbEntity
  8
AM_0
100
AcDbLine
 10
148.1223704975108
 20
54.37150521658786
 30
0.0
 11
148.1223704975103
 21
54.7597337842415
 31
0.0
  0
LINE
  5
21E
330
67
100
AcDbEntity
  8
AM_0
100
AcDbLine
 10
150.1223704975106
 20
54.37150521658786
 30
0.0
 11
148.1223704975108
 21
54.37150521658786
 31
0.0
  0
LINE
  5
21F
330
67
100
AcDbEntity
  8
AM_0
100
AcDbLine
 10
150.1223704975103
 20
54.7597337842415
 30
0.0
 11
150.1223704975106
 21
54.37150521658786
 31
0.0
  0
LINE
  5
220
330
67
100
AcDbEntity
  8
AM_0
100
AcDbLine
 10
146.3223704975099
 20
55.08325759062044
 30
0.0
 11
151.32237049751
 21
55.08325759062044
 31
0.0
  0
LINE
  5
221
330
67
100
AcDbEntity
  8
AM_0
100
AcDbLine
 10
146.3223704975111
 20
53.66161107969473
 30
0.0
 11
151.3223704975111
 21
53.66161107969473
 31
0.0
  0
LINE
  5
222
330
67
100
AcDbEntity
  8
AM_0
100
AcDbLine
 10
151.3223704975111
 20
53.66161107969473
 30
0.0
 11
151.3223704975111
 21
54.0479814102089
 31
0.0
  0
LINE
  5
223
330
67
100
AcDbEntity
  8
AM_0
100
AcDbLine
 10
146.3223704975111
 20
54.0479814102089
 30
0.0
 11
151.3223704975111
 21
54.0479814102089
 31
0.0
  0
LINE
  5
224
330
67
100
AcDbEntity
  8
AM_0
100
AcDbLine
 10
151.3223704975111
 20
54.0479814102089
 30
0.0
 11
151.32237049751
 21
55.08325759062044
 31
0.0
  0
LINE
  5
225
330
67
100
AcDbEntity
  8
AM_0
100
AcDbLine
 10
146.3223704975079
 20
28.61688995029889
 30
0.0
 11
151.3223704975079
 21
28.61688995029889
 31
0.0
  0
LINE
  5
226
330
67
100
AcDbEntity
  8
AM_0
100
AcDbLine
 10
146.322370497509
 20
27.19524343937318
 30
0.0
 11
151.322370497509
 21
27.19524343937318
 31
0.0
  0
LINE
  5
227
330
67
100
AcDbEntity
  8
AM_0
100
AcDbLine
 10
151.322370497509
 20
27.19524343937318
 30
0.0
 11
151.322370497509
 21
27.58161376988918
 31
0.0
  0
LINE
  5
228
330
67
100
AcDbEntity
  8
AM_0
100
AcDbLine
 10
146.322370497509
 20
27.58161376988918
 30
0.0
 11
151.322370497509
 21
27.58161376988918
 31
0.0
  0
LINE
  5
229
330
67
100
AcDbEntity
  8
AM_0
100
AcDbLine
 10
151.322370497509
 20
27.58161376988918
 30
0.0
 11
151.3223704975079
 21
28.61688995029889
 31
0.0
  0
LINE
  5
22A
330
67
100
AcDbEntity
  8
AM_0
100
AcDbLine
 10
213.726540615444
 20
55.08325759061996
 30
0.0
 11
213.830068233485
 21
54.69688726010396
 31
0.0
  0
LINE
  5
22B
330
67
100
AcDbEntity
  8
AM_0
100
AcDbLine
 10
213.830068233485
 20
54.69688726010396
 30
0.0
 11
209.9663649283287
 21
53.66161107969425
 31
0.0
  0
LINE
  5
22C
330
67
100
AcDbEntity
  8
AM_0
100
AcDbLine
 10
209.9663649283287
 20
53.66161107969425
 30
0.0
 11
209.8628373102877
 21
54.04798141020934
 31
0.0
  0
LINE
  5
22D
330
67
100
AcDbEntity
  8
AM_0
100
AcDbLine
 10
209.8628373102877
 20
54.04798141020934
 30
0.0
 11
213.726540615444
 21
55.08325759061996
 31
0.0
  0
LINE
  5
22E
330
67
100
AcDbEntity
  8
AM_0
100
AcDbLine
 10
220.818182451253
 20
28.61688995029932
 30
0.0
 11
220.921710069294
 21
28.23051961978332
 31
0.0
  0
LINE
  5
22F
330
67
100
AcDbEntity
  8
AM_0
100
AcDbLine
 10
220.921710069294
 20
28.23051961978332
 30
0.0
 11
217.0580067641379
 21
27.19524343937361
 31
0.0
  0
LINE
  5
230
330
67
100
AcDbEntity
  8
AM_0
100
AcDbLine
 10
217.0580067641379
 20
27.19524343937361
 30
0.0
 11
216.9544791460969
 21
27.5816137698887
 31
0.0
  0
LINE
  5
231
330
67
100
AcDbEntity
  8
AM_0
100
AcDbLine
 10
216.9544791460969
 20
27.5816137698887
 30
0.0
 11
220.818182451253
 21
28.61688995029932
 31
0.0
  0
LINE
  5
232
330
67
100
AcDbEntity
  8
AM_7
100
AcDbLine
 10
211.1217594455993
 20
57.07702664876631
 30
0.0
 11
219.6627879339825
 21
25.2014743812268
 31
0.0
1001
GENIUS_GENOBJ-N-CEN_13
1002
{
1000
OWNER
1000
GEN
1002
}
1001
GENIUS_GENODEF_13
1002
{
1000
HIER
1070
     0
1002
}
1002
{
1000
MANEDIT
1070
     0
1002
}
1002
{
1000
NOSEL
1070
     0
1002
}
1002
{
1000
BEHIND
1070
     0
1002
}
1002
{
1000
OTHER
1070
     0
1002
}
1002
{
1000
REACTOR
1002
}
1001
GENIUS_GENCEN_19
1002
{
1040
3.0
1002
}
  0
POINT
  5
253
330
67
100
AcDbEntity
  8
0
 60
     1
100
AcDbPoint
 10
0.0
 20
0.0
 30
0.0
1001
GENIUS_GENODEF_13
1002
{
1000
HIER
1070
    10
1002
}
1002
{
1000
MANEDIT
1070
     0
1002
}
1002
{
1000
NOSEL
1070
     0
1002
}
1002
{
1000
BEHIND
1070
     0
1002
}
1002
{
1000
OTHER
1070
     0
1002
}
1002
{
1000
REACTOR
1002
}
1001
GENIUS_GENOBJ-N-CRS_13
1002
{
1000
OWNER
1000
GEN
1002
}
1001
GENIUS_GENOENT_13
1002
{
1000
MYREF
1005
253
1002
}
1002
{
1000
GRP
1005
0
1002
}
1001
GENIUS_GENOLIS_13
1002
{
1000
ENT
1005
206
1005
205
1005
204
1005
203
1002
}
  0
POINT
  5
254
330
67
100
AcDbEntity
  8
0
 60
     1
100
AcDbPoint
 10
0.0
 20
0.0
 30
0.0
1001
GENIUS_GENOENT_13
1002
{
1000
MYREF
1005
254
1002
}
1002
{
1000
GRP
1005
0
1002
}
1001
GENIUS_GENOLIS_13
1002
{
1000
ENT
1005
140
1005
13F
1005
13E
1005
13D
1002
}
1001
GENIUS_GENOBJ-N-CRS_13
1002
{
1000
OWNER
1000
GEN
1002
}
1001
GENIUS_GENODEF_13
1002
{
1000
HIER
1070
    10
1002
}
1002
{
1000
MANEDIT
1070
     0
1002
}
1002
{
1000
NOSEL
1070
     0
1002
}
1002
{
1000
BEHIND
1070
     0
1002
}
1002
{
1000
OTHER
1070
     0
1002
}
1002
{
1000
REACTOR
1002
}
  0
POINT
  5
255
330
67
100
AcDbEntity
  8
0
 60
     1
100
AcDbPoint
 10
0.0
 20
0.0
 30
0.0
1001
GENIUS_GENOLIS_13
1002
{
1000
ENT
1005
13C
1005
13B
1005
13A
1005
139
1002
}
1001
GENIUS_GENODEF_13
1002
{
1000
HIER
1070
    10
1002
}
1002
{
1000
MANEDIT
1070
     0
1002
}
1002
{
1000
NOSEL
1070
     0
1002
}
1002
{
1000
BEHIND
1070
     0
1002
}
1002
{
1000
OTHER
1070
     0
1002
}
1002
{
1000
REACTOR
1002
}
1001
GENIUS_GENOBJ-N-CRS_13
1002
{
1000
OWNER
1000
GEN
1002
}
1001
GENIUS_GENOENT_13
1002
{
1000
MYREF
1005
255
1002
}
1002
{
1000
GRP
1005
0
1002
}
  0
LWPOLYLINE
  5
315
330
67
100
AcDbEntity
  8
AM_VIEWS
100
AcDbPolyline
 90
        2
 70
     0
 43
0.0
 10
240.0
 20
-0.0000000000000009
 10
240.0
 20
95.0
1001
GENIUS_GENSCREG_15
1040
1.0
1040
1.0
1011
0.0
1021
0.0
1031
0.0
1011
240.0
1021
95.0
1031
0.0
1070
     2
1001
GENIUS_GENODEF_13
1002
{
1000
HIER
1070
     0
1002
}
1002
{
1000
MANEDIT
1070
     0
1002
}
1002
{
1000
NOSEL
1070
     0
1002
}
1002
{
1000
BEHIND
1070
     0
1002
}
1002
{
1000
OTHER
1070
     0
1002
}
1002
{
1000
REACTOR
1002
}
1001
GENIUS_GENOBJ-N-SDF_13
1002
{
1000
OWNER
1000
GEN
1002
}
  0
LWPOLYLINE
  5
316
330
67
100
AcDbEntity
  8
AM_VIEWS
100
AcDbPolyline
 90
        2
 70
     0
 43
0.0
 10
240.0
 20
95.0
 10
-0.0000000000000044
 20
95.0
1001
GENIUS_GENSCREG_15
1040
1.0
1040
1.0
1011
0.0
1021
0.0
1031
0.0
1011
240.0
1021
95.0
1031
0.0
1070
     2
1001
GENIUS_GENODEF_13
1002
{
1000
HIER
1070
     0
1002
}
1002
{
1000
MANEDIT
1070
     0
1002
}
1002
{
1000
NOSEL
1070
     0
1002
}
1002
{
1000
BEHIND
1070
     0
1002
}
1002
{
1000
OTHER
1070
     0
1002
}
1002
{
1000
REACTOR
1002
}
1001
GENIUS_GENOBJ-N-SDF_13
1002
{
1000
OWNER
1000
GEN
1002
}
  0
LWPOLYLINE
  5
317
330
67
100
AcDbEntity
  8
AM_VIEWS
100
AcDbPolyline
 90
        3
 70
     0
 43
0.0
 10
-0.0000000000000044
 20
95.0
 10
0.0
 20
0.0000000000000071
 10
240.0
 20
-0.0000000000000009
1001
GENIUS_GENSCREG_15
1040
1.0
1040
1.0
1011
0.0
1021
0.0
1031
0.0
1011
240.0
1021
95.0
1031
0.0
1070
     2
1001
GENIUS_GENODEF_13
1002
{
1000
HIER
1070
     0
1002
}
1002
{
1000
MANEDIT
1070
     0
1002
}
1002
{
1000
NOSEL
1070
     0
1002
}
1002
{
1000
BEHIND
1070
     0
1002
}
1002
{
1000
OTHER
1070
     0
1002
}
1002
{
1000
REACTOR
1002
}
1001
GENIUS_GENOBJ-N-SDF_13
1002
{
1000
OWNER
1000
GEN
1002
}
  0
LWPOLYLINE
  5
318
330
67
100
AcDbEntity
  8
AM_VIEWS
100
AcDbPolyline
 90
        2
 70
     0
 43
0.0
 10
0.0
 20
0.0000000000000071
 10
62.5
 20
0.0000000000000071
1001
GENIUS_GENSCREG_15
1040
1.0
1040
1.0
1011
0.0
1021
-45.0
1031
0.0
1011
62.5
1021
0.0
1031
0.0
1070
     2
1001
GENIUS_GENOBJ-N-SDF_13
1002
{
1000
OWNER
1000
GEN
1002
}
1001
GENIUS_GENODEF_13
1002
{
1000
HIER
1070
     0
1002
}
1002
{
1000
MANEDIT
1070
     0
1002
}
1002
{
1000
NOSEL
1070
     0
1002
}
1002
{
1000
BEHIND
1070
     0
1002
}
1002
{
1000
OTHER
1070
     0
1002
}
1002
{
1000
REACTOR
1002
}
  0
LWPOLYLINE
  5
319
330
67
100
AcDbEntity
  8
AM_VIEWS
100
AcDbPolyline
 90
        2
 70
     0
 43
0.0
 10
73.7313392340485
 20
0.0000000000000002
 10
161.7661319176011
 20
0.0000000000000002
1001
GENIUS_GENSCREG_15
1040
1.0
1040
1.0
1011
73.7313392340485
1021
-48.8577448430018
1031
0.0
1011
161.7661319176011
1021
-0.0000000000000069
1031
0.0
1070
     2
1001
GENIUS_GENODEF_13
1002
{
1000
HIER
1070
     0
1002
}
1002
{
1000
MANEDIT
1070
     0
1002
}
1002
{
1000
NOSEL
1070
     0
1002
}
1002
{
1000
BEHIND
1070
     0
1002
}
1002
{
1000
OTHER
1070
     0
1002
}
1002
{
1000
REACTOR
1002
}
1001
GENIUS_GENOBJ-N-SDF_13
1002
{
1000
OWNER
1000
GEN
1002
}
  0
INSERT
  5
773
330
67
100
AcDbEntity
  8
AM_5
100
AcDbBlockReference
  2
*S25
 10
0.0
 20
0.0
 30
0.0
  0
TEXT
  5
774
102
{ACAD_XDICTIONARY
360
775
102
}
330
67
100
AcDbEntity
  8
AM_6KM
100
AcDbText
 10
220.5448979871815
 20
3.200107003192776
 30
0.0
 40
3.0
  1
Unit(mm)
  7
Note Text (JIS)
100
AcDbText
1001
AcadAnnotative
1000
AnnotativeData
1002
{
1070
     1
1070
     0
1002
}
  0
INSERT
  5
778
330
67
100
AcDbEntity
  8
AM_5
100
AcDbBlockReference
  2
*S26
 10
0.0
 20
0.0
 30
0.0
  0
INSERT
  5
779
330
67
100
AcDbEntity
  8
AM_5
100
AcDbBlockReference
  2
*S27
 10
0.0
 20
0.0
 30
0.0
  0
INSERT
  5
77A
330
67
100
AcDbEntity
  8
AM_5
100
AcDbBlockReference
  2
*S28
 10
0.0
 20
0.0
 30
0.0
  0
DIMENSION
  5
79E
102
{ACAD_XDICTIONARY
360
7AB
102
}
102
{ACAD_REACTORS
330
7AC
102
}
330
67
100
AcDbEntity
  8
AM_5
100
AcDbDimension
  2
*D23
 10
64.38284543682603
 20
40.04811160147229
 30
0.0
 11
63.0962993516564
 21
47.38822764152952
 31
0.0
 70
    32
 71
     5
 42
14.00000000000003
  3
AM_JIS$0
100
AcDbAlignedDimension
 13
51.6961472318239
 23
48.88925051499633
 33
0.0
 14
49.16986779019513
 24
31.26489486201418
 34
0.0
 50
120.0
100
AcDbRotatedDimension
1001
ACAD
1000
DSTYLE
1002
{
1070
    47
1040
0.0
1070
    48
1040
0.0
1002
}
1001
ACAD_DSTYLE_DIMINSPECT
1070
   396
1000
100%
1070
   395
1000

1070
   394
1070
    33
1070
   393
1070
     0
  0
DIMENSION
  5
7BF
102
{ACAD_XDICTIONARY
360
7D1
102
}
102
{ACAD_REACTORS
330
7D2
102
}
330
67
100
AcDbEntity
  8
AM_5
100
AcDbDimension
  2
*D24
 10
47.52275347316515
 20
25.11778054498421
 30
0.0
 11
44.74244778956154
 21
16.99402261676539
 31
0.0
 70
    34
 71
     5
 42
0.5235987755982983
  3
AM_JIS$2
100
AcDb2LineAngularDimension
 13
38.27275347316515
 23
41.13925051499633
 33
0.0
 14
38.27275347316515
 24
18.88925051499633
 34
0.0
 15
45.27275347316515
 25
29.01489486201418
 35
0.0
 16
43.0688895739001
 26
13.939011042486
 36
0.0
1001
ACAD
1000
DSTYLE
1002
{
1070
    47
1040
0.0
1070
    48
1040
0.0
1002
}
1001
ACAD_DSTYLE_DIMINSPECT
1070
   396
1000
100%
1070
   395
1000

1070
   394
1070
    33
1070
   393
1070
     0
  0
ENDSEC
  0
SECTION
  2
OBJECTS
  0
DICTIONARY
  5
C
330
0
100
AcDbDictionary
281
     1
  3
ACAD_2007HEADERVARS_RT
350
8EB
  3
ACAD_COLOR
350
5E
  3
ACAD_GROUP
350
D
  3
ACAD_LAYOUT
350
5D
  3
ACAD_MATERIAL
350
10
  3
ACAD_MLEADERSTYLE
350
61
  3
ACAD_MLINESTYLE
350
5A
  3
ACAD_PLOTSETTINGS
350
5C
  3
ACAD_PLOTSTYLENAME
350
E
  3
ACAD_SCALELIST
350
3D
  3
ACAD_TABLESTYLE
350
5F
  3
ACAD_VISUALSTYLE
350
29
  3
ACDB_RECOMPOSE_DATA
350
8E9
  3
AcDbVariableDictionary
350
542
  3
AcmDictionary
350
5A0
  3
AMG
350
558
  3
AMGSNAPSETTINGS
350
60B
  3
DWGPROPS
350
8EA
  0
DICTIONARY
  5
729
330
2
100
AcDbDictionary
280
     1
281
     1
  3
ACAD_LAYERSTATES
360
72A
  0
DICTIONARY
  5
607
330
4F
100
AcDbDictionary
280
     1
281
     1
  3
ADSK_XREC_LAYER_RECONCILED
360
608
  0
DICTIONARY
  5
C9
330
C8
100
AcDbDictionary
280
     1
281
     1
  3
ADSK_XREC_LAYER_RECONCILED
360
CA
  0
DICTIONARY
  5
D2
330
D1
100
AcDbDictionary
280
     1
281
     1
  3
ADSK_XREC_LAYER_RECONCILED
360
D3
  0
DICTIONARY
  5
F1
330
F0
100
AcDbDictionary
280
     1
281
     1
  3
ADSK_XREC_LAYER_RECONCILED
360
F2
  0
DICTIONARY
  5
137
330
136
100
AcDbDictionary
280
     1
281
     1
  3
ADSK_XREC_LAYER_RECONCILED
360
138
  0
DICTIONARY
  5
609
330
234
100
AcDbDictionary
280
     1
281
     1
  3
ADSK_XREC_LAYER_RECONCILED
360
60A
  0
DICTIONARY
  5
4C0
330
67
100
AcDbDictionary
280
     1
281
     1
  3
ACAD_SORTENTS
360
4C1
  0
DICTIONARY
  5
735
330
72B
100
AcDbDictionary
280
     1
281
     1
  3
ACAD_SORTENTS
360
736
  0
DICTIONARY
  5
91D
330
4D0
100
AcDbDictionary
280
     1
281
     1
  3
ACAD_MTEXT_RT
360
91E
  0
DICTIONARY
  5
72E
330
72D
100
AcDbDictionary
280
     1
281
     1
  3
AcDbContextDataManager
360
72F
  0
DICTIONARY
  5
91F
330
897
100
AcDbDictionary
280
     1
281
     1
  3
ACAD_MTEXT_RT
360
920
  0
DICTIONARY
  5
921
330
8B7
100
AcDbDictionary
280
     1
281
     1
  3
ACAD_MTEXT_RT
360
922
  0
DICTIONARY
  5
923
330
8C2
100
AcDbDictionary
280
     1
281
     1
  3
ACAD_MTEXT_RT
360
924
  0
DICTIONARY
  5
925
330
8E2
100
AcDbDictionary
280
     1
281
     1
  3
ACAD_MTEXT_RT
360
926
  0
DICTIONARY
  5
144
330
143
100
AcDbDictionary
280
     1
281
     1
  3
ACAD_DIMASSOC
360
145
  0
DICTIONARY
  5
153
330
152
100
AcDbDictionary
280
     1
281
     1
  3
ACAD_DIMASSOC
360
154
  0
DICTIONARY
  5
164
330
163
100
AcDbDictionary
280
     1
281
     1
  3
ACAD_DIMASSOC
360
165
  0
DICTIONARY
  5
175
330
174
100
AcDbDictionary
280
     1
281
     1
  3
ACAD_DIMASSOC
360
176
  0
DICTIONARY
  5
185
330
184
100
AcDbDictionary
280
     1
281
     1
  3
ACAD_DIMASSOC
360
186
  0
DICTIONARY
  5
196
330
195
100
AcDbDictionary
280
     1
281
     1
  3
ACAD_DIMASSOC
360
197
  0
DICTIONARY
  5
1A5
330
1A4
100
AcDbDictionary
280
     1
281
     1
  3
ACAD_DIMASSOC
360
1A6
  0
DICTIONARY
  5
1B4
330
1B3
100
AcDbDictionary
280
     1
281
     1
  3
ACAD_DIMASSOC
360
1B5
  0
DICTIONARY
  5
1C5
330
1C4
100
AcDbDictionary
280
     1
281
     1
  3
ACAD_DIMASSOC
360
1C6
  0
DICTIONARY
  5
1D4
330
1D3
100
AcDbDictionary
280
     1
281
     1
  3
ACAD_DIMASSOC
360
1D5
  0
DICTIONARY
  5
1E3
330
1E2
100
AcDbDictionary
280
     1
281
     1
  3
ACAD_DIMASSOC
360
1E4
  0
DICTIONARY
  5
1F2
330
1F1
100
AcDbDictionary
280
     1
281
     1
  3
ACAD_DIMASSOC
360
1F3
  0
DICTIONARY
  5
208
330
207
100
AcDbDictionary
280
     1
281
     1
  3
ACAD_DIMASSOC
360
209
  0
DICTIONARY
  5
775
330
774
100
AcDbDictionary
280
     1
281
     1
  3
AcDbContextDataManager
360
776
  0
DICTIONARY
  5
7AB
330
79E
100
AcDbDictionary
280
     1
281
     1
  3
ACAD_DIMASSOC
360
7AC
  0
DICTIONARY
  5
7D1
330
7BF
100
AcDbDictionary
280
     1
281
     1
  3
ACAD_DIMASSOC
360
7D2
  0
DICTIONARY
  5
8EB
102
{ACAD_REACTORS
330
C
102
}
330
C
100
AcDbDictionary
281
     1
  3
DIMARCSYM
350
8EC
  3
DIMLTEX1
350
8EE
  3
DIMLTEX2
350
8EF
  3
DIMLTYPE
350
8ED
  0
DICTIONARY
  5
5E
102
{ACAD_REACTORS
330
C
102
}
330
C
100
AcDbDictionary
281
     1
  0
DICTIONARY
  5
D
102
{ACAD_REACTORS
330
C
102
}
330
C
100
AcDbDictionary
281
     1
  0
DICTIONARY
  5
5D
102
{ACAD_REACTORS
330
C
102
}
330
C
100
AcDbDictionary
281
     1
  3
Model
350
6A
  3
レイアウト1
350
66
  3
レイアウト2
350
6E
  0
DICTIONARY
  5
10
102
{ACAD_REACTORS
330
C
102
}
330
C
100
AcDbDictionary
281
     1
  3
ByBlock
350
19
  3
ByLayer
350
11
  3
Global
350
21
  0
DICTIONARY
  5
61
102
{ACAD_REACTORS
330
C
102
}
330
C
100
AcDbDictionary
281
     1
  3
Standard
350
62
  0
DICTIONARY
  5
5A
102
{ACAD_REACTORS
330
C
102
}
330
C
100
AcDbDictionary
281
     1
  3
Standard
350
5B
  0
DICTIONARY
  5
5C
102
{ACAD_REACTORS
330
C
102
}
330
C
100
AcDbDictionary
281
     1
  0
ACDBDICTIONARYWDFLT
  5
E
102
{ACAD_REACTORS
330
C
102
}
330
C
100
AcDbDictionary
281
     1
  3
Normal
350
F
100
AcDbDictionaryWithDefault
340
F
  0
DICTIONARY
  5
3D
102
{ACAD_REACTORS
330
C
102
}
330
C
100
AcDbDictionary
281
     1
  3
*A1
350
B5
  3
*A10
350
BD
  3
*A11
350
BE
  3
*A12
350
BF
  3
*A13
350
C0
  3
*A14
350
C1
  3
*A15
350
C2
  3
*A16
350
C3
  3
*A17
350
C4
  3
*A18
350
C5
  3
*A2
350
C6
  3
*A3
350
B6
  3
*A4
350
B7
  3
*A5
350
B8
  3
*A6
350
B9
  3
*A7
350
BA
  3
*A8
350
BB
  3
*A9
350
BC
  3
A0
350
3E
  3
A1
350
3F
  3
A2
350
40
  3
A3
350
41
  3
A4
350
42
  3
A5
350
43
  3
A6
350
44
  3
A7
350
45
  3
A8
350
46
  3
A9
350
47
  3
B0
350
48
  3
B1
350
49
  3
B2
350
4A
  3
B3
350
4B
  3
B4
350
4C
  3
B5
350
4D
  3
B6
350
4E
  0
DICTIONARY
  5
5F
102
{ACAD_REACTORS
330
C
102
}
330
C
100
AcDbDictionary
281
     1
  3
Standard
350
60
  0
DICTIONARY
  5
29
102
{ACAD_REACTORS
330
C
102
}
330
C
100
AcDbDictionary
281
     1
  3
2dWireframe
350
2F
  3
3D Hidden
350
31
  3
3dWireframe
350
30
  3
Basic
350
2E
  3
Brighten
350
35
  3
ColorChange
350
39
  3
Conceptual
350
32
  3
Dim
350
34
  3
EdgeColorOff
350
3C
  3
Facepattern
350
38
  3
Flat
350
2A
  3
FlatWithEdges
350
2B
  3
Gouraud
350
2C
  3
GouraudWithEdges
350
2D
  3
JitterOff
350
3A
  3
Linepattern
350
37
  3
OverhangOff
350
3B
  3
Realistic
350
33
  3
Thicken
350
36
  0
XRECORD
  5
8E9
102
{ACAD_REACTORS
330
C
102
}
330
C
100
AcDbXrecord
280
     1
 90
        1
330
60
  0
DICTIONARY
  5
542
102
{ACAD_REACTORS
330
C
102
}
330
C
100
AcDbDictionary
281
     1
  3
ANNOALLVISIBLE
350
546
  3
CANNOSCALE
350
547
  3
CMLEADERSTYLE
350
544
  3
CTABLESTYLE
350
543
  3
DIMASSOC
350
616
  3
HIDETEXT
350
614
  3
INDEXCTL
350
613
  3
LAYEREVAL
350
549
  3
LAYERNOTIFY
350
54A
  3
LIGHTINGUNITS
350
548
  3
MSLTSCALE
350
545
  3
SORTENTS
350
612
  3
XCLIPFRAME
350
8E7
  0
DICTIONARY
  5
5A0
102
{ACAD_REACTORS
330
C
102
}
330
C
100
AcDbDictionary
281
     1
  3
AcmStdDictionary
350
5AD
  0
DICTIONARY
  5
558
102
{ACAD_REACTORS
330
C
102
}
330
C
100
AcDbDictionary
281
     1
  0
DICTIONARY
  5
60B
102
{ACAD_REACTORS
330
C
102
}
330
C
100
AcDbDictionary
281
     1
  0
XRECORD
  5
8EA
102
{ACAD_REACTORS
330
C
102
}
330
C
100
AcDbXrecord
280
     1
  1
DWGPROPS COOKIE
  2

  3

  4

  6

  7

  8
Administrator
  9

300
AmdtFileType=84
301
=
302
=
303
=
304
=
305
=
306
=
307
=
308
=
309
=
 40
0.0314641782407408
 41
2456560.670876007
 42
2457997.66153757
  1

 90
        1
  0
DICTIONARY
  5
72A
102
{ACAD_REACTORS
330
729
102
}
330
729
100
AcDbDictionary
281
     1
  0
XRECORD
  5
608
102
{ACAD_REACTORS
330
607
102
}
330
607
100
AcDbXrecord
280
     1
290
     1
  0
XRECORD
  5
CA
102
{ACAD_REACTORS
330
C9
102
}
330
C9
100
AcDbXrecord
280
     1
290
     1
  0
XRECORD
  5
D3
102
{ACAD_REACTORS
330
D2
102
}
330
D2
100
AcDbXrecord
280
     1
290
     1
  0
XRECORD
  5
F2
102
{ACAD_REACTORS
330
F1
102
}
330
F1
100
AcDbXrecord
280
     1
290
     1
  0
XRECORD
  5
138
102
{ACAD_REACTORS
330
137
102
}
330
137
100
AcDbXrecord
280
     1
290
     1
  0
XRECORD
  5
60A
102
{ACAD_REACTORS
330
609
102
}
330
609
100
AcDbXrecord
280
     1
290
     1
  0
SORTENTSTABLE
  5
4C1
102
{ACAD_REACTORS
330
4C0
102
}
330
4C0
100
AcDbSortentsTable
330
67
  0
SORTENTSTABLE
  5
736
102
{ACAD_REACTORS
330
735
102
}
330
735
100
AcDbSortentsTable
330
72B
  0
XRECORD
  5
91E
102
{ACAD_REACTORS
330
91D
102
}
330
91D
100
AcDbXrecord
280
     1
 40
2565.0
  1
60\U+00B0
  0
DICTIONARY
  5
72F
102
{ACAD_REACTORS
330
72E
102
}
330
72E
100
AcDbDictionary
281
     1
  3
ACDB_ANNOTATIONSCALES
350
730
  0
XRECORD
  5
920
102
{ACAD_REACTORS
330
91F
102
}
330
91F
100
AcDbXrecord
280
     1
 40
46068.0
  1
2-M3\U+00D70.5 TAPPED HOLE\P(2mmMAX)
  0
XRECORD
  5
922
102
{ACAD_REACTORS
330
921
102
}
330
921
100
AcDbXrecord
280
     1
 40
8671.0
  1
＋TERMINAL
  0
XRECORD
  5
924
102
{ACAD_REACTORS
330
923
102
}
330
923
100
AcDbXrecord
280
     1
 40
46099.0
  1
3-M3\U+00D70.5 TAPPED HOLE\P(3mmMAX)
  0
XRECORD
  5
926
102
{ACAD_REACTORS
330
925
102
}
330
925
100
AcDbXrecord
280
     1
 40
8671.0
  1
＋TERMINAL
  0
DIMASSOC
  5
145
102
{ACAD_REACTORS
330
144
102
}
330
144
100
AcDbDimAssoc
330
143
 90
        3
 70
     0
 71
     0
  1
AcDbOsnapPointRef
 72
     3
331
F8
 73
     0
 91
        0
 40
0.0
 10
0.0
 20
0.0
 30
0.0
 75
     0
  1
AcDbOsnapPointRef
 72
     3
331
F9
 73
     0
 91
        0
 40
0.0
 10
0.0
 20
0.0
 30
0.0
 75
     0
  0
DIMASSOC
  5
154
102
{ACAD_REACTORS
330
153
102
}
330
153
100
AcDbDimAssoc
330
152
 90
       15
 70
     0
 71
     0
  1
AcDbOsnapPointRef
 72
    13
331
13C
 73
     2
 91
        0
 40
0.0
 10
0.0
 20
0.0
 30
2.000000000000000E+50
 75
     0
  1
AcDbOsnapPointRef
 72
     1
331
13C
 73
     2
 91
        0
 40
0.0
 10
0.0
 20
0.0
 30
2.000000000000000E+50
 75
     0
  1
AcDbOsnapPointRef
 72
    13
331
141
 73
     2
 91
        0
 40
0.0
 10
0.0
 20
0.0
 30
2.000000000000000E+50
 75
     0
  1
AcDbOsnapPointRef
 72
     1
331
141
 73
     2
 91
        0
 40
0.0
 10
0.0
 20
0.0
 30
2.000000000000000E+50
 75
     0
  0
DIMASSOC
  5
165
102
{ACAD_REACTORS
330
164
102
}
330
164
100
AcDbDimAssoc
330
163
 90
        3
 70
     0
 71
     0
  1
AcDbOsnapPointRef
 72
    11
331
118
 73
     0
 91
        0
 40
3.459416357517674
 10
0.0
 20
0.0
 30
0.0
332
125
 74
     0
 92
        0
 75
     0
  1
AcDbOsnapPointRef
 72
     8
331
126
 73
     0
 91
        0
 40
0.9999999999999747
 10
0.0
 20
0.0
 30
0.0
 75
     1
  1
AcDbOsnapPointRef
 72
    11
331
118
 73
     0
 91
        0
 40
3.459416357517674
 10
0.0
 20
0.0
 30
0.0
332
125
 74
     0
 92
        0
 75
     0
  0
DIMASSOC
  5
176
102
{ACAD_REACTORS
330
175
102
}
330
175
100
AcDbDimAssoc
330
174
 90
        3
 70
     0
 71
     0
  1
AcDbOsnapPointRef
 72
     1
331
11A
 73
     0
 91
        0
 40
0.0
 10
0.0
 20
0.0
 30
2.000000000000000E+50
 75
     0
  1
AcDbOsnapPointRef
 72
     8
331
11B
 73
     0
 91
        0
 40
1.0
 10
0.0
 20
0.0
 30
0.0
 75
     1
  1
AcDbOsnapPointRef
 72
     1
331
11A
 73
     0
 91
        0
 40
0.0
 10
0.0
 20
0.0
 30
2.000000000000000E+50
 75
     0
  0
DIMASSOC
  5
186
102
{ACAD_REACTORS
330
185
102
}
330
185
100
AcDbDimAssoc
330
184
 90
        3
 70
     0
 71
     0
  1
AcDbOsnapPointRef
 72
     1
331
11B
 73
     0
 91
        0
 40
0.0
 10
0.0
 20
0.0
 30
2.000000000000000E+50
 75
     0
  1
AcDbOsnapPointRef
 72
    13
331
107
 73
     0
 91
        0
 40
0.0
 10
0.0
 20
0.0
 30
2.000000000000000E+50
 75
     0
  0
DIMASSOC
  5
197
102
{ACAD_REACTORS
330
196
102
}
330
196
100
AcDbDimAssoc
330
195
 90
        3
 70
     0
 71
     0
  1
AcDbOsnapPointRef
 72
    13
331
107
 73
     0
 91
        0
 40
0.0
 10
0.0
 20
0.0
 30
2.000000000000000E+50
 75
     0
  1
AcDbOsnapPointRef
 72
     2
331
118
 73
     0
 91
        0
 40
0.0
 10
0.0
 20
0.0
 30
0.0
 75
     0
  0
DIMASSOC
  5
1A6
102
{ACAD_REACTORS
330
1A5
102
}
330
1A5
100
AcDbDimAssoc
330
1A4
 90
        3
 70
     0
 71
     0
  1
AcDbOsnapPointRef
 72
    13
331
107
 73
     0
 91
        0
 40
0.0
 10
0.0
 20
0.0
 30
2.000000000000000E+50
 75
     0
  1
AcDbOsnapPointRef
 72
    13
331
111
 73
     0
 91
        0
 40
0.0
 10
0.0
 20
0.0
 30
2.000000000000000E+50
 75
     0
  0
DIMASSOC
  5
1B5
102
{ACAD_REACTORS
330
1B4
102
}
330
1B4
100
AcDbDimAssoc
330
1B3
 90
        3
 70
     0
 71
     0
  1
AcDbOsnapPointRef
 72
    13
331
111
 73
     0
 91
        0
 40
0.0
 10
0.0
 20
0.0
 30
2.000000000000000E+50
 75
     0
  1
AcDbOsnapPointRef
 72
    13
331
10D
 73
     0
 91
        0
 40
0.0
 10
0.0
 20
0.0
 30
2.000000000000000E+50
 75
     0
  0
DIMASSOC
  5
1C6
102
{ACAD_REACTORS
330
1C5
102
}
330
1C5
100
AcDbDimAssoc
330
1C4
 90
        3
 70
     0
 71
     0
  1
AcDbOsnapPointRef
 72
    13
331
110
 73
     0
 91
        0
 40
0.0
 10
0.0
 20
0.0
 30
2.000000000000000E+50
 75
     0
  1
AcDbOsnapPointRef
 72
     1
331
11F
 73
     0
 91
        0
 40
0.0
 10
0.0
 20
0.0
 30
2.000000000000000E+50
 75
     0
  0
DIMASSOC
  5
1D5
102
{ACAD_REACTORS
330
1D4
102
}
330
1D4
100
AcDbDimAssoc
330
1D3
 90
        3
 70
     0
 71
     0
  1
AcDbOsnapPointRef
 72
     1
331
122
 73
     0
 91
        0
 40
0.0
 10
0.0
 20
0.0
 30
2.000000000000000E+50
 75
     0
  1
AcDbOsnapPointRef
 72
     1
331
111
 73
     0
 91
        0
 40
0.0
 10
0.0
 20
0.0
 30
2.000000000000000E+50
 75
     0
  0
DIMASSOC
  5
1E4
102
{ACAD_REACTORS
330
1E3
102
}
330
1E3
100
AcDbDimAssoc
330
1E2
 90
        3
 70
     0
 71
     0
  1
AcDbOsnapPointRef
 72
     1
331
108
 73
     0
 91
        0
 40
0.0
 10
0.0
 20
0.0
 30
2.000000000000000E+50
 75
     0
  1
AcDbOsnapPointRef
 72
     1
331
107
 73
     0
 91
        0
 40
0.0
 10
0.0
 20
0.0
 30
2.000000000000000E+50
 75
     0
  0
DIMASSOC
  5
1F3
102
{ACAD_REACTORS
330
1F2
102
}
330
1F2
100
AcDbDimAssoc
330
1F1
 90
        2
 70
     0
 71
     0
  1
AcDbOsnapPointRef
 72
     1
331
112
 73
     0
 91
        0
 40
0.0
 10
0.0
 20
0.0
 30
2.000000000000000E+50
 75
     0
  0
DIMASSOC
  5
209
102
{ACAD_REACTORS
330
208
102
}
330
208
100
AcDbDimAssoc
330
207
 90
        3
 70
     0
 71
     0
  1
AcDbOsnapPointRef
 72
    13
331
111
 73
     0
 91
        0
 40
0.0
 10
0.0
 20
0.0
 30
2.000000000000000E+50
 75
     0
  1
AcDbOsnapPointRef
 72
    13
331
10C
 73
     0
 91
        0
 40
0.0
 10
0.0
 20
0.0
 30
2.000000000000000E+50
 75
     0
  0
DICTIONARY
  5
776
102
{ACAD_REACTORS
330
775
102
}
330
775
100
AcDbDictionary
281
     1
  3
ACDB_ANNOTATIONSCALES
350
777
  0
DIMASSOC
  5
7AC
102
{ACAD_REACTORS
330
7AB
102
}
330
7AB
100
AcDbDimAssoc
330
79E
 90
        3
 70
     0
 71
     0
  1
AcDbOsnapPointRef
 72
     4
331
152
331
4D5
 73
     0
 91
        0
 40
0.0
 10
0.0
 20
0.0
 30
0.0
 75
     0
  1
AcDbOsnapPointRef
 72
     1
331
203
 73
     0
 91
        0
 40
0.0
 10
0.0
 20
0.0
 30
2.000000000000000E+50
 75
     0
  0
DIMASSOC
  5
7D2
102
{ACAD_REACTORS
330
7D1
102
}
330
7D1
100
AcDbDimAssoc
330
7BF
 90
       15
 70
     0
 71
     0
  1
AcDbOsnapPointRef
 72
    13
331
13C
 73
     2
 91
        0
 40
0.0
 10
0.0
 20
0.0
 30
2.000000000000000E+50
 75
     0
  1
AcDbOsnapPointRef
 72
     1
331
13C
 73
     2
 91
        0
 40
0.0
 10
0.0
 20
0.0
 30
2.000000000000000E+50
 75
     0
  1
AcDbOsnapPointRef
 72
    13
331
206
 73
     2
 91
        0
 40
0.0
 10
0.0
 20
0.0
 30
2.000000000000000E+50
 75
     0
  1
AcDbOsnapPointRef
 72
     1
331
206
 73
     2
 91
        0
 40
0.0
 10
0.0
 20
0.0
 30
2.000000000000000E+50
 75
     0
  0
XRECORD
  5
8EC
102
{ACAD_REACTORS
330
8EB
102
}
330
8EB
100
AcDbXrecord
280
     1
 70
     1
  0
XRECORD
  5
8EE
102
{ACAD_REACTORS
330
8EB
102
}
330
8EB
100
AcDbXrecord
280
     1
340
56
  0
XRECORD
  5
8EF
102
{ACAD_REACTORS
330
8EB
102
}
330
8EB
100
AcDbXrecord
280
     1
340
56
  0
XRECORD
  5
8ED
102
{ACAD_REACTORS
330
8EB
102
}
330
8EB
100
AcDbXrecord
280
     1
340
56
  0
LAYOUT
  5
6A
102
{ACAD_XDICTIONARY
360
919
102
}
102
{ACAD_REACTORS
330
5D
102
}
330
5D
100
AcDbPlotSettings
  1

  2
KONICA MINOLTA 350_250_200 PCL.pc3
  4
A4
  6

 40
5.027082920074462
 41
5.027085781097412
 42
5.027069091796875
 43
5.027069091796875
 44
209.9733276367186
 45
296.9259948730469
 46
0.0
 47
0.0
 48
0.0
 49
0.0
140
0.0
141
0.0
142
1.0
143
0.8398847348458769
 70
 11952
 72
     1
 73
     1
 74
     0
  7

 75
     0
147
1.190639570540002
148
0.4689173612705561
149
16.48431182574894
100
AcDbLayout
  1
Model
 70
     1
 71
     0
 10
0.0
 20
0.0
 11
12.0
 21
9.0
 12
0.0
 22
0.0
 32
0.0
 14
0.0
 24
0.0
 34
0.0
 15
0.0
 25
0.0
 35
0.0
146
0.0
 13
0.0
 23
0.0
 33
0.0
 16
1.0
 26
0.0
 36
0.0
 17
0.0
 27
1.0
 37
0.0
 76
     0
330
67
331
52
1001
ACAD_PSEXT
1000
KONICA MINOLTA 350_250_200 PCL.pc3
1000
KONICA MINOLTA 350/250/200 PCL
1000
IP_192.168.3.100
1000

1070
     0
  0
LAYOUT
  5
66
102
{ACAD_XDICTIONARY
360
917
102
}
102
{ACAD_REACTORS
330
5D
102
}
330
5D
100
AcDbPlotSettings
  1

  2
C:\Documents and Settings\SSEGAWA\application data\autodesk\autocad mechanical 2010\r18.0\jpn\plotters\konica minolta 350_250_200 pcl.pc3
  4

  6

 40
0.0
 41
0.0
 42
0.0
 43
0.0
 44
0.0
 45
0.0
 46
0.0
 47
0.0
 48
0.0
 49
0.0
140
0.0
141
0.0
142
1.0
143
1.0
 70
   688
 72
     0
 73
     0
 74
     5
  7

 75
    16
147
1.0
148
0.0
149
0.0
100
AcDbLayout
  1
レイアウト1
 70
     1
 71
     1
 10
0.0
 20
0.0
 11
12.0
 21
9.0
 12
0.0
 22
0.0
 32
0.0
 14
1.000000000000000E+20
 24
1.000000000000000E+20
 34
1.000000000000000E+20
 15
-1.000000000000000E+20
 25
-1.000000000000000E+20
 35
-1.000000000000000E+20
146
0.0
 13
0.0
 23
0.0
 33
0.0
 16
1.0
 26
0.0
 36
0.0
 17
0.0
 27
1.0
 37
0.0
 76
     0
330
63
  0
LAYOUT
  5
6E
102
{ACAD_XDICTIONARY
360
91B
102
}
102
{ACAD_REACTORS
330
5D
102
}
330
5D
100
AcDbPlotSettings
  1

  2
C:\Documents and Settings\SSEGAWA\application data\autodesk\autocad mechanical 2010\r18.0\jpn\plotters\konica minolta 350_250_200 pcl.pc3
  4

  6

 40
0.0
 41
0.0
 42
0.0
 43
0.0
 44
0.0
 45
0.0
 46
0.0
 47
0.0
 48
0.0
 49
0.0
140
0.0
141
0.0
142
1.0
143
1.0
 70
   688
 72
     0
 73
     0
 74
     5
  7

 75
    16
147
1.0
148
0.0
149
0.0
100
AcDbLayout
  1
レイアウト2
 70
     1
 71
     2
 10
0.0
 20
0.0
 11
12.0
 21
9.0
 12
0.0
 22
0.0
 32
0.0
 14
0.0
 24
0.0
 34
0.0
 15
0.0
 25
0.0
 35
0.0
146
0.0
 13
0.0
 23
0.0
 33
0.0
 16
1.0
 26
0.0
 36
0.0
 17
0.0
 27
1.0
 37
0.0
 76
     0
330
6B
  0
MATERIAL
  5
19
102
{ACAD_XDICTIONARY
360
1A
102
}
102
{ACAD_REACTORS
330
10
102
}
330
10
100
AcDbMaterial
  1
ByBlock
 72
     0
 43
0.0208333333333333
 43
0.0
 43
0.0
 43
0.0
 43
0.0
 43
0.0208333333333333
 43
0.0
 43
0.0
 43
0.0
 43
0.0
 43
1.0
 43
0.0
 43
0.0
 43
0.0
 43
0.0
 43
1.0
 77
     0
 47
0.0208333333333333
 47
0.0
 47
0.0
 47
0.0
 47
0.0
 47
0.0208333333333333
 47
0.0
 47
0.0
 47
0.0
 47
0.0
 47
1.0
 47
0.0
 47
0.0
 47
0.0
 47
0.0
 47
1.0
171
     0
 49
0.0208333333333333
 49
0.0
 49
0.0
 49
0.0
 49
0.0
 49
0.0208333333333333
 49
0.0
 49
0.0
 49
0.0
 49
0.0
 49
1.0
 49
0.0
 49
0.0
 49
0.0
 49
0.0
 49
1.0
175
     0
142
0.0208333333333333
142
0.0
142
0.0
142
0.0
142
0.0
142
0.0208333333333333
142
0.0
142
0.0
142
0.0
142
0.0
142
1.0
142
0.0
142
0.0
142
0.0
142
0.0
142
1.0
179
     0
144
0.0208333333333333
144
0.0
144
0.0
144
0.0
144
0.0
144
0.0208333333333333
144
0.0
144
0.0
144
0.0
144
0.0
144
1.0
144
0.0
144
0.0
144
0.0
144
0.0
144
1.0
147
0.0208333333333333
147
0.0
147
0.0
147
0.0
147
0.0
147
0.0208333333333333
147
0.0
147
0.0
147
0.0
147
0.0
147
1.0
147
0.0
147
0.0
147
0.0
147
0.0
147
1.0
  0
MATERIAL
  5
11
102
{ACAD_XDICTIONARY
360
12
102
}
102
{ACAD_REACTORS
330
10
102
}
330
10
100
AcDbMaterial
  1
ByLayer
 72
     0
 43
0.0208333333333333
 43
0.0
 43
0.0
 43
0.0
 43
0.0
 43
0.0208333333333333
 43
0.0
 43
0.0
 43
0.0
 43
0.0
 43
1.0
 43
0.0
 43
0.0
 43
0.0
 43
0.0
 43
1.0
 77
     0
 47
0.0208333333333333
 47
0.0
 47
0.0
 47
0.0
 47
0.0
 47
0.0208333333333333
 47
0.0
 47
0.0
 47
0.0
 47
0.0
 47
1.0
 47
0.0
 47
0.0
 47
0.0
 47
0.0
 47
1.0
171
     0
 49
0.0208333333333333
 49
0.0
 49
0.0
 49
0.0
 49
0.0
 49
0.0208333333333333
 49
0.0
 49
0.0
 49
0.0
 49
0.0
 49
1.0
 49
0.0
 49
0.0
 49
0.0
 49
0.0
 49
1.0
175
     0
142
0.0208333333333333
142
0.0
142
0.0
142
0.0
142
0.0
142
0.0208333333333333
142
0.0
142
0.0
142
0.0
142
0.0
142
1.0
142
0.0
142
0.0
142
0.0
142
0.0
142
1.0
179
     0
144
0.0208333333333333
144
0.0
144
0.0
144
0.0
144
0.0
144
0.0208333333333333
144
0.0
144
0.0
144
0.0
144
0.0
144
1.0
144
0.0
144
0.0
144
0.0
144
0.0
144
1.0
147
0.0208333333333333
147
0.0
147
0.0
147
0.0
147
0.0
147
0.0208333333333333
147
0.0
147
0.0
147
0.0
147
0.0
147
1.0
147
0.0
147
0.0
147
0.0
147
0.0
147
1.0
  0
MATERIAL
  5
21
102
{ACAD_XDICTIONARY
360
22
102
}
102
{ACAD_REACTORS
330
10
102
}
330
10
100
AcDbMaterial
  1
Global
 72
     0
 43
0.0208333333333333
 43
0.0
 43
0.0
 43
0.0
 43
0.0
 43
0.0208333333333333
 43
0.0
 43
0.0
 43
0.0
 43
0.0
 43
1.0
 43
0.0
 43
0.0
 43
0.0
 43
0.0
 43
1.0
 77
     0
 47
0.0208333333333333
 47
0.0
 47
0.0
 47
0.0
 47
0.0
 47
0.0208333333333333
 47
0.0
 47
0.0
 47
0.0
 47
0.0
 47
1.0
 47
0.0
 47
0.0
 47
0.0
 47
0.0
 47
1.0
171
     0
 49
0.0208333333333333
 49
0.0
 49
0.0
 49
0.0
 49
0.0
 49
0.0208333333333333
 49
0.0
 49
0.0
 49
0.0
 49
0.0
 49
1.0
 49
0.0
 49
0.0
 49
0.0
 49
0.0
 49
1.0
175
     0
142
0.0208333333333333
142
0.0
142
0.0
142
0.0
142
0.0
142
0.0208333333333333
142
0.0
142
0.0
142
0.0
142
0.0
142
1.0
142
0.0
142
0.0
142
0.0
142
0.0
142
1.0
179
     0
144
0.0208333333333333
144
0.0
144
0.0
144
0.0
144
0.0
144
0.0208333333333333
144
0.0
144
0.0
144
0.0
144
0.0
144
1.0
144
0.0
144
0.0
144
0.0
144
0.0
144
1.0
147
0.0208333333333333
147
0.0
147
0.0
147
0.0
147
0.0
147
0.0208333333333333
147
0.0
147
0.0
147
0.0
147
0.0
147
1.0
147
0.0
147
0.0
147
0.0
147
0.0
147
1.0
  0
MLEADERSTYLE
  5
62
102
{ACAD_REACTORS
330
61
102
}
330
61
100
AcDbMLeaderStyle
170
     2
171
     1
172
     0
 90
        2
 40
0.0
 41
0.0
173
     1
 91
-1056964608
340
56
 92
       -2
290
     1
 42
0.09
291
     1
 43
0.36
  3
Standard
 44
0.18
300

342
50
174
     1
178
     6
175
     1
176
     0
 93
-1056964608
 45
0.18
292
     0
297
     0
 46
0.18
 94
-1056964608
 47
1.0
 49
1.0
140
1.0
293
     1
141
0.0
294
     1
177
     0
142
1.0
295
     0
296
     0
143
0.125
1001
ACAD_MLEADERVER
1070
     2
  0
MLINESTYLE
  5
5B
102
{ACAD_REACTORS
330
5A
102
}
330
5A
100
AcDbMlineStyle
  2
STANDARD
 70
     0
  3

 62
   256
 51
90.0
 52
90.0
 71
     2
 49
0.5
 62
   256
  6
BYLAYER
 49
-0.5
 62
   256
  6
BYLAYER
  0
ACDBPLACEHOLDER
  5
F
102
{ACAD_REACTORS
330
E
102
}
330
E
  0
SCALE
  5
B5
102
{ACAD_REACTORS
330
3D
102
}
330
3D
100
AcDbScale
 70
     0
300
1.5:1
140
1.5
141
1.0
290
     0
  0
SCALE
  5
BD
102
{ACAD_REACTORS
330
3D
102
}
330
3D
100
AcDbScale
 70
     0
300
3/16" = 1'-0"
140
0.1875
141
12.0
290
     0
  0
SCALE
  5
BE
102
{ACAD_REACTORS
330
3D
102
}
330
3D
100
AcDbScale
 70
     0
300
1/4" = 1'-0"
140
0.25
141
12.0
290
     0
  0
SCALE
  5
BF
102
{ACAD_REACTORS
330
3D
102
}
330
3D
100
AcDbScale
 70
     0
300
3/8" = 1'-0"
140
0.375
141
12.0
290
     0
  0
SCALE
  5
C0
102
{ACAD_REACTORS
330
3D
102
}
330
3D
100
AcDbScale
 70
     0
300
1/2" = 1'-0"
140
0.5
141
12.0
290
     0
  0
SCALE
  5
C1
102
{ACAD_REACTORS
330
3D
102
}
330
3D
100
AcDbScale
 70
     0
300
3/4" = 1'-0"
140
0.75
141
12.0
290
     0
  0
SCALE
  5
C2
102
{ACAD_REACTORS
330
3D
102
}
330
3D
100
AcDbScale
 70
     0
300
1" = 1'-0"
140
1.0
141
12.0
290
     0
  0
SCALE
  5
C3
102
{ACAD_REACTORS
330
3D
102
}
330
3D
100
AcDbScale
 70
     0
300
1-1/2" = 1'-0"
140
1.5
141
12.0
290
     0
  0
SCALE
  5
C4
102
{ACAD_REACTORS
330
3D
102
}
330
3D
100
AcDbScale
 70
     0
300
3" = 1'-0"
140
3.0
141
12.0
290
     0
  0
SCALE
  5
C5
102
{ACAD_REACTORS
330
3D
102
}
330
3D
100
AcDbScale
 70
     0
300
6" = 1'-0"
140
6.0
141
12.0
290
     0
  0
SCALE
  5
C6
102
{ACAD_REACTORS
330
3D
102
}
330
3D
100
AcDbScale
 70
     0
300
1'-0" = 1'-0"
140
12.0
141
12.0
290
     0
  0
SCALE
  5
B6
102
{ACAD_REACTORS
330
3D
102
}
330
3D
100
AcDbScale
 70
     0
300
1.25:1
140
1.25
141
1.0
290
     0
  0
SCALE
  5
B7
102
{ACAD_REACTORS
330
3D
102
}
330
3D
100
AcDbScale
 70
     0
300
1/128" = 1'-0"
140
0.0078125
141
12.0
290
     0
  0
SCALE
  5
B8
102
{ACAD_REACTORS
330
3D
102
}
330
3D
100
AcDbScale
 70
     0
300
1/64" = 1'-0"
140
0.015625
141
12.0
290
     0
  0
SCALE
  5
B9
102
{ACAD_REACTORS
330
3D
102
}
330
3D
100
AcDbScale
 70
     0
300
1/32" = 1'-0"
140
0.03125
141
12.0
290
     0
  0
SCALE
  5
BA
102
{ACAD_REACTORS
330
3D
102
}
330
3D
100
AcDbScale
 70
     0
300
1/16" = 1'-0"
140
0.0625
141
12.0
290
     0
  0
SCALE
  5
BB
102
{ACAD_REACTORS
330
3D
102
}
330
3D
100
AcDbScale
 70
     0
300
3/32" = 1'-0"
140
0.09375
141
12.0
290
     0
  0
SCALE
  5
BC
102
{ACAD_REACTORS
330
3D
102
}
330
3D
100
AcDbScale
 70
     0
300
1/8" = 1'-0"
140
0.125
141
12.0
290
     0
  0
SCALE
  5
3E
102
{ACAD_REACTORS
330
3D
102
}
330
3D
100
AcDbScale
 70
     0
300
1:1
140
1.0
141
1.0
290
     1
  0
SCALE
  5
3F
102
{ACAD_REACTORS
330
3D
102
}
330
3D
100
AcDbScale
 70
     0
300
1:2
140
1.0
141
2.0
290
     0
  0
SCALE
  5
40
102
{ACAD_REACTORS
330
3D
102
}
330
3D
100
AcDbScale
 70
     0
300
1:4
140
1.0
141
4.0
290
     0
  0
SCALE
  5
41
102
{ACAD_REACTORS
330
3D
102
}
330
3D
100
AcDbScale
 70
     0
300
1:5
140
1.0
141
5.0
290
     0
  0
SCALE
  5
42
102
{ACAD_REACTORS
330
3D
102
}
330
3D
100
AcDbScale
 70
     0
300
1:8
140
1.0
141
8.0
290
     0
  0
SCALE
  5
43
102
{ACAD_REACTORS
330
3D
102
}
330
3D
100
AcDbScale
 70
     0
300
1:10
140
1.0
141
10.0
290
     0
  0
SCALE
  5
44
102
{ACAD_REACTORS
330
3D
102
}
330
3D
100
AcDbScale
 70
     0
300
1:16
140
1.0
141
16.0
290
     0
  0
SCALE
  5
45
102
{ACAD_REACTORS
330
3D
102
}
330
3D
100
AcDbScale
 70
     0
300
1:20
140
1.0
141
20.0
290
     0
  0
SCALE
  5
46
102
{ACAD_REACTORS
330
3D
102
}
330
3D
100
AcDbScale
 70
     0
300
1:30
140
1.0
141
30.0
290
     0
  0
SCALE
  5
47
102
{ACAD_REACTORS
330
3D
102
}
330
3D
100
AcDbScale
 70
     0
300
1:40
140
1.0
141
40.0
290
     0
  0
SCALE
  5
48
102
{ACAD_REACTORS
330
3D
102
}
330
3D
100
AcDbScale
 70
     0
300
1:50
140
1.0
141
50.0
290
     0
  0
SCALE
  5
49
102
{ACAD_REACTORS
330
3D
102
}
330
3D
100
AcDbScale
 70
     0
300
1:100
140
1.0
141
100.0
290
     0
  0
SCALE
  5
4A
102
{ACAD_REACTORS
330
3D
102
}
330
3D
100
AcDbScale
 70
     0
300
2:1
140
2.0
141
1.0
290
     0
  0
SCALE
  5
4B
102
{ACAD_REACTORS
330
3D
102
}
330
3D
100
AcDbScale
 70
     0
300
4:1
140
4.0
141
1.0
290
     0
  0
SCALE
  5
4C
102
{ACAD_REACTORS
330
3D
102
}
330
3D
100
AcDbScale
 70
     0
300
8:1
140
8.0
141
1.0
290
     0
  0
SCALE
  5
4D
102
{ACAD_REACTORS
330
3D
102
}
330
3D
100
AcDbScale
 70
     0
300
10:1
140
10.0
141
1.0
290
     0
  0
SCALE
  5
4E
102
{ACAD_REACTORS
330
3D
102
}
330
3D
100
AcDbScale
 70
     0
300
100:1
140
100.0
141
1.0
290
     0
  0
TABLESTYLE
  5
60
102
{ACAD_XDICTIONARY
360
617
102
}
102
{ACAD_REACTORS
330
5F
102
}
330
5F
100
AcDbTableStyle
  3
Standard
 70
     0
 71
     3
 40
1.5
 41
1.5
280
     0
281
     0
  7
STANDARD
140
4.5
170
     2
 62
     0
 63
     7
283
     0
274
    -2
284
     1
 64
     0
275
    -2
285
     1
 65
     0
276
    -2
286
     1
 66
     0
277
    -2
287
     1
 67
     0
278
    -2
288
     1
 68
     0
279
    -2
289
     1
 69
     0
  7
STANDARD
140
6.0
170
     5
 62
     0
 63
     7
283
     0
274
    -2
284
     1
 64
     0
275
    -2
285
     1
 65
     0
276
    -2
286
     1
 66
     0
277
    -2
287
     1
 67
     0
278
    -2
288
     1
 68
     0
279
    -2
289
     1
 69
     0
  7
STANDARD
140
4.5
170
     5
 62
     0
 63
     7
283
     0
274
    -2
284
     1
 64
     0
275
    -2
285
     1
 65
     0
276
    -2
286
     1
 66
     0
277
    -2
287
     1
 67
     0
278
    -2
288
     1
 68
     0
279
    -2
289
     1
 69
     0
  0
VISUALSTYLE
  5
2F
102
{ACAD_XDICTIONARY
360
8FA
102
}
102
{ACAD_REACTORS
330
29
102
}
330
29
100
AcDbVisualStyle
  2

 70
     4
 71
     0
 72
     2
 73
     0
 90
        0
 40
-0.6
 41
-30.0
 62
     5
 63
     7
 74
     1
 91
        4
 64
     7
 65
   257
 75
     1
175
     1
 42
1.0
 92
        0
 66
   257
 43
1.0
 76
     1
 77
     6
 78
     2
 67
     7
 79
     5
170
     0
171
     0
290
     0
174
     0
 93
        1
 44
0.0
173
     0
291
     0
 45
0.0
1001
ACAD
1000
AcDbSavedByObjectVersion
1070
     0
  0
VISUALSTYLE
  5
31
102
{ACAD_XDICTIONARY
360
8FE
102
}
102
{ACAD_REACTORS
330
29
102
}
330
29
100
AcDbVisualStyle
  2

 70
     6
 71
     1
 72
     2
 73
     2
 90
        0
 40
-0.6
 41
-30.0
 62
     5
 63
     7
 74
     2
 91
        2
 64
     7
 65
   257
 75
     2
175
     1
 42
179.0
 92
        0
 66
   257
 43
1.0
 76
     1
 77
     6
 78
     2
 67
     7
 79
     3
170
     0
171
     0
290
     0
174
     0
 93
        1
 44
0.0
173
     0
291
     0
 45
0.0
1001
ACAD
1000
AcDbSavedByObjectVersion
1070
     0
  0
VISUALSTYLE
  5
30
102
{ACAD_XDICTIONARY
360
8FC
102
}
102
{ACAD_REACTORS
330
29
102
}
330
29
100
AcDbVisualStyle
  2

 70
     5
 71
     0
 72
     2
 73
     0
 90
        0
 40
-0.6
 41
-30.0
 62
     5
 63
     7
 74
     1
 91
        4
 64
     7
 65
   257
 75
     1
175
     1
 42
1.0
 92
        0
 66
   257
 43
1.0
 76
     1
 77
     6
 78
     2
 67
     7
 79
     5
170
     0
171
     0
290
     0
174
     0
 93
        1
 44
0.0
173
     0
291
     0
 45
0.0
1001
ACAD
1000
AcDbSavedByObjectVersion
1070
     0
  0
VISUALSTYLE
  5
2E
102
{ACAD_XDICTIONARY
360
8F8
102
}
102
{ACAD_REACTORS
330
29
102
}
330
29
100
AcDbVisualStyle
  2

 70
     7
 71
     1
 72
     0
 73
     1
 90
        0
 40
-0.6
 41
-30.0
 62
     5
 63
     7
 74
     0
 91
        4
 64
     7
 65
   257
 75
     1
175
     1
 42
1.0
 92
        8
 66
     7
 43
1.0
 76
     1
 77
     6
 78
     2
 67
     7
 79
     5
170
     0
171
     0
290
     0
174
     0
 93
        1
 44
0.0
173
     0
291
     1
 45
0.0
1001
ACAD
1000
AcDbSavedByObjectVersion
1070
     0
  0
VISUALSTYLE
  5
35
102
{ACAD_XDICTIONARY
360
906
102
}
102
{ACAD_REACTORS
330
29
102
}
330
29
100
AcDbVisualStyle
  2

 70
    12
 71
     2
 72
     2
 73
     0
 90
        0
 40
-0.6
 41
-30.0
 62
     5
 63
     7
 74
     1
 91
        4
 64
     7
 65
   257
 75
     1
175
     1
 42
1.0
 92
        8
 66
     7
 43
1.0
 76
     1
 77
     6
 78
     2
 67
     7
 79
     5
170
     0
171
     0
290
     0
174
     0
 93
        1
 44
50.0
173
     0
291
     1
 45
0.0
1001
ACAD
1000
AcDbSavedByObjectVersion
1070
     0
  0
VISUALSTYLE
  5
39
102
{ACAD_XDICTIONARY
360
90E
102
}
102
{ACAD_REACTORS
330
29
102
}
330
29
100
AcDbVisualStyle
  2

 70
    16
 71
     2
 72
     2
 73
     3
 90
        0
 40
-0.6
 41
-30.0
 62
     5
 63
     8
 74
     1
 91
        4
 64
     7
 65
   257
 75
     1
175
     1
 42
1.0
 92
        8
 66
     8
 43
1.0
 76
     1
 77
     6
 78
     2
 67
     7
 79
     5
170
     0
171
     0
290
     0
174
     0
 93
        1
 44
0.0
173
     0
291
     1
 45
0.0
1001
ACAD
1000
AcDbSavedByObjectVersion
1070
     0
  0
VISUALSTYLE
  5
32
102
{ACAD_XDICTIONARY
360
900
102
}
102
{ACAD_REACTORS
330
29
102
}
330
29
100
AcDbVisualStyle
  2

 70
     9
 71
     3
 72
     2
 73
     0
 90
        0
 40
-0.6
 41
-30.0
 62
     5
 63
     7
 74
     2
 91
        2
 64
     7
 65
   257
 75
     1
175
     1
 42
179.0
 92
        8
 66
     7
 43
1.0
 76
     1
 77
     6
 78
     2
 67
     7
 79
     3
170
     0
171
     0
290
     0
174
     0
 93
        1
 44
0.0
173
     0
291
     0
 45
0.0
1001
ACAD
1000
AcDbSavedByObjectVersion
1070
     0
  0
VISUALSTYLE
  5
34
102
{ACAD_XDICTIONARY
360
904
102
}
102
{ACAD_REACTORS
330
29
102
}
330
29
100
AcDbVisualStyle
  2

 70
    11
 71
     2
 72
     2
 73
     0
 90
        0
 40
-0.6
 41
-30.0
 62
     5
 63
     7
 74
     1
 91
        4
 64
     7
 65
   257
 75
     1
175
     1
 42
1.0
 92
        8
 66
     7
 43
1.0
 76
     1
 77
     6
 78
     2
 67
     7
 79
     5
170
     0
171
     0
290
     0
174
     0
 93
        1
 44
-50.0
173
     0
291
     1
 45
0.0
1001
ACAD
1000
AcDbSavedByObjectVersion
1070
     0
  0
VISUALSTYLE
  5
3C
102
{ACAD_XDICTIONARY
360
914
102
}
102
{ACAD_REACTORS
330
29
102
}
330
29
100
AcDbVisualStyle
  2

 70
    22
 71
     2
 72
     2
 73
     0
 90
        0
 40
-0.6
 41
-30.0
 62
     5
 63
     7
 74
     1
 91
        4
 64
     7
 65
   257
 75
     1
175
     1
 42
1.0
 92
        8
 66
     7
 43
1.0
 76
     1
 77
     6
 78
     2
 67
     7
 79
     5
170
     0
171
     0
290
     0
174
     0
 93
        1
 44
0.0
173
     0
291
     1
 45
0.0
1001
ACAD
1000
AcDbSavedByObjectVersion
1070
     0
  0
VISUALSTYLE
  5
38
102
{ACAD_XDICTIONARY
360
90C
102
}
102
{ACAD_REACTORS
330
29
102
}
330
29
100
AcDbVisualStyle
  2

 70
    15
 71
     2
 72
     2
 73
     0
 90
        0
 40
-0.6
 41
-30.0
 62
     5
 63
     7
 74
     1
 91
        4
 64
     7
 65
   257
 75
     1
175
     1
 42
1.0
 92
        8
 66
     7
 43
1.0
 76
     1
 77
     6
 78
     2
 67
     7
 79
     5
170
     0
171
     0
290
     0
174
     0
 93
        1
 44
0.0
173
     0
291
     1
 45
0.0
1001
ACAD
1000
AcDbSavedByObjectVersion
1070
     0
  0
VISUALSTYLE
  5
2A
102
{ACAD_XDICTIONARY
360
8F0
102
}
102
{ACAD_REACTORS
330
29
102
}
330
29
100
AcDbVisualStyle
  2

 70
     0
 71
     2
 72
     1
 73
     1
 90
        2
 40
-0.6
 41
30.0
 62
     5
 63
     7
 74
     0
 91
        4
 64
     7
 65
   257
 75
     1
175
     1
 42
1.0
 92
        8
 66
     7
 43
1.0
 76
     1
 77
     6
 78
     2
 67
     7
 79
     5
170
     0
171
     0
290
     0
174
     0
 93
       13
 44
0.0
173
     0
291
     1
 45
0.0
1001
ACAD
1000
AcDbSavedByObjectVersion
1070
     0
  0
VISUALSTYLE
  5
2B
102
{ACAD_XDICTIONARY
360
8F2
102
}
102
{ACAD_REACTORS
330
29
102
}
330
29
100
AcDbVisualStyle
  2

 70
     1
 71
     2
 72
     1
 73
     1
 90
        2
 40
-0.6
 41
30.0
 62
     5
 63
     7
 74
     1
 91
        4
 64
     7
 65
   257
 75
     1
175
     1
 42
1.0
 92
        0
 66
   257
 43
1.0
 76
     1
 77
     6
 78
     2
 67
     7
 79
     5
170
     0
171
     0
290
     0
174
     0
 93
       13
 44
0.0
173
     0
291
     1
 45
0.0
1001
ACAD
1000
AcDbSavedByObjectVersion
1070
     0
  0
VISUALSTYLE
  5
2C
102
{ACAD_XDICTIONARY
360
8F4
102
}
102
{ACAD_REACTORS
330
29
102
}
330
29
100
AcDbVisualStyle
  2

 70
     2
 71
     2
 72
     2
 73
     1
 90
        2
 40
-0.6
 41
30.0
 62
     5
 63
     7
 74
     0
 91
        4
 64
     7
 65
   257
 75
     1
175
     1
 42
1.0
 92
        0
 66
     7
 43
1.0
 76
     1
 77
     6
 78
     2
 67
     7
 79
     5
170
     0
171
     0
290
     0
174
     0
 93
       13
 44
0.0
173
     0
291
     1
 45
0.0
1001
ACAD
1000
AcDbSavedByObjectVersion
1070
     0
  0
VISUALSTYLE
  5
2D
102
{ACAD_XDICTIONARY
360
8F6
102
}
102
{ACAD_REACTORS
330
29
102
}
330
29
100
AcDbVisualStyle
  2

 70
     3
 71
     2
 72
     2
 73
     1
 90
        2
 40
-0.6
 41
30.0
 62
     5
 63
     7
 74
     1
 91
        4
 64
     7
 65
   257
 75
     1
175
     1
 42
1.0
 92
        0
 66
   257
 43
1.0
 76
     1
 77
     6
 78
     2
 67
     7
 79
     5
170
     0
171
     0
290
     0
174
     0
 93
       13
 44
0.0
173
     0
291
     1
 45
0.0
1001
ACAD
1000
AcDbSavedByObjectVersion
1070
     0
  0
VISUALSTYLE
  5
3A
102
{ACAD_XDICTIONARY
360
910
102
}
102
{ACAD_REACTORS
330
29
102
}
330
29
100
AcDbVisualStyle
  2

 70
    20
 71
     2
 72
     2
 73
     0
 90
        0
 40
-0.6
 41
-30.0
 62
     5
 63
     7
 74
     1
 91
        4
 64
     7
 65
   257
 75
     1
175
     1
 42
1.0
 92
       10
 66
     7
 43
1.0
 76
     1
 77
     6
 78
     2
 67
     7
 79
     5
170
     0
171
     0
290
     0
174
     0
 93
        1
 44
0.0
173
     0
291
     1
 45
0.0
1001
ACAD
1000
AcDbSavedByObjectVersion
1070
     0
  0
VISUALSTYLE
  5
37
102
{ACAD_XDICTIONARY
360
90A
102
}
102
{ACAD_REACTORS
330
29
102
}
330
29
100
AcDbVisualStyle
  2

 70
    14
 71
     2
 72
     2
 73
     0
 90
        0
 40
-0.6
 41
-30.0
 62
     5
 63
     7
 74
     1
 91
        4
 64
     7
 65
   257
 75
     7
175
     7
 42
1.0
 92
        8
 66
     7
 43
1.0
 76
     1
 77
     6
 78
     2
 67
     7
 79
     5
170
     0
171
     0
290
     0
174
     0
 93
        1
 44
0.0
173
     0
291
     1
 45
0.0
1001
ACAD
1000
AcDbSavedByObjectVersion
1070
     0
  0
VISUALSTYLE
  5
3B
102
{ACAD_XDICTIONARY
360
912
102
}
102
{ACAD_REACTORS
330
29
102
}
330
29
100
AcDbVisualStyle
  2

 70
    21
 71
     2
 72
     2
 73
     0
 90
        0
 40
-0.6
 41
-30.0
 62
     5
 63
     7
 74
     1
 91
        4
 64
     7
 65
   257
 75
     1
175
     1
 42
1.0
 92
        9
 66
     7
 43
1.0
 76
     1
 77
     6
 78
     2
 67
     7
 79
     5
170
     0
171
     0
290
     0
174
     0
 93
        1
 44
0.0
173
     0
291
     1
 45
0.0
1001
ACAD
1000
AcDbSavedByObjectVersion
1070
     0
  0
VISUALSTYLE
  5
33
102
{ACAD_XDICTIONARY
360
902
102
}
102
{ACAD_REACTORS
330
29
102
}
330
29
100
AcDbVisualStyle
  2

 70
     8
 71
     2
 72
     2
 73
     0
 90
        0
 40
-0.6
 41
-30.0
 62
     5
 63
     7
 74
     1
 91
        0
 64
     7
 65
   257
 75
     1
175
     1
 42
1.0
 92
        8
 66
     8
 43
1.0
 76
     1
 77
     6
 78
     2
 67
     7
 79
     5
170
     0
171
     0
290
     0
174
     0
 93
       13
 44
0.0
173
     0
291
     0
 45
0.0
1001
ACAD
1000
AcDbSavedByObjectVersion
1070
     0
  0
VISUALSTYLE
  5
36
102
{ACAD_XDICTIONARY
360
908
102
}
102
{ACAD_REACTORS
330
29
102
}
330
29
100
AcDbVisualStyle
  2

 70
    13
 71
     2
 72
     2
 73
     0
 90
        0
 40
-0.6
 41
-30.0
 62
     5
 63
     7
 74
     1
 91
        4
 64
     7
 65
   257
 75
     1
175
     1
 42
1.0
 92
       12
 66
     7
 43
1.0
 76
     1
 77
     6
 78
     2
 67
     7
 79
     5
170
     0
171
     0
290
     0
174
     0
 93
        1
 44
0.0
173
     0
291
     1
 45
0.0
1001
ACAD
1000
AcDbSavedByObjectVersion
1070
     0
  0
DICTIONARYVAR
  5
546
102
{ACAD_REACTORS
330
542
102
}
330
542
100
DictionaryVariables
280
     0
  1
1
  0
DICTIONARYVAR
  5
547
102
{ACAD_REACTORS
330
542
102
}
330
542
100
DictionaryVariables
280
     0
  1
1:1
  0
DICTIONARYVAR
  5
544
102
{ACAD_REACTORS
330
542
102
}
330
542
100
DictionaryVariables
280
     0
  1
STANDARD
  0
DICTIONARYVAR
  5
543
102
{ACAD_REACTORS
330
542
102
}
330
542
100
DictionaryVariables
280
     0
  1
STANDARD
  0
DICTIONARYVAR
  5
616
102
{ACAD_REACTORS
330
542
102
}
330
542
100
DictionaryVariables
280
     0
  1
2
  0
DICTIONARYVAR
  5
614
102
{ACAD_REACTORS
330
542
102
}
330
542
100
DictionaryVariables
280
     0
  1
1
  0
DICTIONARYVAR
  5
613
102
{ACAD_REACTORS
330
542
102
}
330
542
100
DictionaryVariables
280
     0
  1
0
  0
DICTIONARYVAR
  5
549
102
{ACAD_REACTORS
330
542
102
}
330
542
100
DictionaryVariables
280
     0
  1
1
  0
DICTIONARYVAR
  5
54A
102
{ACAD_REACTORS
330
542
102
}
330
542
100
DictionaryVariables
280
     0
  1
15
  0
DICTIONARYVAR
  5
548
102
{ACAD_REACTORS
330
542
102
}
330
542
100
DictionaryVariables
280
     0
  1
0
  0
DICTIONARYVAR
  5
545
102
{ACAD_REACTORS
330
542
102
}
330
542
100
DictionaryVariables
280
     0
  1
0
  0
DICTIONARYVAR
  5
612
102
{ACAD_REACTORS
330
542
102
}
330
542
100
DictionaryVariables
280
     0
  1
127
  0
DICTIONARYVAR
  5
8E7
102
{ACAD_REACTORS
330
542
102
}
330
542
100
DictionaryVariables
280
     0
  1
2
  0
DICTIONARY
  5
5AD
102
{ACAD_REACTORS
330
5A0
102
}
330
5A0
100
AcDbDictionary
281
     1
  0
DICTIONARY
  5
730
102
{ACAD_REACTORS
330
72F
102
}
330
72F
100
AcDbDictionary
281
     1
  0
DICTIONARY
  5
777
102
{ACAD_REACTORS
330
776
102
}
330
776
100
AcDbDictionary
281
     1
  0
DICTIONARY
  5
919
330
6A
100
AcDbDictionary
280
     1
281
     1
  3
ACAD_XREC_ROUNDTRIP
360
91A
  0
DICTIONARY
  5
917
330
66
100
AcDbDictionary
280
     1
281
     1
  3
ACAD_XREC_ROUNDTRIP
360
918
  0
DICTIONARY
  5
91B
330
6E
100
AcDbDictionary
280
     1
281
     1
  3
ACAD_XREC_ROUNDTRIP
360
91C
  0
DICTIONARY
  5
1A
330
19
100
AcDbDictionary
280
     1
281
     1
  3
ACAD_XREC_ROUNDTRIP
360
621
  3
BUMPTILE
360
1C
  3
DIFFUSETILE
360
1B
  3
OPACITYTILE
360
1F
  3
REFLECTIONTILE
360
1E
  3
REFRACTIONTILE
360
20
  3
SPECULARTILE
360
1D
  0
DICTIONARY
  5
12
330
11
100
AcDbDictionary
280
     1
281
     1
  3
ACAD_XREC_ROUNDTRIP
360
620
  3
BUMPTILE
360
14
  3
DIFFUSETILE
360
13
  3
OPACITYTILE
360
17
  3
REFLECTIONTILE
360
16
  3
REFRACTIONTILE
360
18
  3
SPECULARTILE
360
15
  0
DICTIONARY
  5
22
330
21
100
AcDbDictionary
280
     1
281
     1
  3
ACAD_XREC_ROUNDTRIP
360
622
  3
BUMPTILE
360
24
  3
DIFFUSETILE
360
23
  3
OPACITYTILE
360
27
  3
REFLECTIONTILE
360
26
  3
REFRACTIONTILE
360
28
  3
SPECULARTILE
360
25
  0
DICTIONARY
  5
617
330
60
100
AcDbDictionary
280
     1
281
     1
  3
ACAD_ROUNDTRIP_2008_TABLESTYLE_CELLSTYLEMAP
360
8E8
  3
ACAD_XREC_ROUNDTRIP
360
916
  0
DICTIONARY
  5
8FA
330
2F
100
AcDbDictionary
280
     1
281
     1
  3
ACAD_XREC_ROUNDTRIP
360
8FB
  0
DICTIONARY
  5
8FE
330
31
100
AcDbDictionary
280
     1
281
     1
  3
ACAD_XREC_ROUNDTRIP
360
8FF
  0
DICTIONARY
  5
8FC
330
30
100
AcDbDictionary
280
     1
281
     1
  3
ACAD_XREC_ROUNDTRIP
360
8FD
  0
DICTIONARY
  5
8F8
330
2E
100
AcDbDictionary
280
     1
281
     1
  3
ACAD_XREC_ROUNDTRIP
360
8F9
  0
DICTIONARY
  5
906
330
35
100
AcDbDictionary
280
     1
281
     1
  3
ACAD_XREC_ROUNDTRIP
360
907
  0
DICTIONARY
  5
90E
330
39
100
AcDbDictionary
280
     1
281
     1
  3
ACAD_XREC_ROUNDTRIP
360
90F
  0
DICTIONARY
  5
900
330
32
100
AcDbDictionary
280
     1
281
     1
  3
ACAD_XREC_ROUNDTRIP
360
901
  0
DICTIONARY
  5
904
330
34
100
AcDbDictionary
280
     1
281
     1
  3
ACAD_XREC_ROUNDTRIP
360
905
  0
DICTIONARY
  5
914
330
3C
100
AcDbDictionary
280
     1
281
     1
  3
ACAD_XREC_ROUNDTRIP
360
915
  0
DICTIONARY
  5
90C
330
38
100
AcDbDictionary
280
     1
281
     1
  3
ACAD_XREC_ROUNDTRIP
360
90D
  0
DICTIONARY
  5
8F0
330
2A
100
AcDbDictionary
280
     1
281
     1
  3
ACAD_XREC_ROUNDTRIP
360
8F1
  0
DICTIONARY
  5
8F2
330
2B
100
AcDbDictionary
280
     1
281
     1
  3
ACAD_XREC_ROUNDTRIP
360
8F3
  0
DICTIONARY
  5
8F4
330
2C
100
AcDbDictionary
280
     1
281
     1
  3
ACAD_XREC_ROUNDTRIP
360
8F5
  0
DICTIONARY
  5
8F6
330
2D
100
AcDbDictionary
280
     1
281
     1
  3
ACAD_XREC_ROUNDTRIP
360
8F7
  0
DICTIONARY
  5
910
330
3A
100
AcDbDictionary
280
     1
281
     1
  3
ACAD_XREC_ROUNDTRIP
360
911
  0
DICTIONARY
  5
90A
330
37
100
AcDbDictionary
280
     1
281
     1
  3
ACAD_XREC_ROUNDTRIP
360
90B
  0
DICTIONARY
  5
912
330
3B
100
AcDbDictionary
280
     1
281
     1
  3
ACAD_XREC_ROUNDTRIP
360
913
  0
DICTIONARY
  5
902
330
33
100
AcDbDictionary
280
     1
281
     1
  3
ACAD_XREC_ROUNDTRIP
360
903
  0
DICTIONARY
  5
908
330
36
100
AcDbDictionary
280
     1
281
     1
  3
ACAD_XREC_ROUNDTRIP
360
909
  0
XRECORD
  5
91A
102
{ACAD_REACTORS
330
919
102
}
330
919
100
AcDbXrecord
280
     1
102
SHADEPLOT
 70
     0
102
SHADEPLOTRESLEVEL
 70
     2
102
SHADEPLOTCUSTOMDPI
 70
   300
  0
XRECORD
  5
918
102
{ACAD_REACTORS
330
917
102
}
330
917
100
AcDbXrecord
280
     1
102
SHADEPLOT
 70
     0
102
SHADEPLOTRESLEVEL
 70
     2
102
SHADEPLOTCUSTOMDPI
 70
   300
  0
XRECORD
  5
91C
102
{ACAD_REACTORS
330
91B
102
}
330
91B
100
AcDbXrecord
280
     1
102
SHADEPLOT
 70
     0
102
SHADEPLOTRESLEVEL
 70
     2
102
SHADEPLOTCUSTOMDPI
 70
   300
  0
XRECORD
  5
621
102
{ACAD_REACTORS
330
1A
102
}
330
1A
100
AcDbXrecord
280
     1
102
MATERIAL
148
0.0
149
0.0
149
0.0
 93
        0
 94
      127
282
     0
 72
     0
 77
     0
171
     0
175
     0
179
     0
273
     0
  0
XRECORD
  5
1C
102
{ACAD_REACTORS
330
1A
102
}
330
1A
100
AcDbXrecord
280
     1
270
     1
271
     1
  0
XRECORD
  5
1B
102
{ACAD_REACTORS
330
1A
102
}
330
1A
100
AcDbXrecord
280
     1
270
     1
271
     1
  0
XRECORD
  5
1F
102
{ACAD_REACTORS
330
1A
102
}
330
1A
100
AcDbXrecord
280
     1
270
     1
271
     1
  0
XRECORD
  5
1E
102
{ACAD_REACTORS
330
1A
102
}
330
1A
100
AcDbXrecord
280
     1
270
     1
271
     1
  0
XRECORD
  5
20
102
{ACAD_REACTORS
330
1A
102
}
330
1A
100
AcDbXrecord
280
     1
270
     1
271
     1
  0
XRECORD
  5
1D
102
{ACAD_REACTORS
330
1A
102
}
330
1A
100
AcDbXrecord
280
     1
270
     1
271
     1
  0
XRECORD
  5
620
102
{ACAD_REACTORS
330
12
102
}
330
12
100
AcDbXrecord
280
     1
102
MATERIAL
148
0.0
149
0.0
149
0.0
 93
        0
 94
      127
282
     0
 72
     0
 77
     0
171
     0
175
     0
179
     0
273
     0
  0
XRECORD
  5
14
102
{ACAD_REACTORS
330
12
102
}
330
12
100
AcDbXrecord
280
     1
270
     1
271
     1
  0
XRECORD
  5
13
102
{ACAD_REACTORS
330
12
102
}
330
12
100
AcDbXrecord
280
     1
270
     1
271
     1
  0
XRECORD
  5
17
102
{ACAD_REACTORS
330
12
102
}
330
12
100
AcDbXrecord
280
     1
270
     1
271
     1
  0
XRECORD
  5
16
102
{ACAD_REACTORS
330
12
102
}
330
12
100
AcDbXrecord
280
     1
270
     1
271
     1
  0
XRECORD
  5
18
102
{ACAD_REACTORS
330
12
102
}
330
12
100
AcDbXrecord
280
     1
270
     1
271
     1
  0
XRECORD
  5
15
102
{ACAD_REACTORS
330
12
102
}
330
12
100
AcDbXrecord
280
     1
270
     1
271
     1
  0
XRECORD
  5
622
102
{ACAD_REACTORS
330
22
102
}
330
22
100
AcDbXrecord
280
     1
102
MATERIAL
148
0.0
149
0.0
149
0.0
 93
        0
 94
      127
282
     0
 72
     0
 77
     0
171
     0
175
     0
179
     0
273
     0
  0
XRECORD
  5
24
102
{ACAD_REACTORS
330
22
102
}
330
22
100
AcDbXrecord
280
     1
270
     1
271
     1
  0
XRECORD
  5
23
102
{ACAD_REACTORS
330
22
102
}
330
22
100
AcDbXrecord
280
     1
270
     1
271
     1
  0
XRECORD
  5
27
102
{ACAD_REACTORS
330
22
102
}
330
22
100
AcDbXrecord
280
     1
270
     1
271
     1
  0
XRECORD
  5
26
102
{ACAD_REACTORS
330
22
102
}
330
22
100
AcDbXrecord
280
     1
270
     1
271
     1
  0
XRECORD
  5
28
102
{ACAD_REACTORS
330
22
102
}
330
22
100
AcDbXrecord
280
     1
270
     1
271
     1
  0
XRECORD
  5
25
102
{ACAD_REACTORS
330
22
102
}
330
22
100
AcDbXrecord
280
     1
270
     1
271
     1
  0
CELLSTYLEMAP
  5
8E8
102
{ACAD_REACTORS
330
617
102
}
330
617
100
AcDbCellStyleMap
 90
        3
300
CELLSTYLE
  1
TABLEFORMAT_BEGIN
 90
        5
170
     1
 91
        0
 92
    32768
 62
   257
 93
        1
300
CONTENTFORMAT
  1
CONTENTFORMAT_BEGIN
 90
        0
 91
        0
 92
      512
 93
        0
300

 40
0.0
140
1.0
 94
        5
 62
     0
340
50
144
6.0
309
CONTENTFORMAT_END
171
     1
301
MARGIN
  1
CELLMARGIN_BEGIN
 40
1.5
 40
1.5
 40
1.5
 40
1.5
 40
0.18
 40
0.18
309
CELLMARGIN_END
 94
        6
 95
        1
302
GRIDFORMAT
  1
GRIDFORMAT_BEGIN
 90
        0
 91
        1
 62
     0
 92
       -2
340
0
 93
        0
 40
0.045
309
GRIDFORMAT_END
 95
        2
302
GRIDFORMAT
  1
GRIDFORMAT_BEGIN
 90
        0
 91
        1
 62
     0
 92
       -2
340
0
 93
        0
 40
0.045
309
GRIDFORMAT_END
 95
        4
302
GRIDFORMAT
  1
GRIDFORMAT_BEGIN
 90
        0
 91
        1
 62
     0
 92
       -2
340
0
 93
        0
 40
0.045
309
GRIDFORMAT_END
 95
        8
302
GRIDFORMAT
  1
GRIDFORMAT_BEGIN
 90
        0
 91
        1
 62
     0
 92
       -2
340
0
 93
        0
 40
0.045
309
GRIDFORMAT_END
 95
       16
302
GRIDFORMAT
  1
GRIDFORMAT_BEGIN
 90
        0
 91
        1
 62
     0
 92
       -2
340
0
 93
        0
 40
0.045
309
GRIDFORMAT_END
 95
       32
302
GRIDFORMAT
  1
GRIDFORMAT_BEGIN
 90
        0
 91
        1
 62
     0
 92
       -2
340
0
 93
        0
 40
0.045
309
GRIDFORMAT_END
309
TABLEFORMAT_END
  1
CELLSTYLE_BEGIN
 90
        1
 91
        1
300
_TITLE
309
CELLSTYLE_END
300
CELLSTYLE
  1
TABLEFORMAT_BEGIN
 90
        5
170
     1
 91
        0
 92
        0
 62
   257
 93
        1
300
CONTENTFORMAT
  1
CONTENTFORMAT_BEGIN
 90
        0
 91
        0
 92
      512
 93
        0
300

 40
0.0
140
1.0
 94
        5
 62
     0
340
50
144
4.5
309
CONTENTFORMAT_END
171
     1
301
MARGIN
  1
CELLMARGIN_BEGIN
 40
1.5
 40
1.5
 40
1.5
 40
1.5
 40
0.18
 40
0.18
309
CELLMARGIN_END
 94
        6
 95
        1
302
GRIDFORMAT
  1
GRIDFORMAT_BEGIN
 90
        0
 91
        1
 62
     0
 92
       -2
340
0
 93
        0
 40
0.045
309
GRIDFORMAT_END
 95
        2
302
GRIDFORMAT
  1
GRIDFORMAT_BEGIN
 90
        0
 91
        1
 62
     0
 92
       -2
340
0
 93
        0
 40
0.045
309
GRIDFORMAT_END
 95
        4
302
GRIDFORMAT
  1
GRIDFORMAT_BEGIN
 90
        0
 91
        1
 62
     0
 92
       -2
340
0
 93
        0
 40
0.045
309
GRIDFORMAT_END
 95
        8
302
GRIDFORMAT
  1
GRIDFORMAT_BEGIN
 90
        0
 91
        1
 62
     0
 92
       -2
340
0
 93
        0
 40
0.045
309
GRIDFORMAT_END
 95
       16
302
GRIDFORMAT
  1
GRIDFORMAT_BEGIN
 90
        0
 91
        1
 62
     0
 92
       -2
340
0
 93
        0
 40
0.045
309
GRIDFORMAT_END
 95
       32
302
GRIDFORMAT
  1
GRIDFORMAT_BEGIN
 90
        0
 91
        1
 62
     0
 92
       -2
340
0
 93
        0
 40
0.045
309
GRIDFORMAT_END
309
TABLEFORMAT_END
  1
CELLSTYLE_BEGIN
 90
        2
 91
        1
300
_HEADER
309
CELLSTYLE_END
300
CELLSTYLE
  1
TABLEFORMAT_BEGIN
 90
        5
170
     1
 91
        0
 92
        0
 62
   257
 93
        1
300
CONTENTFORMAT
  1
CONTENTFORMAT_BEGIN
 90
        0
 91
        0
 92
      512
 93
        0
300

 40
0.0
140
1.0
 94
        2
 62
     0
340
50
144
4.5
309
CONTENTFORMAT_END
171
     1
301
MARGIN
  1
CELLMARGIN_BEGIN
 40
1.5
 40
1.5
 40
1.5
 40
1.5
 40
0.18
 40
0.18
309
CELLMARGIN_END
 94
        6
 95
        1
302
GRIDFORMAT
  1
GRIDFORMAT_BEGIN
 90
        0
 91
        1
 62
     0
 92
       -2
340
0
 93
        0
 40
0.045
309
GRIDFORMAT_END
 95
        2
302
GRIDFORMAT
  1
GRIDFORMAT_BEGIN
 90
        0
 91
        1
 62
     0
 92
       -2
340
0
 93
        0
 40
0.045
309
GRIDFORMAT_END
 95
        4
302
GRIDFORMAT
  1
GRIDFORMAT_BEGIN
 90
        0
 91
        1
 62
     0
 92
       -2
340
0
 93
        0
 40
0.045
309
GRIDFORMAT_END
 95
        8
302
GRIDFORMAT
  1
GRIDFORMAT_BEGIN
 90
        0
 91
        1
 62
     0
 92
       -2
340
0
 93
        0
 40
0.045
309
GRIDFORMAT_END
 95
       16
302
GRIDFORMAT
  1
GRIDFORMAT_BEGIN
 90
        0
 91
        1
 62
     0
 92
       -2
340
0
 93
        0
 40
0.045
309
GRIDFORMAT_END
 95
       32
302
GRIDFORMAT
  1
GRIDFORMAT_BEGIN
 90
        0
 91
        1
 62
     0
 92
       -2
340
0
 93
        0
 40
0.045
309
GRIDFORMAT_END
309
TABLEFORMAT_END
  1
CELLSTYLE_BEGIN
 90
        3
 91
        2
300
_DATA
309
CELLSTYLE_END
  0
XRECORD
  5
916
102
{ACAD_REACTORS
330
617
102
}
330
617
100
AcDbXrecord
280
     1
102
ACAD_ROUNDTRIP_PRE2007_TABLESTYLE
 90
      512
 91
        0
  1

 92
      512
 93
        0
  2

 94
      512
 95
        0
  3

  0
XRECORD
  5
8FB
102
{ACAD_REACTORS
330
8FA
102
}
330
8FA
100
AcDbXrecord
280
     1
102
RTVSPropertyOp0
 70
     1
102
RTVSPropertyOp1
 70
     1
102
RTVSPropertyOp2
 70
     1
102
RTVSPropertyOp3
 70
     1
102
RTVSPropertyOp4
 70
     1
102
RTVSPropertyOp5
 70
     1
102
RTVSPropertyOp6
 70
     1
102
RTVSPropertyOp7
 70
     1
102
RTVSPropertyOp8
 70
     1
102
RTVSPropertyOp9
 70
     1
102
RTVSPropertyOp10
 70
     1
102
RTVSPropertyOp11
 70
     1
102
RTVSPropertyOp12
 70
     1
102
RTVSPropertyOp13
 70
     1
102
RTVSPropertyOp14
 70
     1
102
RTVSPropertyOp15
 70
     1
102
RTVSPropertyOp16
 70
     1
102
RTVSPropertyOp17
 70
     1
102
RTVSPropertyOp18
 70
     1
102
RTVSPropertyOp19
 70
     1
102
RTVSPropertyOp20
 70
     1
102
RTVSPropertyOp21
 70
     1
102
RTVSPropertyOp22
 70
     1
102
RTVSPropertyOp23
 70
     1
102
RTVSPropertyOp24
 70
     1
102
RTVSPropertyOp25
 70
     1
102
RTVSPropertyOp26
 70
     1
102
RTVSPropertyOp27
 70
     1
  0
XRECORD
  5
8FF
102
{ACAD_REACTORS
330
8FE
102
}
330
8FE
100
AcDbXrecord
280
     1
102
RTVSPropertyOp0
 70
     1
102
RTVSPropertyOp1
 70
     1
102
RTVSPropertyOp2
 70
     1
102
RTVSPropertyOp3
 70
     1
102
RTVSPropertyOp4
 70
     1
102
RTVSPropertyOp5
 70
     1
102
RTVSPropertyOp6
 70
     1
102
RTVSPropertyOp7
 70
     1
102
RTVSPropertyOp8
 70
     1
102
RTVSPropertyOp9
 70
     1
102
RTVSPropertyOp10
 70
     1
102
RTVSPropertyOp11
 70
     1
102
RTVSPropertyOp12
 70
     1
102
RTVSPropertyOp13
 70
     1
102
RTVSPropertyOp14
 70
     1
102
RTVSPropertyOp15
 70
     1
102
RTVSPropertyOp16
 70
     1
102
RTVSPropertyOp17
 70
     1
102
RTVSPropertyOp18
 70
     1
102
RTVSPropertyOp19
 70
     1
102
RTVSPropertyOp20
 70
     1
102
RTVSPropertyOp21
 70
     1
102
RTVSPropertyOp22
 70
     1
102
RTVSPropertyOp23
 70
     1
102
RTVSPropertyOp24
 70
     1
102
RTVSPropertyOp25
 70
     1
102
RTVSPropertyOp26
 70
     1
102
RTVSPropertyOp27
 70
     1
  0
XRECORD
  5
8FD
102
{ACAD_REACTORS
330
8FC
102
}
330
8FC
100
AcDbXrecord
280
     1
102
RTVSPropertyOp0
 70
     1
102
RTVSPropertyOp1
 70
     1
102
RTVSPropertyOp2
 70
     1
102
RTVSPropertyOp3
 70
     1
102
RTVSPropertyOp4
 70
     1
102
RTVSPropertyOp5
 70
     1
102
RTVSPropertyOp6
 70
     1
102
RTVSPropertyOp7
 70
     1
102
RTVSPropertyOp8
 70
     1
102
RTVSPropertyOp9
 70
     1
102
RTVSPropertyOp10
 70
     1
102
RTVSPropertyOp11
 70
     1
102
RTVSPropertyOp12
 70
     1
102
RTVSPropertyOp13
 70
     1
102
RTVSPropertyOp14
 70
     1
102
RTVSPropertyOp15
 70
     1
102
RTVSPropertyOp16
 70
     1
102
RTVSPropertyOp17
 70
     1
102
RTVSPropertyOp18
 70
     1
102
RTVSPropertyOp19
 70
     1
102
RTVSPropertyOp20
 70
     1
102
RTVSPropertyOp21
 70
     1
102
RTVSPropertyOp22
 70
     1
102
RTVSPropertyOp23
 70
     1
102
RTVSPropertyOp24
 70
     1
102
RTVSPropertyOp25
 70
     1
102
RTVSPropertyOp26
 70
     1
102
RTVSPropertyOp27
 70
     1
  0
XRECORD
  5
8F9
102
{ACAD_REACTORS
330
8F8
102
}
330
8F8
100
AcDbXrecord
280
     1
102
RTVSPropertyOp0
 70
     1
102
RTVSPropertyOp1
 70
     1
102
RTVSPropertyOp2
 70
     1
102
RTVSPropertyOp3
 70
     1
102
RTVSPropertyOp4
 70
     1
102
RTVSPropertyOp5
 70
     1
102
RTVSPropertyOp6
 70
     1
102
RTVSPropertyOp7
 70
     1
102
RTVSPropertyOp8
 70
     1
102
RTVSPropertyOp9
 70
     1
102
RTVSPropertyOp10
 70
     1
102
RTVSPropertyOp11
 70
     1
102
RTVSPropertyOp12
 70
     1
102
RTVSPropertyOp13
 70
     1
102
RTVSPropertyOp14
 70
     1
102
RTVSPropertyOp15
 70
     1
102
RTVSPropertyOp16
 70
     1
102
RTVSPropertyOp17
 70
     1
102
RTVSPropertyOp18
 70
     1
102
RTVSPropertyOp19
 70
     1
102
RTVSPropertyOp20
 70
     1
102
RTVSPropertyOp21
 70
     1
102
RTVSPropertyOp22
 70
     1
102
RTVSPropertyOp23
 70
     1
102
RTVSPropertyOp24
 70
     1
102
RTVSPropertyOp25
 70
     1
102
RTVSPropertyOp26
 70
     1
102
RTVSPropertyOp27
 70
     1
  0
XRECORD
  5
907
102
{ACAD_REACTORS
330
906
102
}
330
906
100
AcDbXrecord
280
     1
102
RTVSPropertyOp0
 70
     1
102
RTVSPropertyOp1
 70
     1
102
RTVSPropertyOp2
 70
     1
102
RTVSPropertyOp3
 70
     1
102
RTVSPropertyOp4
 70
     1
102
RTVSPropertyOp5
 70
     1
102
RTVSPropertyOp6
 70
     1
102
RTVSPropertyOp7
 70
     1
102
RTVSPropertyOp8
 70
     1
102
RTVSPropertyOp9
 70
     1
102
RTVSPropertyOp10
 70
     1
102
RTVSPropertyOp11
 70
     1
102
RTVSPropertyOp12
 70
     1
102
RTVSPropertyOp13
 70
     1
102
RTVSPropertyOp14
 70
     1
102
RTVSPropertyOp15
 70
     1
102
RTVSPropertyOp16
 70
     1
102
RTVSPropertyOp17
 70
     1
102
RTVSPropertyOp18
 70
     1
102
RTVSPropertyOp19
 70
     1
102
RTVSPropertyOp20
 70
     1
102
RTVSPropertyOp21
 70
     1
102
RTVSPropertyOp22
 70
     1
102
RTVSPropertyOp23
 70
     1
102
RTVSPropertyOp24
 70
     1
102
RTVSPropertyOp25
 70
     1
102
RTVSPropertyOp26
 70
     1
102
RTVSPropertyOp27
 70
     1
  0
XRECORD
  5
90F
102
{ACAD_REACTORS
330
90E
102
}
330
90E
100
AcDbXrecord
280
     1
102
RTVSPropertyOp0
 70
     1
102
RTVSPropertyOp1
 70
     1
102
RTVSPropertyOp2
 70
     1
102
RTVSPropertyOp3
 70
     1
102
RTVSPropertyOp4
 70
     1
102
RTVSPropertyOp5
 70
     1
102
RTVSPropertyOp6
 70
     1
102
RTVSPropertyOp7
 70
     1
102
RTVSPropertyOp8
 70
     1
102
RTVSPropertyOp9
 70
     1
102
RTVSPropertyOp10
 70
     1
102
RTVSPropertyOp11
 70
     1
102
RTVSPropertyOp12
 70
     1
102
RTVSPropertyOp13
 70
     1
102
RTVSPropertyOp14
 70
     1
102
RTVSPropertyOp15
 70
     1
102
RTVSPropertyOp16
 70
     1
102
RTVSPropertyOp17
 70
     1
102
RTVSPropertyOp18
 70
     1
102
RTVSPropertyOp19
 70
     1
102
RTVSPropertyOp20
 70
     1
102
RTVSPropertyOp21
 70
     1
102
RTVSPropertyOp22
 70
     1
102
RTVSPropertyOp23
 70
     1
102
RTVSPropertyOp24
 70
     1
102
RTVSPropertyOp25
 70
     1
102
RTVSPropertyOp26
 70
     1
102
RTVSPropertyOp27
 70
     1
  0
XRECORD
  5
901
102
{ACAD_REACTORS
330
900
102
}
330
900
100
AcDbXrecord
280
     1
102
RTVSPropertyOp0
 70
     1
102
RTVSPropertyOp1
 70
     1
102
RTVSPropertyOp2
 70
     1
102
RTVSPropertyOp3
 70
     1
102
RTVSPropertyOp4
 70
     1
102
RTVSPropertyOp5
 70
     1
102
RTVSPropertyOp6
 70
     1
102
RTVSPropertyOp7
 70
     1
102
RTVSPropertyOp8
 70
     1
102
RTVSPropertyOp9
 70
     1
102
RTVSPropertyOp10
 70
     1
102
RTVSPropertyOp11
 70
     1
102
RTVSPropertyOp12
 70
     1
102
RTVSPropertyOp13
 70
     1
102
RTVSPropertyOp14
 70
     1
102
RTVSPropertyOp15
 70
     1
102
RTVSPropertyOp16
 70
     1
102
RTVSPropertyOp17
 70
     1
102
RTVSPropertyOp18
 70
     1
102
RTVSPropertyOp19
 70
     1
102
RTVSPropertyOp20
 70
     1
102
RTVSPropertyOp21
 70
     1
102
RTVSPropertyOp22
 70
     1
102
RTVSPropertyOp23
 70
     1
102
RTVSPropertyOp24
 70
     1
102
RTVSPropertyOp25
 70
     1
102
RTVSPropertyOp26
 70
     1
102
RTVSPropertyOp27
 70
     1
  0
XRECORD
  5
905
102
{ACAD_REACTORS
330
904
102
}
330
904
100
AcDbXrecord
280
     1
102
RTVSPropertyOp0
 70
     1
102
RTVSPropertyOp1
 70
     1
102
RTVSPropertyOp2
 70
     1
102
RTVSPropertyOp3
 70
     1
102
RTVSPropertyOp4
 70
     1
102
RTVSPropertyOp5
 70
     1
102
RTVSPropertyOp6
 70
     1
102
RTVSPropertyOp7
 70
     1
102
RTVSPropertyOp8
 70
     1
102
RTVSPropertyOp9
 70
     1
102
RTVSPropertyOp10
 70
     1
102
RTVSPropertyOp11
 70
     1
102
RTVSPropertyOp12
 70
     1
102
RTVSPropertyOp13
 70
     1
102
RTVSPropertyOp14
 70
     1
102
RTVSPropertyOp15
 70
     1
102
RTVSPropertyOp16
 70
     1
102
RTVSPropertyOp17
 70
     1
102
RTVSPropertyOp18
 70
     1
102
RTVSPropertyOp19
 70
     1
102
RTVSPropertyOp20
 70
     1
102
RTVSPropertyOp21
 70
     1
102
RTVSPropertyOp22
 70
     1
102
RTVSPropertyOp23
 70
     1
102
RTVSPropertyOp24
 70
     1
102
RTVSPropertyOp25
 70
     1
102
RTVSPropertyOp26
 70
     1
102
RTVSPropertyOp27
 70
     1
  0
XRECORD
  5
915
102
{ACAD_REACTORS
330
914
102
}
330
914
100
AcDbXrecord
280
     1
102
RTVSPropertyOp0
 70
     0
102
RTVSPropertyOp1
 70
     0
102
RTVSPropertyOp2
 70
     0
102
RTVSPropertyOp3
 70
     0
102
RTVSPropertyOp4
 70
     0
102
RTVSPropertyOp5
 70
     0
102
RTVSPropertyOp6
 70
     0
102
RTVSPropertyOp7
 70
     0
102
RTVSPropertyOp8
 70
     0
102
RTVSPropertyOp9
 70
     0
102
RTVSPropertyOp10
 70
     0
102
RTVSPropertyOp11
 70
     0
102
RTVSPropertyOp12
 70
     0
102
RTVSPropertyOp13
 70
     0
102
RTVSPropertyOp14
 70
     2
102
RTVSPropertyOp15
 70
     0
102
RTVSPropertyOp16
 70
     0
102
RTVSPropertyOp17
 70
     0
102
RTVSPropertyOp18
 70
     0
102
RTVSPropertyOp19
 70
     0
102
RTVSPropertyOp20
 70
     0
102
RTVSPropertyOp21
 70
     0
102
RTVSPropertyOp22
 70
     0
102
RTVSPropertyOp23
 70
     0
102
RTVSPropertyOp24
 70
     0
102
RTVSPropertyOp25
 70
     0
102
RTVSPropertyOp26
 70
     0
102
RTVSPropertyOp27
 70
     0
  0
XRECORD
  5
90D
102
{ACAD_REACTORS
330
90C
102
}
330
90C
100
AcDbXrecord
280
     1
102
RTVSPropertyOp0
 70
     1
102
RTVSPropertyOp1
 70
     1
102
RTVSPropertyOp2
 70
     1
102
RTVSPropertyOp3
 70
     1
102
RTVSPropertyOp4
 70
     1
102
RTVSPropertyOp5
 70
     1
102
RTVSPropertyOp6
 70
     1
102
RTVSPropertyOp7
 70
     1
102
RTVSPropertyOp8
 70
     1
102
RTVSPropertyOp9
 70
     1
102
RTVSPropertyOp10
 70
     1
102
RTVSPropertyOp11
 70
     1
102
RTVSPropertyOp12
 70
     1
102
RTVSPropertyOp13
 70
     1
102
RTVSPropertyOp14
 70
     1
102
RTVSPropertyOp15
 70
     1
102
RTVSPropertyOp16
 70
     1
102
RTVSPropertyOp17
 70
     1
102
RTVSPropertyOp18
 70
     1
102
RTVSPropertyOp19
 70
     1
102
RTVSPropertyOp20
 70
     1
102
RTVSPropertyOp21
 70
     1
102
RTVSPropertyOp22
 70
     1
102
RTVSPropertyOp23
 70
     1
102
RTVSPropertyOp24
 70
     1
102
RTVSPropertyOp25
 70
     1
102
RTVSPropertyOp26
 70
     1
102
RTVSPropertyOp27
 70
     1
  0
XRECORD
  5
8F1
102
{ACAD_REACTORS
330
8F0
102
}
330
8F0
100
AcDbXrecord
280
     1
102
RTVSPropertyOp0
 70
     1
102
RTVSPropertyOp1
 70
     1
102
RTVSPropertyOp2
 70
     1
102
RTVSPropertyOp3
 70
     1
102
RTVSPropertyOp4
 70
     1
102
RTVSPropertyOp5
 70
     1
102
RTVSPropertyOp6
 70
     1
102
RTVSPropertyOp7
 70
     1
102
RTVSPropertyOp8
 70
     1
102
RTVSPropertyOp9
 70
     1
102
RTVSPropertyOp10
 70
     1
102
RTVSPropertyOp11
 70
     1
102
RTVSPropertyOp12
 70
     1
102
RTVSPropertyOp13
 70
     1
102
RTVSPropertyOp14
 70
     1
102
RTVSPropertyOp15
 70
     1
102
RTVSPropertyOp16
 70
     1
102
RTVSPropertyOp17
 70
     1
102
RTVSPropertyOp18
 70
     1
102
RTVSPropertyOp19
 70
     1
102
RTVSPropertyOp20
 70
     1
102
RTVSPropertyOp21
 70
     1
102
RTVSPropertyOp22
 70
     1
102
RTVSPropertyOp23
 70
     1
102
RTVSPropertyOp24
 70
     1
102
RTVSPropertyOp25
 70
     1
102
RTVSPropertyOp26
 70
     1
102
RTVSPropertyOp27
 70
     1
  0
XRECORD
  5
8F3
102
{ACAD_REACTORS
330
8F2
102
}
330
8F2
100
AcDbXrecord
280
     1
102
RTVSPropertyOp0
 70
     1
102
RTVSPropertyOp1
 70
     1
102
RTVSPropertyOp2
 70
     1
102
RTVSPropertyOp3
 70
     1
102
RTVSPropertyOp4
 70
     1
102
RTVSPropertyOp5
 70
     1
102
RTVSPropertyOp6
 70
     1
102
RTVSPropertyOp7
 70
     1
102
RTVSPropertyOp8
 70
     1
102
RTVSPropertyOp9
 70
     1
102
RTVSPropertyOp10
 70
     1
102
RTVSPropertyOp11
 70
     1
102
RTVSPropertyOp12
 70
     1
102
RTVSPropertyOp13
 70
     1
102
RTVSPropertyOp14
 70
     1
102
RTVSPropertyOp15
 70
     1
102
RTVSPropertyOp16
 70
     1
102
RTVSPropertyOp17
 70
     1
102
RTVSPropertyOp18
 70
     1
102
RTVSPropertyOp19
 70
     1
102
RTVSPropertyOp20
 70
     1
102
RTVSPropertyOp21
 70
     1
102
RTVSPropertyOp22
 70
     1
102
RTVSPropertyOp23
 70
     1
102
RTVSPropertyOp24
 70
     1
102
RTVSPropertyOp25
 70
     1
102
RTVSPropertyOp26
 70
     1
102
RTVSPropertyOp27
 70
     1
  0
XRECORD
  5
8F5
102
{ACAD_REACTORS
330
8F4
102
}
330
8F4
100
AcDbXrecord
280
     1
102
RTVSPropertyOp0
 70
     1
102
RTVSPropertyOp1
 70
     1
102
RTVSPropertyOp2
 70
     1
102
RTVSPropertyOp3
 70
     1
102
RTVSPropertyOp4
 70
     1
102
RTVSPropertyOp5
 70
     1
102
RTVSPropertyOp6
 70
     1
102
RTVSPropertyOp7
 70
     1
102
RTVSPropertyOp8
 70
     1
102
RTVSPropertyOp9
 70
     1
102
RTVSPropertyOp10
 70
     1
102
RTVSPropertyOp11
 70
     1
102
RTVSPropertyOp12
 70
     1
102
RTVSPropertyOp13
 70
     1
102
RTVSPropertyOp14
 70
     1
102
RTVSPropertyOp15
 70
     1
102
RTVSPropertyOp16
 70
     1
102
RTVSPropertyOp17
 70
     1
102
RTVSPropertyOp18
 70
     1
102
RTVSPropertyOp19
 70
     1
102
RTVSPropertyOp20
 70
     1
102
RTVSPropertyOp21
 70
     1
102
RTVSPropertyOp22
 70
     1
102
RTVSPropertyOp23
 70
     1
102
RTVSPropertyOp24
 70
     1
102
RTVSPropertyOp25
 70
     1
102
RTVSPropertyOp26
 70
     1
102
RTVSPropertyOp27
 70
     1
  0
XRECORD
  5
8F7
102
{ACAD_REACTORS
330
8F6
102
}
330
8F6
100
AcDbXrecord
280
     1
102
RTVSPropertyOp0
 70
     1
102
RTVSPropertyOp1
 70
     1
102
RTVSPropertyOp2
 70
     1
102
RTVSPropertyOp3
 70
     1
102
RTVSPropertyOp4
 70
     1
102
RTVSPropertyOp5
 70
     1
102
RTVSPropertyOp6
 70
     1
102
RTVSPropertyOp7
 70
     1
102
RTVSPropertyOp8
 70
     1
102
RTVSPropertyOp9
 70
     1
102
RTVSPropertyOp10
 70
     1
102
RTVSPropertyOp11
 70
     1
102
RTVSPropertyOp12
 70
     1
102
RTVSPropertyOp13
 70
     1
102
RTVSPropertyOp14
 70
     1
102
RTVSPropertyOp15
 70
     1
102
RTVSPropertyOp16
 70
     1
102
RTVSPropertyOp17
 70
     1
102
RTVSPropertyOp18
 70
     1
102
RTVSPropertyOp19
 70
     1
102
RTVSPropertyOp20
 70
     1
102
RTVSPropertyOp21
 70
     1
102
RTVSPropertyOp22
 70
     1
102
RTVSPropertyOp23
 70
     1
102
RTVSPropertyOp24
 70
     1
102
RTVSPropertyOp25
 70
     1
102
RTVSPropertyOp26
 70
     1
102
RTVSPropertyOp27
 70
     1
  0
XRECORD
  5
911
102
{ACAD_REACTORS
330
910
102
}
330
910
100
AcDbXrecord
280
     1
102
RTVSPropertyOp0
 70
     0
102
RTVSPropertyOp1
 70
     0
102
RTVSPropertyOp2
 70
     0
102
RTVSPropertyOp3
 70
     0
102
RTVSPropertyOp4
 70
     0
102
RTVSPropertyOp5
 70
     0
102
RTVSPropertyOp6
 70
     0
102
RTVSPropertyOp7
 70
     0
102
RTVSPropertyOp8
 70
     0
102
RTVSPropertyOp9
 70
     0
102
RTVSPropertyOp10
 70
     0
102
RTVSPropertyOp11
 70
     0
102
RTVSPropertyOp12
 70
     0
102
RTVSPropertyOp13
 70
     0
102
RTVSPropertyOp14
 70
     2
102
RTVSPropertyOp15
 70
     0
102
RTVSPropertyOp16
 70
     0
102
RTVSPropertyOp17
 70
     0
102
RTVSPropertyOp18
 70
     0
102
RTVSPropertyOp19
 70
     0
102
RTVSPropertyOp20
 70
     0
102
RTVSPropertyOp21
 70
     0
102
RTVSPropertyOp22
 70
     0
102
RTVSPropertyOp23
 70
     0
102
RTVSPropertyOp24
 70
     0
102
RTVSPropertyOp25
 70
     0
102
RTVSPropertyOp26
 70
     0
102
RTVSPropertyOp27
 70
     0
  0
XRECORD
  5
90B
102
{ACAD_REACTORS
330
90A
102
}
330
90A
100
AcDbXrecord
280
     1
102
RTVSPropertyOp0
 70
     1
102
RTVSPropertyOp1
 70
     1
102
RTVSPropertyOp2
 70
     1
102
RTVSPropertyOp3
 70
     1
102
RTVSPropertyOp4
 70
     1
102
RTVSPropertyOp5
 70
     1
102
RTVSPropertyOp6
 70
     1
102
RTVSPropertyOp7
 70
     1
102
RTVSPropertyOp8
 70
     1
102
RTVSPropertyOp9
 70
     1
102
RTVSPropertyOp10
 70
     1
102
RTVSPropertyOp11
 70
     1
102
RTVSPropertyOp12
 70
     1
102
RTVSPropertyOp13
 70
     1
102
RTVSPropertyOp14
 70
     1
102
RTVSPropertyOp15
 70
     1
102
RTVSPropertyOp16
 70
     1
102
RTVSPropertyOp17
 70
     1
102
RTVSPropertyOp18
 70
     1
102
RTVSPropertyOp19
 70
     1
102
RTVSPropertyOp20
 70
     1
102
RTVSPropertyOp21
 70
     1
102
RTVSPropertyOp22
 70
     1
102
RTVSPropertyOp23
 70
     1
102
RTVSPropertyOp24
 70
     1
102
RTVSPropertyOp25
 70
     1
102
RTVSPropertyOp26
 70
     1
102
RTVSPropertyOp27
 70
     1
  0
XRECORD
  5
913
102
{ACAD_REACTORS
330
912
102
}
330
912
100
AcDbXrecord
280
     1
102
RTVSPropertyOp0
 70
     0
102
RTVSPropertyOp1
 70
     0
102
RTVSPropertyOp2
 70
     0
102
RTVSPropertyOp3
 70
     0
102
RTVSPropertyOp4
 70
     0
102
RTVSPropertyOp5
 70
     0
102
RTVSPropertyOp6
 70
     0
102
RTVSPropertyOp7
 70
     0
102
RTVSPropertyOp8
 70
     0
102
RTVSPropertyOp9
 70
     0
102
RTVSPropertyOp10
 70
     0
102
RTVSPropertyOp11
 70
     0
102
RTVSPropertyOp12
 70
     0
102
RTVSPropertyOp13
 70
     0
102
RTVSPropertyOp14
 70
     2
102
RTVSPropertyOp15
 70
     0
102
RTVSPropertyOp16
 70
     0
102
RTVSPropertyOp17
 70
     0
102
RTVSPropertyOp18
 70
     0
102
RTVSPropertyOp19
 70
     0
102
RTVSPropertyOp20
 70
     0
102
RTVSPropertyOp21
 70
     0
102
RTVSPropertyOp22
 70
     0
102
RTVSPropertyOp23
 70
     0
102
RTVSPropertyOp24
 70
     0
102
RTVSPropertyOp25
 70
     0
102
RTVSPropertyOp26
 70
     0
102
RTVSPropertyOp27
 70
     0
  0
XRECORD
  5
903
102
{ACAD_REACTORS
330
902
102
}
330
902
100
AcDbXrecord
280
     1
102
RTVSPropertyOp0
 70
     1
102
RTVSPropertyOp1
 70
     1
102
RTVSPropertyOp2
 70
     1
102
RTVSPropertyOp3
 70
     1
102
RTVSPropertyOp4
 70
     1
102
RTVSPropertyOp5
 70
     1
102
RTVSPropertyOp6
 70
     1
102
RTVSPropertyOp7
 70
     1
102
RTVSPropertyOp8
 70
     1
102
RTVSPropertyOp9
 70
     1
102
RTVSPropertyOp10
 70
     1
102
RTVSPropertyOp11
 70
     1
102
RTVSPropertyOp12
 70
     1
102
RTVSPropertyOp13
 70
     1
102
RTVSPropertyOp14
 70
     1
102
RTVSPropertyOp15
 70
     1
102
RTVSPropertyOp16
 70
     1
102
RTVSPropertyOp17
 70
     1
102
RTVSPropertyOp18
 70
     1
102
RTVSPropertyOp19
 70
     1
102
RTVSPropertyOp20
 70
     1
102
RTVSPropertyOp21
 70
     1
102
RTVSPropertyOp22
 70
     1
102
RTVSPropertyOp23
 70
     1
102
RTVSPropertyOp24
 70
     1
102
RTVSPropertyOp25
 70
     1
102
RTVSPropertyOp26
 70
     1
102
RTVSPropertyOp27
 70
     1
  0
XRECORD
  5
909
102
{ACAD_REACTORS
330
908
102
}
330
908
100
AcDbXrecord
280
     1
102
RTVSPropertyOp0
 70
     1
102
RTVSPropertyOp1
 70
     1
102
RTVSPropertyOp2
 70
     1
102
RTVSPropertyOp3
 70
     1
102
RTVSPropertyOp4
 70
     1
102
RTVSPropertyOp5
 70
     1
102
RTVSPropertyOp6
 70
     1
102
RTVSPropertyOp7
 70
     1
102
RTVSPropertyOp8
 70
     1
102
RTVSPropertyOp9
 70
     1
102
RTVSPropertyOp10
 70
     1
102
RTVSPropertyOp11
 70
     1
102
RTVSPropertyOp12
 70
     1
102
RTVSPropertyOp13
 70
     1
102
RTVSPropertyOp14
 70
     1
102
RTVSPropertyOp15
 70
     1
102
RTVSPropertyOp16
 70
     1
102
RTVSPropertyOp17
 70
     1
102
RTVSPropertyOp18
 70
     1
102
RTVSPropertyOp19
 70
     1
102
RTVSPropertyOp20
 70
     1
102
RTVSPropertyOp21
 70
     1
102
RTVSPropertyOp22
 70
     1
102
RTVSPropertyOp23
 70
     1
102
RTVSPropertyOp24
 70
     1
102
RTVSPropertyOp25
 70
     1
102
RTVSPropertyOp26
 70
     1
102
RTVSPropertyOp27
 70
     1
  0
ENDSEC
  0
EOF
