  0
SECTION
  2
HEADER
  9
$ACADVER
  1
AC1015
  9
$ACADMAINTVER
 70
    20
  9
$DWGCODEPAGE
  3
ANSI_932
  9
$INSBASE
 10
0.0
 20
0.0
 30
0.0
  9
$EXTMIN
 10
-0.0070183103996442
 20
-0.0033065199730231
 30
-0.0000000000022887
  9
$EXTMAX
 10
200.0021069989949
 20
80.01506273985786
 30
0.0000000000000001
  9
$LIMMIN
 10
-5.027069091796875
 20
-5.027082920074462
  9
$LIMMAX
 10
291.89892578125
 20
204.9462447166443
  9
$ORTHOMODE
 70
     0
  9
$REGENMODE
 70
     1
  9
$FILLMODE
 70
     1
  9
$QTEXTMODE
 70
     0
  9
$MIRRTEXT
 70
     0
  9
$LTSCALE
 40
1.0
  9
$ATTMODE
 70
     1
  9
$TEXTSIZE
 40
2.5
  9
$TRACEWID
 40
1.0
  9
$TEXTSTYLE
  7
STANDARD
  9
$CLAYER
  8
0
  9
$CELTYPE
  6
ByLayer
  9
$CECOLOR
 62
   256
  9
$CELTSCALE
 40
1.0
  9
$DISPSILH
 70
     0
  9
$DIMSCALE
 40
1.0
  9
$DIMASZ
 40
2.5
  9
$DIMEXO
 40
0.5
  9
$DIMDLI
 40
8.0
  9
$DIMRND
 40
0.0
  9
$DIMDLE
 40
0.0
  9
$DIMEXE
 40
1.0
  9
$DIMTP
 40
0.0
  9
$DIMTM
 40
0.0
  9
$DIMTXT
 40
3.5
  9
$DIMCEN
 40
0.0
  9
$DIMTSZ
 40
0.0
  9
$DIMTOL
 70
     0
  9
$DIMLIM
 70
     0
  9
$DIMTIH
 70
     0
  9
$DIMTOH
 70
     0
  9
$DIMSE1
 70
     0
  9
$DIMSE2
 70
     0
  9
$DIMTAD
 70
     3
  9
$DIMZIN
 70
     8
  9
$DIMBLK
  1
Open
  9
$DIMASO
 70
     1
  9
$DIMSHO
 70
     1
  9
$DIMPOST
  1

  9
$DIMAPOST
  1
"
  9
$DIMALT
 70
     0
  9
$DIMALTD
 70
     2
  9
$DIMALTF
 40
0.0393701
  9
$DIMLFAC
 40
1.0
  9
$DIMTOFL
 70
     1
  9
$DIMTVP
 40
0.0
  9
$DIMTIX
 70
     0
  9
$DIMSOXD
 70
     0
  9
$DIMSAH
 70
     0
  9
$DIMBLK1
  1

  9
$DIMBLK2
  1

  9
$DIMSTYLE
  2
AM_JIS
  9
$DIMCLRD
 70
   256
  9
$DIMCLRE
 70
   256
  9
$DIMCLRT
 70
   140
  9
$DIMTFAC
 40
0.55
  9
$DIMGAP
 40
0.8
  9
$DIMJUST
 70
     0
  9
$DIMSD1
 70
     0
  9
$DIMSD2
 70
     0
  9
$DIMTOLJ
 70
     0
  9
$DIMTZIN
 70
     8
  9
$DIMALTZ
 70
     0
  9
$DIMALTTZ
 70
     0
  9
$DIMUPT
 70
     0
  9
$DIMDEC
 70
     3
  9
$DIMTDEC
 70
     3
  9
$DIMALTU
 70
     2
  9
$DIMALTTD
 70
     2
  9
$DIMTXSTY
  7
STANDARD
  9
$DIMAUNIT
 70
     0
  9
$DIMADEC
 70
     0
  9
$DIMALTRND
 40
0.0
  9
$DIMAZIN
 70
     2
  9
$DIMDSEP
 70
    46
  9
$DIMATFIT
 70
     3
  9
$DIMFRAC
 70
     0
  9
$DIMLDRBLK
  1
Open
  9
$DIMLUNIT
 70
     2
  9
$DIMLWD
 70
    -1
  9
$DIMLWE
 70
    -1
  9
$DIMTMOVE
 70
     0
  9
$LUNITS
 70
     2
  9
$LUPREC
 70
     2
  9
$SKETCHINC
 40
1.0
  9
$FILLETRAD
 40
0.0
  9
$AUNITS
 70
     0
  9
$AUPREC
 70
     0
  9
$MENU
  1
.
  9
$ELEVATION
 40
0.0
  9
$PELEVATION
 40
0.0
  9
$THICKNESS
 40
0.0
  9
$LIMCHECK
 70
     0
  9
$CHAMFERA
 40
2.5
  9
$CHAMFERB
 40
2.5
  9
$CHAMFERC
 40
20.0
  9
$CHAMFERD
 40
0.0
  9
$SKPOLY
 70
     0
  9
$TDCREATE
 40
2456560.755011748
  9
$TDUCREATE
 40
2456560.380011748
  9
$TDUPDATE
 40
2457413.709590220
  9
$TDUUPDATE
 40
2457413.334590220
  9
$TDINDWG
 40
0.0081828356
  9
$TDUSRTIMER
 40
0.0081827894
  9
$USRTIMER
 70
     1
  9
$ANGBASE
 50
0.0
  9
$ANGDIR
 70
     0
  9
$PDMODE
 70
     0
  9
$PDSIZE
 40
0.0
  9
$PLINEWID
 40
0.0
  9
$SPLFRAME
 70
     0
  9
$SPLINETYPE
 70
     6
  9
$SPLINESEGS
 70
     8
  9
$HANDSEED
  5
E7E
  9
$SURFTAB1
 70
     6
  9
$SURFTAB2
 70
     6
  9
$SURFTYPE
 70
     6
  9
$SURFU
 70
     6
  9
$SURFV
 70
     6
  9
$UCSBASE
  2

  9
$UCSNAME
  2

  9
$UCSORG
 10
0.0
 20
0.0
 30
0.0
  9
$UCSXDIR
 10
1.0
 20
0.0
 30
0.0
  9
$UCSYDIR
 10
0.0
 20
1.0
 30
0.0
  9
$UCSORTHOREF
  2

  9
$UCSORTHOVIEW
 70
     0
  9
$UCSORGTOP
 10
0.0
 20
0.0
 30
0.0
  9
$UCSORGBOTTOM
 10
0.0
 20
0.0
 30
0.0
  9
$UCSORGLEFT
 10
0.0
 20
0.0
 30
0.0
  9
$UCSORGRIGHT
 10
0.0
 20
0.0
 30
0.0
  9
$UCSORGFRONT
 10
0.0
 20
0.0
 30
0.0
  9
$UCSORGBACK
 10
0.0
 20
0.0
 30
0.0
  9
$PUCSBASE
  2

  9
$PUCSNAME
  2

  9
$PUCSORG
 10
0.0
 20
0.0
 30
0.0
  9
$PUCSXDIR
 10
1.0
 20
0.0
 30
0.0
  9
$PUCSYDIR
 10
0.0
 20
1.0
 30
0.0
  9
$PUCSORTHOREF
  2

  9
$PUCSORTHOVIEW
 70
     0
  9
$PUCSORGTOP
 10
0.0
 20
0.0
 30
0.0
  9
$PUCSORGBOTTOM
 10
0.0
 20
0.0
 30
0.0
  9
$PUCSORGLEFT
 10
0.0
 20
0.0
 30
0.0
  9
$PUCSORGRIGHT
 10
0.0
 20
0.0
 30
0.0
  9
$PUCSORGFRONT
 10
0.0
 20
0.0
 30
0.0
  9
$PUCSORGBACK
 10
0.0
 20
0.0
 30
0.0
  9
$USERI1
 70
     0
  9
$USERI2
 70
     0
  9
$USERI3
 70
     0
  9
$USERI4
 70
     0
  9
$USERI5
 70
     0
  9
$USERR1
 40
0.0
  9
$USERR2
 40
0.0
  9
$USERR3
 40
0.0
  9
$USERR4
 40
0.0
  9
$USERR5
 40
0.0
  9
$WORLDVIEW
 70
     1
  9
$SHADEDGE
 70
     3
  9
$SHADEDIF
 70
    70
  9
$TILEMODE
 70
     1
  9
$MAXACTVP
 70
    64
  9
$PINSBASE
 10
0.0
 20
0.0
 30
0.0
  9
$PLIMCHECK
 70
     0
  9
$PEXTMIN
 10
1.000000000000000E+20
 20
1.000000000000000E+20
 30
1.000000000000000E+20
  9
$PEXTMAX
 10
-1.000000000000000E+20
 20
-1.000000000000000E+20
 30
-1.000000000000000E+20
  9
$PLIMMIN
 10
0.0
 20
0.0
  9
$PLIMMAX
 10
12.0
 20
9.0
  9
$UNITMODE
 70
     0
  9
$VISRETAIN
 70
     1
  9
$PLINEGEN
 70
     0
  9
$PSLTSCALE
 70
     1
  9
$TREEDEPTH
 70
  3020
  9
$CMLSTYLE
  2
Standard
  9
$CMLJUST
 70
     0
  9
$CMLSCALE
 40
20.0
  9
$PROXYGRAPHICS
 70
     1
  9
$MEASUREMENT
 70
     1
  9
$CELWEIGHT
370
    -1
  9
$ENDCAPS
280
     0
  9
$JOINSTYLE
280
     0
  9
$LWDISPLAY
290
     1
  9
$INSUNITS
 70
     4
  9
$HYPERLINKBASE
  1

  9
$STYLESHEET
  1

  9
$XEDIT
290
     1
  9
$CEPSNTYPE
380
     0
  9
$PSTYLEMODE
290
     1
  9
$FINGERPRINTGUID
  2
{4DA2A8CC-E307-4A50-8BB0-F193B42A8EF5}
  9
$VERSIONGUID
  2
{93135222-3E11-41AB-85F9-3F25B15DC11D}
  9
$EXTNAMES
290
     1
  9
$PSVPSCALE
 40
0.0
  9
$OLESTARTUP
290
     0
  0
ENDSEC
  0
SECTION
  2
CLASSES
  0
CLASS
  1
ACDBDICTIONARYWDFLT
  2
AcDbDictionaryWithDefault
  3
ObjectDBX Classes
 90
        0
280
     0
281
     0
  0
CLASS
  1
MATERIAL
  2
AcDbMaterial
  3
ObjectDBX Classes
 90
     1153
280
     0
281
     0
  0
CLASS
  1
VISUALSTYLE
  2
AcDbVisualStyle
  3
ObjectDBX Classes
 90
     4095
280
     0
281
     0
  0
CLASS
  1
SCALE
  2
AcDbScale
  3
ObjectDBX Classes
 90
     1153
280
     0
281
     0
  0
CLASS
  1
TABLESTYLE
  2
AcDbTableStyle
  3
ObjectDBX Classes
 90
     4095
280
     0
281
     0
  0
CLASS
  1
MLEADERSTYLE
  2
AcDbMLeaderStyle
  3
ACDB_MLEADERSTYLE_CLASS
 90
     4095
280
     0
281
     0
  0
CLASS
  1
DIMASSOC
  2
AcDbDimAssoc
  3
"AcDbDimAssoc|Product Desc:     AcDim ARX App For Dimension|Company:          Autodesk, Inc.|WEB Address:      www.autodesk.com"
 90
        0
280
     0
281
     0
  0
CLASS
  1
SORTENTSTABLE
  2
AcDbSortentsTable
  3
ObjectDBX Classes
 90
        0
280
     0
281
     0
  0
CLASS
  1
DICTIONARYVAR
  2
AcDbDictionaryVar
  3
ObjectDBX Classes
 90
        0
280
     0
281
     0
  0
CLASS
  1
ACME_DOCUMENT
  2
AcMeDbDoc
  3
AcMeServices
 90
     1024
280
     0
281
     0
  0
CLASS
  1
AMGSETTINGSOBJ
  2
AmgSettingsObj
  3
"AcadM|Product Description: AutoCAD Mechanical|Company: Autodesk, Inc."
 90
     1024
280
     0
281
     0
  0
CLASS
  1
AMGOBJPROPCFG
  2
AmgObjPropCfg
  3
"AmgLay|Product Description: AutoCAD Mechanical|Company: Autodesk, Inc."
 90
     1025
280
     0
281
     0
  0
CLASS
  1
ACMESCOPE
  2
AcMeScope
  3
AcMeServices
 90
     1024
280
     0
281
     0
  0
CLASS
  1
ACGREFMASTER
  2
AcGrefMaster
  3
AcAttribServices
 90
     1024
280
     0
281
     0
  0
CLASS
  1
ACMECOMMANDHISTORY
  2
AcMeCommandHistory
  3
AcMeServices
 90
     1024
280
     0
281
     0
  0
CLASS
  1
ACIMSYSVARMAN
  2
AcImSysVarManager
  3
AcMeServices
 90
     1024
280
     0
281
     0
  0
CLASS
  1
ACIMINTSYSVAR
  2
AcImIntSysVar
  3
AcMeServices
 90
     1024
280
     0
281
     0
  0
CLASS
  1
ACMEDRAWINGMAN
  2
AcMeDrawingMan
  3
AcMeServices
 90
     1024
280
     0
281
     0
  0
CLASS
  1
ACMEVIEW
  2
AcMeView
  3
AcMeServices
 90
     1024
280
     0
281
     0
  0
CLASS
  1
ACDBENTITYCACHE
  2
AcMeEntityCache
  3
AcMeServices
 90
     1024
280
     0
281
     0
  0
CLASS
  1
ACMESTATEMGR
  2
AcMeStateMgr
  3
AcMeServices
 90
     1024
280
     0
281
     0
  0
CLASS
  1
AM_DRAWING_MGR
  2
AcDmDwgMgr
  3
AcMechDwgViewMgmt
 90
     1024
280
     0
281
     0
  0
CLASS
  1
AM_DWG_DOCUMENT
  2
AcDmDwgDocument
  3
AcMechDwgViewMgmt
 90
     1024
280
     0
281
     0
  0
CLASS
  1
AM_DWG_SHEET
  2
AcDmSheet
  3
AcMechDwgViewMgmt
 90
     1024
280
     0
281
     0
  0
CLASS
  1
AM_VIEWDIMPARMAP
  2
AcDmViewDimParMap
  3
AcMechDwgViewMgmt
 90
     1024
280
     0
281
     0
  0
CLASS
  1
AMDTINTERNALREACTOR
  2
AmdtInternalReactor
  3
AcMeServices
 90
     1024
280
     0
281
     0
  0
CLASS
  1
ACIMREALSYSVAR
  2
AcImRealSysVar
  3
AcMeServices
 90
     1024
280
     0
281
     0
  0
CLASS
  1
AM_DWGMGR_NAME
  2
AcDmDwgMgrName
  3
AcMechDwgViewMgmt
 90
     1024
280
     0
281
     0
  0
CLASS
  1
ACME_DATABASE
  2
AcMeDbDatabase
  3
AcMeServices
 90
     1024
280
     0
281
     0
  0
CLASS
  1
ACRFINSADJUSTERMGR
  2
AcRfInsAdjusterMgr
  3
AcMeServices
 90
     1024
280
     0
281
     0
  0
CLASS
  1
ACGREFACADMASTER
  2
AcGrefacadMaster
  3
AcGrefServices
 90
     1024
280
     0
281
     0
  0
CLASS
  1
AMDTMENUSTATEMGR
  2
AmdtMenuStateMgr
  3
McadcomServices
 90
     1024
280
     0
281
     0
  0
CLASS
  1
AMDTMCOMMENUSTATE
  2
AmdtMcomMenuState
  3
McadcomServices
 90
     1024
280
     0
281
     0
  0
CLASS
  1
AMIMASTER
  2
AmiMaster
  3
AmiServices
 90
     1024
280
     0
281
     0
  0
CLASS
  1
MAPIAMMOUDLE
  2
MApiAmModule
  3
MApiAmServices
 90
     1024
280
     0
281
     0
  0
CLASS
  1
AMDTWELDINGLIBRARY
  2
AmdtWeldingLibrary
  3
"AcmSymBB|Product Description: AutoCAD Mechanical|Company: Autodesk, Inc."
 90
    36863
280
     0
281
     0
  0
CLASS
  1
AMDTWELDINGLIBOBJECT
  2
AmdtWeldingLibObject
  3
"AcmSymBB|Product Description: AutoCAD Mechanical|Company: Autodesk, Inc."
 90
    36863
280
     0
281
     0
  0
CLASS
  1
AMDTEDGELIBRARY
  2
AmdtEdgeLibrary
  3
"AcmSymBB|Product Description: AutoCAD Mechanical|Company: Autodesk, Inc."
 90
    36863
280
     0
281
     0
  0
CLASS
  1
AMDTEDGELIBOBJECT
  2
AmdtEdgeLibObject
  3
"AcmSymBB|Product Description: AutoCAD Mechanical|Company: Autodesk, Inc."
 90
    36863
280
     0
281
     0
  0
CLASS
  1
AMDTFCFLIBRARY
  2
AmdtFCFLibrary
  3
"AcmSymBB|Product Description: AutoCAD Mechanical|Company: Autodesk, Inc."
 90
    36863
280
     0
281
     0
  0
CLASS
  1
AMDTFCFLIBOBJECT
  2
AmdtFCFLibObject
  3
"AcmSymBB|Product Description: AutoCAD Mechanical|Company: Autodesk, Inc."
 90
    36863
280
     0
281
     0
  0
CLASS
  1
ACMSTANDARDJIS
  2
AcmStandardJIS
  3
"Amdt_StdImp|Product Description: AutoCAD Mechanical|Company: Autodesk, Inc."
 90
     1024
280
     0
281
     0
  0
CLASS
  1
ACMSURFSTANDARDJIS2003
  2
AcmSurfTextStdJIS2003
  3
"Amdt_StdImp|Product Description: AutoCAD Mechanical|Company: Autodesk, Inc."
 90
     1024
280
     0
281
     0
  0
CLASS
  1
ACMFCFSTANDARDJIS98
  2
AcmFCFStdJIS98
  3
"Amdt_StdImp|Product Description: AutoCAD Mechanical|Company: Autodesk, Inc."
 90
     1024
280
     0
281
     0
  0
CLASS
  1
ACMWELDSTANDARDJIS
  2
AcmWeldingStdJIS
  3
"Amdt_StdImp|Product Description: AutoCAD Mechanical|Company: Autodesk, Inc."
 90
     1024
280
     0
281
     0
  0
CLASS
  1
ACMIDSTANDARDJIS
  2
AcmIdStdJIS
  3
"Amdt_StdImp|Product Description: AutoCAD Mechanical|Company: Autodesk, Inc."
 90
     1024
280
     0
281
     0
  0
CLASS
  1
ACMDATUMSTANDARDJIS
  2
AcmDatumStdJIS
  3
"Amdt_StdImp|Product Description: AutoCAD Mechanical|Company: Autodesk, Inc."
 90
     1024
280
     0
281
     0
  0
CLASS
  1
ACMBOMSTANDARDJIS
  2
AcmBOMStdJIS
  3
"Amdt_StdImp|Product Description: AutoCAD Mechanical|Company: Autodesk, Inc."
 90
     1024
280
     0
281
     0
  0
CLASS
  1
ACMDETAILSTANDARDJIS
  2
AmdtDetailSymStdJIS
  3
"Amdt_StdImp|Product Description: AutoCAD Mechanical|Company: Autodesk, Inc."
 90
     1024
280
     0
281
     0
  0
CLASS
  1
ACMSECTIONSTANDARDJIS
  2
AmdtSectionSymStdJIS
  3
"Amdt_StdImp|Product Description: AutoCAD Mechanical|Company: Autodesk, Inc."
 90
     1024
280
     0
281
     0
  0
CLASS
  1
ACMCENTERLINESTANDARDJIS
  2
AmdtCenterLineStdJIS
  3
"Amdt_StdImp|Product Description: AutoCAD Mechanical|Company: Autodesk, Inc."
 90
     1024
280
     0
281
     0
  0
CLASS
  1
ACMTHREADLINESTANDARDJIS
  2
AmdtThreadLineStdJIS
  3
"Amdt_StdImp|Product Description: AutoCAD Mechanical|Company: Autodesk, Inc."
 90
     1024
280
     0
281
     0
  0
CLASS
  1
ACAMGLAYSTD
  2
AcAmgLayStd
  3
"AmgLay|Product Description: AutoCAD Mechanical|Company: Autodesk, Inc."
 90
     1024
280
     0
281
     0
  0
CLASS
  1
ACAMGDIMSTD
  2
AcAmgDimStd
  3
"AmgDim|Product Description: AutoCAD Mechanical|Company: Autodesk, Inc."
 90
     1024
280
     0
281
     0
  0
CLASS
  1
ACAMGTITLESTD
  2
AcAmgTitleStd
  3
"AmgTitle|Product Description: AutoCAD Mechanical|Company: Autodesk, Inc."
 90
     4095
280
     0
281
     0
  0
CLASS
  1
ACMNOTESTANDARDJIS
  2
AmdtNoteStdJIS
  3
"Amdt_StdImp|Product Description: AutoCAD Mechanical|Company: Autodesk, Inc."
 90
     1024
280
     0
281
     0
  0
CLASS
  1
AMDTNOTETEMPLATEDB
  2
AmdtNoteTemplateDB
  3
AcmSymBB|Product Description: AutoCAD Mechanical|Company: Autodesk, Inc.
 90
     1024
280
     0
281
     0
  0
CLASS
  1
ACAMGHOLECHARTSTDJIS
  2
AcAmgHoleChartStdJIS
  3
AmgDim|Product Description: AutoCAD Mechanical|Company: Autodesk, Inc.
 90
     1024
280
     0
281
     0
  0
CLASS
  1
ACMTAPERSTANDARDJIS
  2
AcmTaperStdJIS
  3
"Amdt_StdImp|Product Description: AutoCAD Mechanical|Company: Autodesk, Inc."
 90
     1024
280
     0
281
     0
  0
CLASS
  1
ACMANOOTATIONVIEWSTANDARDJIS
  2
AmdtAnViewStdJIS
  3
"Amdt_StdImp|Product Description: AutoCAD Mechanical|Company: Autodesk, Inc."
 90
     1024
280
     0
281
     0
  0
CLASS
  1
AMDTEDGESTANDARDJIS
  2
AmdtEdgeStdJIS
  3
"Amdt_StdImp|Product Description: AutoCAD Mechanical|Company: Autodesk, Inc."
 90
     1024
280
     0
281
     0
  0
CLASS
  1
ACIMSTRSYSVAR
  2
AcImStrSysVar
  3
AcMeServices
 90
     1024
280
     0
281
     0
  0
CLASS
  1
AMDTADMENUSTATE
  2
AmdtAdMenuState
  3
DesignerServices
 90
     1024
280
     0
281
     0
  0
CLASS
  1
ADAPPL
  2
AcAdAppl
  3
DesignerServices
 90
     1024
280
     0
281
     0
  0
CLASS
  1
DEPMGR
  2
AcAdDepMgr
  3
DesignerServices
 90
     1024
280
     0
281
     0
  0
CLASS
  1
PARAMMGR
  2
AcAdParamMgr
  3
DesignerServices
 90
     1024
280
     0
281
     0
  0
CLASS
  1
PARAMSCOPE
  2
AcAdParamScope
  3
DesignerServices
 90
     1024
280
     0
281
     0
  0
CLASS
  1
NAMEDAPPL
  2
AcAdNamedAppl
  3
DesignerServices
 90
     1024
280
     0
281
     0
  0
CLASS
  1
AMDTDMMENUSTATE
  2
AmdtDmMenuState
  3
AcMechDwgViewMgmt
 90
     1024
280
     0
281
     0
  0
CLASS
  1
AMDTAMMENUSTATE
  2
AmdtAmMenuState
  3
DesignerAssemblies
 90
     1024
280
     0
281
     0
  0
CLASS
  1
ACAMPROJECT
  2
AcAmProject
  3
DesignerAssemblies
 90
     1024
280
     0
281
     0
  0
CLASS
  1
ACAMGRCOMPDEF
  2
AcAmGrCompDef
  3
DesignerAssemblies
 90
     1024
280
     0
281
     0
  0
CLASS
  1
ACAMCOMPDEF
  2
AcAmCompDef
  3
DesignerAssemblies
 90
     1024
280
     0
281
     0
  0
CLASS
  1
ACAMCOMPDEFMGR
  2
AcAmCompDefMgr
  3
DesignerAssemblies
 90
     1024
280
     0
281
     0
  0
CLASS
  1
AMCONTEXTMGR
  2
AcAmContextMgr
  3
DesignerAssemblies
 90
     1024
280
     0
281
     0
  0
CLASS
  1
ACAMCONTEXTMODELER
  2
AcAmContextModeler
  3
DesignerAssemblies
 90
     1024
280
     0
281
     0
  0
CLASS
  1
ACMDATADICTIONARY
  2
AcmDataDictionary
  3
"AcmSymBB|Product Description: AutoCAD Mechanical|Company: Autodesk, Inc."
 90
     1024
280
     0
281
     0
  0
CLASS
  1
CATALOGSTATE
  2
AcAmCatalogState
  3
DesignerAssemblies
 90
     1024
280
     0
281
     0
  0
CLASS
  1
ACAMGRCOMPDEFSET
  2
AcAmGrCompDefSet
  3
DesignerAssemblies
 90
     1024
280
     0
281
     0
  0
CLASS
  1
AMDTBROWSERDBTAB
  2
AmdtBrowserDbTab
  3
McadcomServices
 90
     1024
280
     0
281
     0
  0
CLASS
  1
CBROWSERAPPOBJECT
  2
CBrowserAppObject
  3
McadcomServices
 90
     1024
280
     0
281
     0
  0
CLASS
  1
DM_PLACEHOLDER
  2
AcDmSelsetPlaceholder
  3
AcMechDwgViewMgmt
 90
     1024
280
     0
281
     0
  0
CLASS
  1
EXACXREFPANELOBJECT
  2
ExAcXREFPanelObject
  3
EXAC_ESW
 90
    33793
280
     0
281
     0
  0
CLASS
  1
NPOCOLLECTION
  2
AcDbImpNonPersistentObjectsCollection
  3
ObjectDBX Classes
 90
    33921
280
     0
281
     0
  0
CLASS
  1
ACAMGFILTERDAT
  2
AcAmgFilterDat
  3
"AcadM|Product Description: AutoCAD Mechanical|Company: Autodesk, Inc."
 90
    33792
280
     0
281
     0
  0
CLASS
  1
CELLSTYLEMAP
  2
AcDbCellStyleMap
  3
ObjectDBX Classes
 90
     1152
280
     0
281
     0
  0
CLASS
  1
ACDBPLACEHOLDER
  2
AcDbPlaceHolder
  3
ObjectDBX Classes
 90
        0
280
     0
281
     0
  0
CLASS
  1
LAYOUT
  2
AcDbLayout
  3
ObjectDBX Classes
 90
        0
280
     0
281
     0
  0
CLASS
  1
ACMSTANDARDISO
  2
AcmStandardISO
  3
"Amdt_StdImp|Product Description: AutoCAD Mechanical|Company: Autodesk, Inc."
 90
     1024
280
     0
281
     0
  0
CLASS
  1
AMDTEDGESTANDARDISO13715
  2
AmdtEdgeStdISO13715
  3
"Amdt_StdImp|Product Description: AutoCAD Mechanical|Company: Autodesk, Inc."
 90
     1024
280
     0
281
     0
  0
CLASS
  1
ACMSURFSTANDARDISO2002
  2
AcmSurfTextStdISO2002
  3
"Amdt_StdImp|Product Description: AutoCAD Mechanical|Company: Autodesk, Inc."
 90
     1024
280
     0
281
     0
  0
CLASS
  1
ACMFCFSTANDARDISO
  2
AcmFCFStdISO
  3
"Amdt_StdImp|Product Description: AutoCAD Mechanical|Company: Autodesk, Inc."
 90
     1024
280
     0
281
     0
  0
CLASS
  1
ACMWELDSTANDARDISO
  2
AcmWeldingStdISO
  3
"Amdt_StdImp|Product Description: AutoCAD Mechanical|Company: Autodesk, Inc."
 90
     1024
280
     0
281
     0
  0
CLASS
  1
ACMIDSTANDARDISO
  2
AcmIdStdISO
  3
"Amdt_StdImp|Product Description: AutoCAD Mechanical|Company: Autodesk, Inc."
 90
     1024
280
     0
281
     0
  0
CLASS
  1
ACMDATUMSTANDARDISO
  2
AcmDatumStdISO
  3
"Amdt_StdImp|Product Description: AutoCAD Mechanical|Company: Autodesk, Inc."
 90
     1024
280
     0
281
     0
  0
CLASS
  1
ACMBOMSTANDARDISO
  2
AcmBOMStdISO
  3
"Amdt_StdImp|Product Description: AutoCAD Mechanical|Company: Autodesk, Inc."
 90
     1024
280
     0
281
     0
  0
CLASS
  1
ACMDETAILSTANDARDISO
  2
AmdtDetailSymStdISO
  3
"Amdt_StdImp|Product Description: AutoCAD Mechanical|Company: Autodesk, Inc."
 90
     1024
280
     0
281
     0
  0
CLASS
  1
ACMSECTIONSTANDARDISO2001
  2
AmdtSectionSymStdISO2001
  3
"Amdt_StdImp|Product Description: AutoCAD Mechanical|Company: Autodesk, Inc."
 90
     1024
280
     0
281
     0
  0
CLASS
  1
ACMCENTERLINESTANDARDISO
  2
AmdtCenterLineStdISO
  3
"Amdt_StdImp|Product Description: AutoCAD Mechanical|Company: Autodesk, Inc."
 90
     1024
280
     0
281
     0
  0
CLASS
  1
ACMTHREADLINESTANDARDISO
  2
AmdtThreadLineStdISO
  3
"Amdt_StdImp|Product Description: AutoCAD Mechanical|Company: Autodesk, Inc."
 90
     1024
280
     0
281
     0
  0
CLASS
  1
ACMNOTESTANDARDISO
  2
AmdtNoteStdISO
  3
"Amdt_StdImp|Product Description: AutoCAD Mechanical|Company: Autodesk, Inc."
 90
     1024
280
     0
281
     0
  0
CLASS
  1
ACMTAPERSTANDARDISO
  2
AcmTaperStdISO
  3
"Amdt_StdImp|Product Description: AutoCAD Mechanical|Company: Autodesk, Inc."
 90
     1024
280
     0
281
     0
  0
CLASS
  1
ACMANOOTATIONVIEWSTANDARDISO
  2
AmdtAnViewStdISO
  3
"Amdt_StdImp|Product Description: AutoCAD Mechanical|Company: Autodesk, Inc."
 90
     1024
280
     0
281
     0
  0
CLASS
  1
ACAMGHOLECHARTSTDISO
  2
AcAmgHoleChartStdISO
  3
AmgDim|Product Description: AutoCAD Mechanical|Company: Autodesk, Inc.
 90
     1024
280
     0
281
     0
  0
CLASS
  1
ACDBLINERES
  2
AcDbLineRes
  3
AcGrefServices
 90
     1024
280
     0
281
     0
  0
CLASS
  1
AMDTNOTE
  2
AmdtNote
  3
"AcmSymBB|Product Description: AutoCAD Mechanical|Company: Autodesk, Inc."
 90
     4095
280
     0
281
     1
  0
CLASS
  1
AMDTFORMULAUPDATEDISPATCHER
  2
AmdtFormulaUpdateDispatcher
  3
AcMeServices
 90
     1024
280
     0
281
     0
  0
ENDSEC
  0
SECTION
  2
TABLES
  0
TABLE
  2
VPORT
  5
8
330
0
100
AcDbSymbolTable
 70
     1
  0
VPORT
  5
52
330
8
100
AcDbSymbolTableRecord
100
AcDbViewportTableRecord
  2
*Active
 70
     0
 10
0.0
 20
0.0
 11
1.0
 21
1.0
 12
99.99754434429764
 22
40.00587810994241
 13
0.0
 23
0.0
 14
10.0
 24
10.0
 15
10.0
 25
10.0
 16
0.0
 26
0.0
 36
1.0
 17
0.0
 27
0.0
 37
0.0
 40
101.0179054022947
 41
1.987437185929648
 42
50.0
 43
0.0
 44
0.0
 50
0.0
 51
0.0
 71
     0
 72
  1000
 73
     1
 74
     1
 75
     0
 76
     0
 77
     0
 78
     0
281
     0
 65
     0
110
0.0
120
0.0
130
0.0
111
1.0
121
0.0
131
0.0
112
0.0
122
1.0
132
0.0
 79
     0
146
0.0
  0
ENDTAB
  0
TABLE
  2
LTYPE
  5
5
330
0
100
AcDbSymbolTable
 70
    19
  0
LTYPE
  5
56
330
5
100
AcDbSymbolTableRecord
100
AcDbLinetypeTableRecord
  2
ByBlock
 70
     0
  3

 72
    65
 73
     0
 40
0.0
  0
LTYPE
  5
57
330
5
100
AcDbSymbolTableRecord
100
AcDbLinetypeTableRecord
  2
ByLayer
 70
     0
  3

 72
    65
 73
     0
 40
0.0
  0
LTYPE
  5
58
330
5
100
AcDbSymbolTableRecord
100
AcDbLinetypeTableRecord
  2
Continuous
 70
     0
  3
Solid line
 72
    65
 73
     0
 40
0.0
  0
LTYPE
  5
93
330
5
100
AcDbSymbolTableRecord
100
AcDbLinetypeTableRecord
  2
AM_ISO02W050
 70
     0
  3
__ __ __ __ __ __ __ __ __ __ __ __ __ __ __
 72
    65
 73
     2
 40
7.5
 49
6.0
 74
     0
 49
-1.5
 74
     0
  0
LTYPE
  5
94
330
5
100
AcDbSymbolTableRecord
100
AcDbLinetypeTableRecord
  2
AM_ISO08W050
 70
     0
  3
____ . ____ . ____ . ____ . ____ . ____ . ____
 72
    65
 73
     4
 40
18.0
 49
12.0
 74
     0
 49
-1.5
 74
     0
 49
3.0
 74
     0
 49
-1.5
 74
     0
  0
LTYPE
  5
95
330
5
100
AcDbSymbolTableRecord
100
AcDbLinetypeTableRecord
  2
AM_ISO09W050
 70
     0
  3
_____ . . _____ . . _____ . . ____ .. ____
 72
    65
 73
     6
 40
22.5
 49
12.0
 74
     0
 49
-1.5
 74
     0
 49
3.0
 74
     0
 49
-1.5
 74
     0
 49
3.0
 74
     0
 49
-1.5
 74
     0
  0
LTYPE
  5
96
330
5
100
AcDbSymbolTableRecord
100
AcDbLinetypeTableRecord
  2
Amconstr
 70
     0
  3
_______________________
 72
    65
 73
     2
 40
9999.0
 49
9999.0
 74
     0
 49
0.0
 74
     0
  0
LTYPE
  5
97
330
5
100
AcDbSymbolTableRecord
100
AcDbLinetypeTableRecord
  2
AM_ISO08W050x2
 70
     0
  3
__ . __ . __ . __ . __ . __
 72
    65
 73
     4
 40
9.0
 49
6.0
 74
     0
 49
-0.75
 74
     0
 49
1.5
 74
     0
 49
-0.75
 74
     0
  0
LTYPE
  5
98
330
5
100
AcDbSymbolTableRecord
100
AcDbLinetypeTableRecord
  2
AM_ISO02W050x2
 70
     0
  3
 _ _ _ _ _ _ _ _ _ _ _ _
 72
    65
 73
     2
 40
3.75
 49
3.0
 74
     0
 49
-0.75
 74
     0
  0
LTYPE
  5
99
330
5
100
AcDbSymbolTableRecord
100
AcDbLinetypeTableRecord
  2
Amzigzag
 70
     0
  3
/\/-/\/-/\/-/\/-/\/-/\/
 72
    65
 73
     2
 40
11.0001
 49
0.0001
 74
     4
 75
   136
340
8B
 46
0.04
 50
0.0
 44
0.0
 45
0.0
 49
-11.0
 74
     0
  0
LTYPE
  5
9A
330
5
100
AcDbSymbolTableRecord
100
AcDbLinetypeTableRecord
  2
ACJISTGB
 70
     0
  3
__ . . __ . .
 72
    65
 73
     6
 40
9.0
 49
4.0
 74
     0
 49
-1.0
 74
     0
 49
1.0
 74
     0
 49
-1.0
 74
     0
 49
1.0
 74
     0
 49
-1.0
 74
     0
  0
LTYPE
  5
9B
330
5
100
AcDbSymbolTableRecord
100
AcDbLinetypeTableRecord
  2
ACJISTGL
 70
     0
  3
_ _ _ _ _
 72
    65
 73
     2
 40
3.0
 49
2.0
 74
     0
 49
-1.0
 74
     0
  0
LTYPE
  5
9C
330
5
100
AcDbSymbolTableRecord
100
AcDbLinetypeTableRecord
  2
ACJISWELD
 70
     0
  3
_ _ _ _ _
 72
    65
 73
     2
 40
2.0
 49
2.0
 74
     0
 49
-1.0
 74
     0
  0
LTYPE
  5
9D
330
5
100
AcDbSymbolTableRecord
100
AcDbLinetypeTableRecord
  2
DASH_DOT
 70
     0
  3
Dash dot __ . __ . __ . __ . __ . __ . __ . __
 72
    65
 73
     4
 40
0.37
 49
0.24
 74
     0
 49
-0.06
 74
     0
 49
0.01
 74
     0
 49
-0.06
 74
     0
  0
LTYPE
  5
9E
330
5
100
AcDbSymbolTableRecord
100
AcDbLinetypeTableRecord
  2
HIDDEN
 70
     0
  3
Hidden __ __ __ __ __ __ __ __ __ __ __ __ __ _
 72
    65
 73
     2
 40
9.524999999999996
 49
6.349999999999998
 74
     0
 49
-3.174999999999998
 74
     0
  0
LTYPE
  5
9F
330
5
100
AcDbSymbolTableRecord
100
AcDbLinetypeTableRecord
  2
PHANTOM2
 70
     0
  3
Phantom (.5x) ___ _ _ ___ _ _ ___ _ _ ___ _ _
 72
    65
 73
     6
 40
31.75
 49
15.875
 74
     0
 49
-3.174999999999998
 74
     0
 49
3.174999999999998
 74
     0
 49
-3.174999999999998
 74
     0
 49
3.174999999999998
 74
     0
 49
-3.174999999999998
 74
     0
  0
LTYPE
  5
A0
330
5
100
AcDbSymbolTableRecord
100
AcDbLinetypeTableRecord
  2
CENTER
 70
     0
  3
Center ____ _ ____ _ ____ _ ____ _ ____ _ ____
 72
    65
 73
     4
 40
50.8
 49
31.75
 74
     0
 49
-6.349999999999998
 74
     0
 49
6.349999999999998
 74
     0
 49
-6.349999999999998
 74
     0
  0
LTYPE
  5
5E7
330
5
100
AcDbSymbolTableRecord
100
AcDbLinetypeTableRecord
  2
ACISOWELD
 70
     0
  3
_ _ _ _ _
 72
    65
 73
     2
 40
2.0
 49
2.0
 74
     0
 49
-1.0
 74
     0
  0
LTYPE
  5
5E8
330
5
100
AcDbSymbolTableRecord
100
AcDbLinetypeTableRecord
  2
ACISOTGB
 70
     0
  3
__ . . __ . .
 72
    65
 73
     6
 40
9.0
 49
4.0
 74
     0
 49
-1.0
 74
     0
 49
1.0
 74
     0
 49
-1.0
 74
     0
 49
1.0
 74
     0
 49
-1.0
 74
     0
  0
LTYPE
  5
5E9
330
5
100
AcDbSymbolTableRecord
100
AcDbLinetypeTableRecord
  2
ACISOTGL
 70
     0
  3
_ _ _ _ _
 72
    65
 73
     2
 40
3.0
 49
2.0
 74
     0
 49
-1.0
 74
     0
  0
LTYPE
  5
694
330
5
100
AcDbSymbolTableRecord
100
AcDbLinetypeTableRecord
  2
CENTERX2
 70
     0
  3
Center (2x) ________  __  ________  __  _____
 72
    65
 73
     4
 40
20.32
 49
12.7
 74
     0
 49
-2.54
 74
     0
 49
2.54
 74
     0
 49
-2.54
 74
     0
  0
ENDTAB
  0
TABLE
  2
LAYER
  5
2
102
{ACAD_XDICTIONARY
360
695
102
}
330
0
100
AcDbSymbolTable
 70
     8
  0
LAYER
  5
4F
102
{ACAD_XDICTIONARY
360
515
102
}
330
2
100
AcDbSymbolTableRecord
100
AcDbLayerTableRecord
  2
0
 70
     0
 62
     7
  6
Continuous
370
    -3
390
F
1001
AcAecLayerStandard
1000

1000

  0
LAYER
  5
70
330
2
100
AcDbSymbolTableRecord
100
AcDbLayerTableRecord
  2
Defpoints
 70
     0
 62
     7
  6
Continuous
290
     0
370
    -3
390
F
1001
AcAecLayerStandard
1000

1000

  0
LAYER
  5
C8
102
{ACAD_XDICTIONARY
360
C9
102
}
330
2
100
AcDbSymbolTableRecord
100
AcDbLayerTableRecord
  2
AM_VIEWS
 70
     0
 62
     1
  6
Continuous
290
     0
370
    25
390
F
1001
AcAecLayerStandard
1000

1000

  0
LAYER
  5
D1
102
{ACAD_XDICTIONARY
360
D2
102
}
330
2
100
AcDbSymbolTableRecord
100
AcDbLayerTableRecord
  2
AM_5
 70
     0
 62
    92
  6
Continuous
370
    13
390
F
1001
AcAecLayerStandard
1000

1000

  0
LAYER
  5
F0
102
{ACAD_XDICTIONARY
360
F1
102
}
330
2
100
AcDbSymbolTableRecord
100
AcDbLayerTableRecord
  2
AM_0
 70
     0
 62
     7
  6
Continuous
370
    35
390
F
  0
LAYER
  5
11F
102
{ACAD_XDICTIONARY
360
120
102
}
330
2
100
AcDbSymbolTableRecord
100
AcDbLayerTableRecord
  2
AM_7
 70
     0
 62
   142
  6
AM_ISO08W050x2
370
    13
390
F
1001
AcAecLayerStandard
1000

1000

  0
LAYER
  5
21A
102
{ACAD_XDICTIONARY
360
517
102
}
330
2
100
AcDbSymbolTableRecord
100
AcDbLayerTableRecord
  2
Viewport2ForCustomObjects_0
 70
     0
 62
     7
  6
Continuous
370
    -3
390
F
  0
LAYER
  5
D57
102
{ACAD_XDICTIONARY
360
D58
102
}
330
2
100
AcDbSymbolTableRecord
100
AcDbLayerTableRecord
  2
AM_1
 70
     0
 62
    14
  6
Continuous
370
    50
390
F
1001
AcAecLayerStandard
1000

1000

  0
ENDTAB
  0
TABLE
  2
STYLE
  5
3
330
0
100
AcDbSymbolTable
 70
    13
  0
STYLE
  5
50
330
3
100
AcDbSymbolTableRecord
100
AcDbTextStyleTableRecord
  2
STANDARD
 70
     0
 40
0.0
 41
1.0
 50
0.0
 71
     0
 42
2.5
  3
TAHOMA.TTF
  4

1001
ACAD
1000
Tahoma
1071
       34
  0
STYLE
  5
55
330
3
100
AcDbSymbolTableRecord
100
AcDbTextStyleTableRecord
  2
Annotative
 70
     0
 40
0.0
 41
1.0
 50
0.0
 71
     0
 42
0.2
  3
txt
  4

1001
AcadAnnotative
1000
AnnotativeData
1002
{
1070
     1
1070
     1
1002
}
  0
STYLE
  5
8A
330
3
100
AcDbSymbolTableRecord
100
AcDbTextStyleTableRecord
  2
ACJISGDT
 70
     0
 40
0.0
 41
1.0
 50
0.0
 71
     0
 42
2.5
  3
amgdt.shx
  4
extfont2.shx
  0
STYLE
  5
8B
330
3
100
AcDbSymbolTableRecord
100
AcDbTextStyleTableRecord
  2

 70
     1
 40
0.0
 41
1.0
 50
0.0
 71
     0
 42
2.5
  3
genltshp.shx
  4

  0
STYLE
  5
8C
330
3
100
AcDbSymbolTableRecord
100
AcDbTextStyleTableRecord
  2
Note Text (JIS)
 70
     0
 40
0.0
 41
1.0
 50
0.0
 71
     0
 42
0.2
  3
TAHOMA.TTF
  4

1001
ACAD
1000
Tahoma
1071
      256
  0
STYLE
  5
8D
330
3
100
AcDbSymbolTableRecord
100
AcDbTextStyleTableRecord
  2
文字スタイル7
 70
     0
 40
0.0
 41
1.0
 50
0.0
 71
     0
 42
0.2
  3
TAHOMA.TTF
  4

1001
ACAD
1000
Tahoma
1071
      256
  0
STYLE
  5
8E
330
3
100
AcDbSymbolTableRecord
100
AcDbTextStyleTableRecord
  2
CustomTextStyle0
 70
     0
 40
3.5
 41
1.0
 50
0.0
 71
     0
 42
2.5
  3
TAHOMA.TTF
  4

1001
ACAD
1000
Tahoma
1071
      290
  0
STYLE
  5
8F
330
3
100
AcDbSymbolTableRecord
100
AcDbTextStyleTableRecord
  2
CustomTextStyle1
 70
     0
 40
3.5
 41
1.0
 50
0.0
 71
     0
 42
2.5
  3
TAHOMA.TTF
  4

1001
ACAD
1000
Tahoma
1071
      290
  0
STYLE
  5
90
330
3
100
AcDbSymbolTableRecord
100
AcDbTextStyleTableRecord
  2
CustomTextStyle2
 70
     0
 40
3.5
 41
1.0
 50
0.0
 71
     0
 42
2.5
  3
MS PGothic.ttf
  4

1001
ACAD
1000
MS PGothic
1071
      306
  0
STYLE
  5
91
330
3
100
AcDbSymbolTableRecord
100
AcDbTextStyleTableRecord
  2
CustomTextStyle3
 70
     0
 40
3.5
 41
1.0
 50
0.0
 71
     0
 42
2.5
  3
TAHOMA.TTF
  4

1001
ACAD
1000
Tahoma
1071
      290
  0
STYLE
  5
92
330
3
100
AcDbSymbolTableRecord
100
AcDbTextStyleTableRecord
  2
CustomTextStyle4
 70
     0
 40
3.5
 41
1.0
 50
0.0
 71
     0
 42
2.5
  3
MS PGothic.ttf
  4

1001
ACAD
1000
MS PGothic
1071
      306
  0
STYLE
  5
5E5
330
3
100
AcDbSymbolTableRecord
100
AcDbTextStyleTableRecord
  2
ACISOTS
 70
     0
 40
1.0
 41
1.0
 50
0.0
 71
     0
 42
2.5
  3
isocp.shx
  4
extfont.shx
  0
STYLE
  5
5E6
330
3
100
AcDbSymbolTableRecord
100
AcDbTextStyleTableRecord
  2
ACISOGDT
 70
     0
 40
0.0
 41
1.0
 50
0.0
 71
     0
 42
2.5
  3
amgdt.shx
  4

  0
ENDTAB
  0
TABLE
  2
VIEW
  5
6
330
0
100
AcDbSymbolTable
 70
     0
  0
ENDTAB
  0
TABLE
  2
UCS
  5
7
330
0
100
AcDbSymbolTable
 70
     0
  0
ENDTAB
  0
TABLE
  2
APPID
  5
9
330
0
100
AcDbSymbolTable
 70
    45
  0
APPID
  5
51
330
9
100
AcDbSymbolTableRecord
100
AcDbRegAppTableRecord
  2
ACAD
 70
     0
  0
APPID
  5
59
330
9
100
AcDbSymbolTableRecord
100
AcDbRegAppTableRecord
  2
AcadAnnotative
 70
     0
  0
APPID
  5
6F
330
9
100
AcDbSymbolTableRecord
100
AcDbRegAppTableRecord
  2
ACAD_PSEXT
 70
     0
  0
APPID
  5
71
330
9
100
AcDbSymbolTableRecord
100
AcDbRegAppTableRecord
  2
ACAD_DSTYLE_DIMJOGGED_JOGANGLE_SYMBOL
 70
     0
  0
APPID
  5
72
330
9
100
AcDbSymbolTableRecord
100
AcDbRegAppTableRecord
  2
ACAD_DSTYLE_DIMJAG
 70
     0
  0
APPID
  5
73
330
9
100
AcDbSymbolTableRecord
100
AcDbRegAppTableRecord
  2
ACAD_DSTYLE_DIMBREAK
 70
     0
  0
APPID
  5
74
330
9
100
AcDbSymbolTableRecord
100
AcDbRegAppTableRecord
  2
AcAecLayerStandard
 70
     0
  0
APPID
  5
75
330
9
100
AcDbSymbolTableRecord
100
AcDbRegAppTableRecord
  2
GENIUS_GENREC_14
 70
     0
  0
APPID
  5
76
330
9
100
AcDbSymbolTableRecord
100
AcDbRegAppTableRecord
  2
GENIUS_GENODEF_13
 70
     0
  0
APPID
  5
77
330
9
100
AcDbSymbolTableRecord
100
AcDbRegAppTableRecord
  2
GENIUS_GENOBJ-N-REC_13
 70
     0
  0
APPID
  5
78
330
9
100
AcDbSymbolTableRecord
100
AcDbRegAppTableRecord
  2
ACAD_DSTYLE_DIMTALN
 70
     0
  0
APPID
  5
79
330
9
100
AcDbSymbolTableRecord
100
AcDbRegAppTableRecord
  2
GENIUS_GENOENT_13
 70
     0
  0
APPID
  5
7A
330
9
100
AcDbSymbolTableRecord
100
AcDbRegAppTableRecord
  2
GENIUS_GENOBJ-N-FITL_13
 70
     0
  0
APPID
  5
7B
330
9
100
AcDbSymbolTableRecord
100
AcDbRegAppTableRecord
  2
GENIUS_GENOLIS_13
 70
     0
  0
APPID
  5
7C
330
9
100
AcDbSymbolTableRecord
100
AcDbRegAppTableRecord
  2
GENIUS_GENFITL_13
 70
     0
  0
APPID
  5
7D
330
9
100
AcDbSymbolTableRecord
100
AcDbRegAppTableRecord
  2
GENIUS_GENOREF_13
 70
     0
  0
APPID
  5
7E
330
9
100
AcDbSymbolTableRecord
100
AcDbRegAppTableRecord
  2
GENIUS_GENOBJ-N-RSSYM_13
 70
     0
  0
APPID
  5
7F
330
9
100
AcDbSymbolTableRecord
100
AcDbRegAppTableRecord
  2
GENIUS_GENSYMENT_13
 70
     0
  0
APPID
  5
80
330
9
100
AcDbSymbolTableRecord
100
AcDbRegAppTableRecord
  2
ACAD_DSTYLE_DIMINSPECT
 70
     0
  0
APPID
  5
81
330
9
100
AcDbSymbolTableRecord
100
AcDbRegAppTableRecord
  2
ACAD_DSTYLE_DIMRADIAL_EXTENSION
 70
     0
  0
APPID
  5
82
330
9
100
AcDbSymbolTableRecord
100
AcDbRegAppTableRecord
  2
GENIUS_GENSCREG_15
 70
     0
  0
APPID
  5
83
330
9
100
AcDbSymbolTableRecord
100
AcDbRegAppTableRecord
  2
GENIUS_GENOBJ-N-SDF_13
 70
     0
  0
APPID
  5
84
330
9
100
AcDbSymbolTableRecord
100
AcDbRegAppTableRecord
  2
GENIUS_GENOBJ-N-CRS_13
 70
     0
  0
APPID
  5
85
330
9
100
AcDbSymbolTableRecord
100
AcDbRegAppTableRecord
  2
AcDbDynamicBlockGUID
 70
     0
  0
APPID
  5
86
330
9
100
AcDbSymbolTableRecord
100
AcDbRegAppTableRecord
  2
GENIUS_AMGTXT_16
 70
     0
  0
APPID
  5
87
330
9
100
AcDbSymbolTableRecord
100
AcDbRegAppTableRecord
  2
GENIUS_GENOBJ-N-CEN_13
 70
     0
  0
APPID
  5
88
330
9
100
AcDbSymbolTableRecord
100
AcDbRegAppTableRecord
  2
GENIUS_GENCEN_19
 70
     0
  0
APPID
  5
89
330
9
100
AcDbSymbolTableRecord
100
AcDbRegAppTableRecord
  2
ACATTRIBSERVICES
 70
     0
  0
APPID
  5
44E
330
9
100
AcDbSymbolTableRecord
100
AcDbRegAppTableRecord
  2
DCO15
 70
     0
  0
APPID
  5
469
330
9
100
AcDbSymbolTableRecord
100
AcDbRegAppTableRecord
  2
MCAD_NO_VIS
 70
     0
  0
APPID
  5
46A
330
9
100
AcDbSymbolTableRecord
100
AcDbRegAppTableRecord
  2
ACAD_TEMP_GRAPHIC
 70
     0
  0
APPID
  5
46B
330
9
100
AcDbSymbolTableRecord
100
AcDbRegAppTableRecord
  2
AD_DRAW
 70
     0
  0
APPID
  5
46C
330
9
100
AcDbSymbolTableRecord
100
AcDbRegAppTableRecord
  2
DESIGNERASSEMBLIES
 70
     0
  0
APPID
  5
46D
330
9
100
AcDbSymbolTableRecord
100
AcDbRegAppTableRecord
  2
ACADM_DIM_EDIT
 70
     0
  0
APPID
  5
46E
330
9
100
AcDbSymbolTableRecord
100
AcDbRegAppTableRecord
  2
AMDT_DM_ADJ
 70
     0
  0
APPID
  5
46F
330
9
100
AcDbSymbolTableRecord
100
AcDbRegAppTableRecord
  2
ACAD_DSTYLE_DIMARC_LENGTH_SYMBOL
 70
     0
  0
APPID
  5
470
330
9
100
AcDbSymbolTableRecord
100
AcDbRegAppTableRecord
  2
ACAD_MLEADERVER
 70
     0
  0
APPID
  5
471
330
9
100
AcDbSymbolTableRecord
100
AcDbRegAppTableRecord
  2
ACAD_EXEMPT_FROM_CAD_STANDARDS
 70
     0
  0
APPID
  5
472
330
9
100
AcDbSymbolTableRecord
100
AcDbRegAppTableRecord
  2
AcadAnnoPO
 70
     0
  0
APPID
  5
473
330
9
100
AcDbSymbolTableRecord
100
AcDbRegAppTableRecord
  2
GENIUS_GENTRA_14
 70
     0
  0
APPID
  5
474
330
9
100
AcDbSymbolTableRecord
100
AcDbRegAppTableRecord
  2
GENIUS_GENSCSYM_13
 70
     0
  0
APPID
  5
55E
330
9
100
AcDbSymbolTableRecord
100
AcDbRegAppTableRecord
  2
ACAD_DSTYLE_DIM_LINETYPE
 70
     0
  0
APPID
  5
55F
330
9
100
AcDbSymbolTableRecord
100
AcDbRegAppTableRecord
  2
ACAD_DSTYLE_DIM_EXT1_LINETYPE
 70
     0
  0
APPID
  5
560
330
9
100
AcDbSymbolTableRecord
100
AcDbRegAppTableRecord
  2
ACAD_DSTYLE_DIM_EXT2_LINETYPE
 70
     0
  0
APPID
  5
E77
330
9
100
AcDbSymbolTableRecord
100
AcDbRegAppTableRecord
  2
ACAD_DSTYLE_DIMFLIPARROW_WHICH_SYMBOL
 70
     0
  0
ENDTAB
  0
TABLE
  2
DIMSTYLE
  5
A
330
0
100
AcDbSymbolTable
 70
    19
100
AcDbDimStyleTable
 71
     1
340
A2
  0
DIMSTYLE
105
53
330
A
100
AcDbSymbolTableRecord
100
AcDbDimStyleTableRecord
  2
Standard
 70
     0
340
50
  0
DIMSTYLE
105
54
330
A
100
AcDbSymbolTableRecord
100
AcDbDimStyleTableRecord
  2
Annotative
 70
     0
340
50
1001
AcadAnnotative
1000
AnnotativeData
1002
{
1070
     1
1070
     1
1002
}
  0
DIMSTYLE
105
A1
330
A
100
AcDbSymbolTableRecord
100
AcDbDimStyleTableRecord
  2
ISO-25
 70
     0
 41
2.5
 42
0.625
 43
3.75
 44
1.25
 73
     0
 74
     0
 77
     1
 78
     8
140
2.5
141
2.5
143
0.03937007874016
147
0.625
171
     3
172
     1
271
     2
272
     2
274
     3
278
    44
283
     0
284
     8
340
50
  0
DIMSTYLE
105
A2
330
A
100
AcDbSymbolTableRecord
100
AcDbDimStyleTableRecord
  2
AM_JIS
 70
     0
  4
"
 41
2.5
 42
0.5
 43
8.0
 44
1.0
 47
0.1
 48
0.1000000001
 73
     0
 74
     0
 77
     3
 78
     8
 79
     2
140
3.5
141
0.0
143
0.0393701
146
0.55
147
0.8
172
     1
176
   256
177
   256
178
   140
271
     3
272
     3
283
     0
284
     8
340
50
341
A3
342
A3
371
    -1
372
    -1
1001
ACAD_DSTYLE_DIMJOGGED_JOGANGLE_SYMBOL
1070
   384
1040
0.7853981633974483
1001
ACAD_DSTYLE_DIMBREAK
1070
   391
1040
3.75
1001
ACAD_DSTYLE_DIMJAG
1070
   388
1040
1.5
1001
ACAD_DSTYLE_DIMTALN
1070
   392
1070
     0
1001
ACAD_DSTYLE_DIMARC_LENGTH_SYMBOL
1070
   379
1070
     1
1001
ACAD_DSTYLE_DIM_LINETYPE
1070
   380
1005
56
1001
ACAD_DSTYLE_DIM_EXT1_LINETYPE
1070
   381
1005
56
1001
ACAD_DSTYLE_DIM_EXT2_LINETYPE
1070
   382
1005
56
  0
DIMSTYLE
105
A9
330
A
100
AcDbSymbolTableRecord
100
AcDbDimStyleTableRecord
  2
AM_JIS$3
 70
     0
  4
"
 41
2.5
 42
0.5
 43
8.0
 44
1.0
 47
0.1
 48
0.1000000001
 73
     0
 77
     3
 78
     8
 79
     2
140
3.5
141
0.0
143
0.0393701
146
0.55
147
0.8
176
   256
177
   256
178
   140
271
     3
272
     3
283
     0
284
     8
288
     1
289
     0
340
50
341
A3
342
A3
371
    -1
372
    -1
1001
ACAD_DSTYLE_DIMJOGGED_JOGANGLE_SYMBOL
1070
   384
1040
0.7853981633974483
1001
ACAD_DSTYLE_DIMBREAK
1070
   391
1040
3.75
1001
ACAD_DSTYLE_DIMJAG
1070
   388
1040
1.5
1001
ACAD_DSTYLE_DIMTALN
1070
   392
1070
     0
1001
ACAD_DSTYLE_DIMARC_LENGTH_SYMBOL
1070
   379
1070
     1
1001
ACAD_DSTYLE_DIM_LINETYPE
1070
   380
1005
56
1001
ACAD_DSTYLE_DIM_EXT1_LINETYPE
1070
   381
1005
56
1001
ACAD_DSTYLE_DIM_EXT2_LINETYPE
1070
   382
1005
56
  0
DIMSTYLE
105
AA
330
A
100
AcDbSymbolTableRecord
100
AcDbDimStyleTableRecord
  2
AM_JIS$4
 70
     0
  4
"
 41
2.5
 42
0.5
 43
8.0
 44
1.0
 47
0.1
 48
0.1000000001
 73
     0
 74
     0
 77
     3
 78
     8
 79
     2
140
3.5
141
0.0
143
0.0393701
146
0.55
147
0.8
172
     1
176
   256
177
   256
178
   140
271
     3
272
     3
283
     0
284
     8
340
50
341
A3
342
A3
371
    -1
372
    -1
1001
ACAD_DSTYLE_DIMJOGGED_JOGANGLE_SYMBOL
1070
   384
1040
0.7853981633974483
1001
ACAD_DSTYLE_DIMBREAK
1070
   391
1040
3.75
1001
ACAD_DSTYLE_DIMJAG
1070
   388
1040
1.5
1001
ACAD_DSTYLE_DIMTALN
1070
   392
1070
     0
1001
ACAD_DSTYLE_DIMARC_LENGTH_SYMBOL
1070
   379
1070
     1
1001
ACAD_DSTYLE_DIM_LINETYPE
1070
   380
1005
56
1001
ACAD_DSTYLE_DIM_EXT1_LINETYPE
1070
   381
1005
56
1001
ACAD_DSTYLE_DIM_EXT2_LINETYPE
1070
   382
1005
56
  0
DIMSTYLE
105
AB
330
A
100
AcDbSymbolTableRecord
100
AcDbDimStyleTableRecord
  2
AM_JIS$6
 70
     0
  4
"
 41
2.5
 42
0.5
 43
8.0
 44
1.0
 47
0.1
 48
0.1000000001
 73
     0
 74
     0
 78
     8
 79
     2
140
3.5
141
0.0
143
0.0393701
146
0.55
147
0.8
172
     1
176
   256
177
   256
178
   140
271
     3
272
     3
283
     0
284
     8
340
50
341
A3
342
A3
371
    -1
372
    -1
1001
ACAD_DSTYLE_DIMJOGGED_JOGANGLE_SYMBOL
1070
   384
1040
0.7853981633974483
1001
ACAD_DSTYLE_DIMBREAK
1070
   391
1040
3.75
1001
ACAD_DSTYLE_DIMJAG
1070
   388
1040
1.5
1001
ACAD_DSTYLE_DIMTALN
1070
   392
1070
     0
1001
ACAD_DSTYLE_DIMARC_LENGTH_SYMBOL
1070
   379
1070
     1
1001
ACAD_DSTYLE_DIM_LINETYPE
1070
   380
1005
56
1001
ACAD_DSTYLE_DIM_EXT1_LINETYPE
1070
   381
1005
56
1001
ACAD_DSTYLE_DIM_EXT2_LINETYPE
1070
   382
1005
56
  0
DIMSTYLE
105
AC
330
A
100
AcDbSymbolTableRecord
100
AcDbDimStyleTableRecord
  2
AM_JIS$7
 70
     0
  4
"
 41
2.5
 42
0.5
 43
8.0
 44
1.0
 47
0.1
 48
0.1000000001
 73
     0
 74
     0
 77
     3
 78
     8
 79
     2
140
3.5
141
0.0
143
0.0393701
146
0.55
147
0.8
172
     1
176
   256
177
   256
178
   140
271
     3
272
     3
283
     0
284
     8
340
50
341
A3
342
A3
371
    -1
372
    -1
1001
ACAD_DSTYLE_DIMJOGGED_JOGANGLE_SYMBOL
1070
   384
1040
0.7853981633974483
1001
ACAD_DSTYLE_DIMBREAK
1070
   391
1040
3.75
1001
ACAD_DSTYLE_DIMJAG
1070
   388
1040
1.5
1001
ACAD_DSTYLE_DIMTALN
1070
   392
1070
     0
1001
ACAD_DSTYLE_DIMARC_LENGTH_SYMBOL
1070
   379
1070
     1
1001
ACAD_DSTYLE_DIM_LINETYPE
1070
   380
1005
56
1001
ACAD_DSTYLE_DIM_EXT1_LINETYPE
1070
   381
1005
56
1001
ACAD_DSTYLE_DIM_EXT2_LINETYPE
1070
   382
1005
56
  0
DIMSTYLE
105
AD
330
A
100
AcDbSymbolTableRecord
100
AcDbDimStyleTableRecord
  2
AM_JIS$SF
 70
     0
  4
"
 41
2.5
 42
0.5
 43
8.0
 44
1.0
 47
0.1
 48
0.1000000001
 73
     0
 74
     0
 75
     1
 76
     1
 77
     3
 78
     8
 79
     2
140
3.5
141
0.0
143
0.0393701
146
0.55
147
0.8
172
     1
176
   256
177
   256
178
   140
271
     3
272
     3
283
     0
284
     8
340
50
341
A3
342
A3
371
    -1
372
    -1
1001
ACAD_DSTYLE_DIMJOGGED_JOGANGLE_SYMBOL
1070
   384
1040
0.7853981633974483
1001
ACAD_DSTYLE_DIMBREAK
1070
   391
1040
3.75
1001
ACAD_DSTYLE_DIMJAG
1070
   388
1040
1.5
1001
ACAD_DSTYLE_DIMTALN
1070
   392
1070
     0
1001
ACAD_DSTYLE_DIMARC_LENGTH_SYMBOL
1070
   379
1070
     1
1001
ACAD_DSTYLE_DIM_LINETYPE
1070
   380
1005
56
1001
ACAD_DSTYLE_DIM_EXT1_LINETYPE
1070
   381
1005
56
1001
ACAD_DSTYLE_DIM_EXT2_LINETYPE
1070
   382
1005
56
  0
DIMSTYLE
105
AE
330
A
100
AcDbSymbolTableRecord
100
AcDbDimStyleTableRecord
  2
AM_JIS$SH
 70
     0
  4
"
 41
2.5
 42
0.5
 43
8.0
 44
1.0
 47
0.1
 48
0.1000000001
 73
     0
 74
     0
 75
     1
 76
     1
 77
     3
 78
     8
 79
     2
140
3.5
141
0.0
143
0.0393701
144
2.0
146
0.55
147
0.8
172
     1
173
     1
176
   256
177
   256
178
   140
271
     3
272
     3
283
     0
284
     8
340
50
341
A3
342
A3
343
AF
371
    -1
372
    -1
1001
ACAD_DSTYLE_DIMJOGGED_JOGANGLE_SYMBOL
1070
   384
1040
0.7853981633974483
1001
ACAD_DSTYLE_DIMBREAK
1070
   391
1040
3.75
1001
ACAD_DSTYLE_DIMJAG
1070
   388
1040
1.5
1001
ACAD_DSTYLE_DIMTALN
1070
   392
1070
     0
1001
ACAD_DSTYLE_DIMARC_LENGTH_SYMBOL
1070
   379
1070
     1
1001
ACAD_DSTYLE_DIM_LINETYPE
1070
   380
1005
56
1001
ACAD_DSTYLE_DIM_EXT1_LINETYPE
1070
   381
1005
56
1001
ACAD_DSTYLE_DIM_EXT2_LINETYPE
1070
   382
1005
56
  0
DIMSTYLE
105
B3
102
{ACAD_REACTORS
330
BC1
330
BEB
330
C28
330
C5B
330
C8D
330
CAE
330
CCF
102
}
330
A
100
AcDbSymbolTableRecord
100
AcDbDimStyleTableRecord
  2
AM_JIS$0
 70
     0
  4
"
 41
2.5
 42
0.5
 43
8.0
 44
1.0
 47
0.1
 48
0.1000000001
 73
     0
 74
     0
 77
     3
 78
     8
 79
     2
140
3.5
141
0.0
143
0.0393701
146
0.55
147
0.8
172
     1
176
   256
177
   256
178
   140
271
     3
272
     3
283
     0
284
     8
340
50
341
A3
342
A3
371
    -1
372
    -1
1001
ACAD_DSTYLE_DIMBREAK
1070
   391
1040
3.75
1001
ACAD_DSTYLE_DIMJAG
1070
   388
1040
1.5
1001
ACAD_DSTYLE_DIMTALN
1070
   392
1070
     0
1001
ACAD_DSTYLE_DIMARC_LENGTH_SYMBOL
1070
   379
1070
     1
1001
ACAD_DSTYLE_DIM_LINETYPE
1070
   380
1005
56
1001
ACAD_DSTYLE_DIM_EXT1_LINETYPE
1070
   381
1005
56
1001
ACAD_DSTYLE_DIM_EXT2_LINETYPE
1070
   382
1005
56
  0
DIMSTYLE
105
B4
330
A
100
AcDbSymbolTableRecord
100
AcDbDimStyleTableRecord
  2
AM_JIS$2
 70
     0
  4
"
 41
2.5
 42
0.5
 43
8.0
 44
1.0
 47
0.1
 48
0.1000000001
 73
     0
 74
     0
 77
     3
 78
     8
 79
     2
140
3.5
141
0.0
143
0.0393701
146
0.55
147
0.8
172
     1
176
   256
177
   256
178
   140
271
     3
272
     3
283
     0
284
     8
340
50
341
A3
342
A3
371
    -1
372
    -1
1001
ACAD_DSTYLE_DIMJOGGED_JOGANGLE_SYMBOL
1070
   384
1040
0.7853981633974483
1001
ACAD_DSTYLE_DIMBREAK
1070
   391
1040
3.75
1001
ACAD_DSTYLE_DIMJAG
1070
   388
1040
1.5
1001
ACAD_DSTYLE_DIMTALN
1070
   392
1070
     0
1001
ACAD_DSTYLE_DIMARC_LENGTH_SYMBOL
1070
   379
1070
     1
1001
ACAD_DSTYLE_DIM_LINETYPE
1070
   380
1005
56
1001
ACAD_DSTYLE_DIM_EXT1_LINETYPE
1070
   381
1005
56
1001
ACAD_DSTYLE_DIM_EXT2_LINETYPE
1070
   382
1005
56
  0
DIMSTYLE
105
5DB
102
{ACAD_REACTORS
330
5CA
102
}
330
A
100
AcDbSymbolTableRecord
100
AcDbDimStyleTableRecord
  2
AM_ISO
 70
     0
  4
"
 41
3.5
 42
1.0
 43
10.0
 44
1.0
 47
0.1
 48
0.1
 73
     0
 74
     0
 77
     1
 78
     8
 79
     2
140
3.5
141
0.0
143
0.0393701
146
0.71
147
1.5
172
     1
176
   256
177
   256
178
     2
271
     2
272
     3
274
     4
283
     0
284
     8
340
50
371
    -1
372
    -1
1001
ACAD_DSTYLE_DIMJAG
1070
   388
1040
1.5
1001
ACAD_DSTYLE_DIMBREAK
1070
   391
1040
3.75
1001
ACAD_DSTYLE_DIMARC_LENGTH_SYMBOL
1070
   379
1070
     1
1001
ACAD_DSTYLE_DIM_LINETYPE
1070
   380
1005
56
1001
ACAD_DSTYLE_DIM_EXT1_LINETYPE
1070
   381
1005
56
1001
ACAD_DSTYLE_DIM_EXT2_LINETYPE
1070
   382
1005
56
  0
DIMSTYLE
105
5DD
330
A
100
AcDbSymbolTableRecord
100
AcDbDimStyleTableRecord
  2
AM_ISO$3
 70
     0
  4
"
 41
3.5
 42
1.0
 43
10.0
 44
1.0
 47
0.1
 48
0.1
 73
     0
 77
     1
 78
     8
 79
     2
140
3.5
141
0.0
143
0.0393701
146
0.71
147
1.5
176
   256
177
   256
178
     2
271
     2
272
     3
274
     4
283
     0
284
     8
288
     1
289
     0
340
50
371
    -1
372
    -1
1001
ACAD_DSTYLE_DIMBREAK
1070
   391
1040
3.75
1001
ACAD_DSTYLE_DIMJAG
1070
   388
1040
1.5
1001
ACAD_DSTYLE_DIMARC_LENGTH_SYMBOL
1070
   379
1070
     1
1001
ACAD_DSTYLE_DIM_LINETYPE
1070
   380
1005
56
1001
ACAD_DSTYLE_DIM_EXT1_LINETYPE
1070
   381
1005
56
1001
ACAD_DSTYLE_DIM_EXT2_LINETYPE
1070
   382
1005
56
  0
DIMSTYLE
105
5DE
330
A
100
AcDbSymbolTableRecord
100
AcDbDimStyleTableRecord
  2
AM_ISO$4
 70
     0
  4
"
 41
3.5
 42
1.0
 43
10.0
 44
1.0
 47
0.1
 48
0.1
 73
     0
 77
     1
 78
     8
 79
     2
140
3.5
141
0.0
143
0.0393701
146
0.71
147
1.5
176
   256
177
   256
178
     2
271
     2
272
     3
274
     4
283
     0
284
     8
288
     1
289
     0
340
50
371
    -1
372
    -1
1001
ACAD_DSTYLE_DIMBREAK
1070
   391
1040
3.75
1001
ACAD_DSTYLE_DIMJAG
1070
   388
1040
1.5
1001
ACAD_DSTYLE_DIMARC_LENGTH_SYMBOL
1070
   379
1070
     1
1001
ACAD_DSTYLE_DIM_LINETYPE
1070
   380
1005
56
1001
ACAD_DSTYLE_DIM_EXT1_LINETYPE
1070
   381
1005
56
1001
ACAD_DSTYLE_DIM_EXT2_LINETYPE
1070
   382
1005
56
  0
DIMSTYLE
105
5DF
330
A
100
AcDbSymbolTableRecord
100
AcDbDimStyleTableRecord
  2
AM_ISO$6
 70
     0
  4
"
 41
3.5
 42
1.0
 43
10.0
 44
1.0
 47
0.1
 48
0.1
 73
     0
 74
     0
 78
     8
 79
     2
140
3.5
141
0.0
143
0.0393701
146
0.71
147
1.5
172
     1
176
   256
177
   256
178
     2
271
     2
272
     3
274
     4
283
     0
284
     8
340
50
371
    -1
372
    -1
1001
ACAD_DSTYLE_DIMBREAK
1070
   391
1040
3.75
1001
ACAD_DSTYLE_DIMJAG
1070
   388
1040
1.5
1001
ACAD_DSTYLE_DIMARC_LENGTH_SYMBOL
1070
   379
1070
     1
1001
ACAD_DSTYLE_DIM_LINETYPE
1070
   380
1005
56
1001
ACAD_DSTYLE_DIM_EXT1_LINETYPE
1070
   381
1005
56
1001
ACAD_DSTYLE_DIM_EXT2_LINETYPE
1070
   382
1005
56
  0
DIMSTYLE
105
5E0
330
A
100
AcDbSymbolTableRecord
100
AcDbDimStyleTableRecord
  2
AM_ISO$7
 70
     0
  4
"
 41
3.5
 42
1.0
 43
10.0
 44
1.0
 47
0.1
 48
0.1
 73
     0
 74
     0
 77
     1
 78
     8
 79
     2
140
3.5
141
0.0
143
0.0393701
146
0.71
147
1.5
172
     1
176
   256
177
   256
178
     2
271
     2
272
     3
274
     4
283
     0
284
     8
340
50
371
    -1
372
    -1
1001
ACAD_DSTYLE_DIMBREAK
1070
   391
1040
3.75
1001
ACAD_DSTYLE_DIMJAG
1070
   388
1040
1.5
1001
ACAD_DSTYLE_DIMARC_LENGTH_SYMBOL
1070
   379
1070
     1
1001
ACAD_DSTYLE_DIM_LINETYPE
1070
   380
1005
56
1001
ACAD_DSTYLE_DIM_EXT1_LINETYPE
1070
   381
1005
56
1001
ACAD_DSTYLE_DIM_EXT2_LINETYPE
1070
   382
1005
56
  0
DIMSTYLE
105
5E1
330
A
100
AcDbSymbolTableRecord
100
AcDbDimStyleTableRecord
  2
AM_ISO$SF
 70
     0
  4
"
 41
3.5
 42
1.0
 43
10.0
 44
1.0
 47
0.1
 48
0.1
 73
     0
 74
     0
 75
     1
 76
     1
 77
     1
 78
     8
 79
     2
140
3.5
141
0.0
143
0.0393701
146
0.71
147
1.5
172
     1
176
   256
177
   256
178
     2
271
     2
272
     3
274
     4
283
     0
284
     8
340
50
371
    -1
372
    -1
1001
ACAD_DSTYLE_DIMBREAK
1070
   391
1040
3.75
1001
ACAD_DSTYLE_DIMJAG
1070
   388
1040
1.5
1001
ACAD_DSTYLE_DIMARC_LENGTH_SYMBOL
1070
   379
1070
     1
1001
ACAD_DSTYLE_DIM_LINETYPE
1070
   380
1005
56
1001
ACAD_DSTYLE_DIM_EXT1_LINETYPE
1070
   381
1005
56
1001
ACAD_DSTYLE_DIM_EXT2_LINETYPE
1070
   382
1005
56
  0
DIMSTYLE
105
5E2
330
A
100
AcDbSymbolTableRecord
100
AcDbDimStyleTableRecord
  2
AM_ISO$SH
 70
     0
  4
"
 41
3.5
 42
1.0
 43
10.0
 44
1.0
 47
0.1
 48
0.1
 73
     0
 74
     0
 75
     1
 76
     1
 77
     1
 78
     8
 79
     2
140
3.5
141
0.0
143
0.0393701
144
2.0
146
0.71
147
1.5
172
     1
173
     1
176
   256
177
   256
178
     2
271
     2
272
     3
274
     4
283
     0
284
     8
340
50
343
AF
371
    -1
372
    -1
1001
ACAD_DSTYLE_DIMBREAK
1070
   391
1040
3.75
1001
ACAD_DSTYLE_DIMJAG
1070
   388
1040
1.5
1001
ACAD_DSTYLE_DIMARC_LENGTH_SYMBOL
1070
   379
1070
     1
1001
ACAD_DSTYLE_DIM_LINETYPE
1070
   380
1005
56
1001
ACAD_DSTYLE_DIM_EXT1_LINETYPE
1070
   381
1005
56
1001
ACAD_DSTYLE_DIM_EXT2_LINETYPE
1070
   382
1005
56
  0
ENDTAB
  0
TABLE
  2
BLOCK_RECORD
  5
1
330
0
100
AcDbSymbolTable
 70
    50
  0
BLOCK_RECORD
  5
67
102
{ACAD_XDICTIONARY
360
3F2
102
}
330
1
100
AcDbSymbolTableRecord
100
AcDbBlockTableRecord
  2
*Model_Space
340
6A
  0
BLOCK_RECORD
  5
63
330
1
100
AcDbSymbolTableRecord
100
AcDbBlockTableRecord
  2
*Paper_Space
340
66
  0
BLOCK_RECORD
  5
6B
330
1
100
AcDbSymbolTableRecord
100
AcDbBlockTableRecord
  2
*Paper_Space0
340
6E
  0
BLOCK_RECORD
  5
A3
330
1
100
AcDbSymbolTableRecord
100
AcDbBlockTableRecord
  2
_Open
340
0
102
{BLKREFS
331
448
331
447
331
43D
331
43C
331
434
331
433
331
42B
331
42A
331
420
331
41F
331
415
331
414
331
40C
331
40B
331
403
331
402
331
3F8
331
3F7
331
BBB
331
BBC
331
DD1
331
DD2
331
DE5
331
DE6
331
DF0
331
DF1
331
DF9
331
DFA
331
E02
331
E03
331
E0B
331
E0C
331
E16
331
E17
102
}
  0
BLOCK_RECORD
  5
AF
330
1
100
AcDbSymbolTableRecord
100
AcDbBlockTableRecord
  2
GENAXEH
340
0
  0
BLOCK_RECORD
  5
21B
330
1
100
AcDbSymbolTableRecord
100
AcDbBlockTableRecord
  2
CustomObjectsInViewport2_0
340
0
  0
BLOCK_RECORD
  5
24C
330
1
100
AcDbSymbolTableRecord
100
AcDbBlockTableRecord
  2
*D4
340
0
  0
BLOCK_RECORD
  5
258
330
1
100
AcDbSymbolTableRecord
100
AcDbBlockTableRecord
  2
*D5
340
0
  0
BLOCK_RECORD
  5
266
330
1
100
AcDbSymbolTableRecord
100
AcDbBlockTableRecord
  2
*D6
340
0
  0
BLOCK_RECORD
  5
272
330
1
100
AcDbSymbolTableRecord
100
AcDbBlockTableRecord
  2
*D7
340
0
  0
BLOCK_RECORD
  5
27E
330
1
100
AcDbSymbolTableRecord
100
AcDbBlockTableRecord
  2
*D8
340
0
  0
BLOCK_RECORD
  5
28C
330
1
100
AcDbSymbolTableRecord
100
AcDbBlockTableRecord
  2
*D9
340
0
  0
BLOCK_RECORD
  5
29A
330
1
100
AcDbSymbolTableRecord
100
AcDbBlockTableRecord
  2
*D10
340
0
  0
BLOCK_RECORD
  5
2A6
330
1
100
AcDbSymbolTableRecord
100
AcDbBlockTableRecord
  2
*D11
340
0
  0
BLOCK_RECORD
  5
2B4
330
1
100
AcDbSymbolTableRecord
100
AcDbBlockTableRecord
  2
*D12
340
0
  0
BLOCK_RECORD
  5
62D
330
1
100
AcDbSymbolTableRecord
100
AcDbBlockTableRecord
  2
_Open30
340
0
102
{BLKREFS
331
638
331
639
331
646
331
647
331
653
331
656
331
663
331
666
331
675
331
676
331
681
331
682
331
68D
331
68E
331
965
331
966
331
970
331
971
331
97A
331
97D
331
987
331
98A
331
996
331
997
331
99F
331
9A0
331
9A8
331
9A9
331
B44
331
B45
331
B4F
331
B50
331
B59
331
B5C
331
B66
331
B69
331
B75
331
B76
331
B7E
331
B7F
331
B87
331
B88
102
}
  0
BLOCK_RECORD
  5
633
330
1
100
AcDbSymbolTableRecord
100
AcDbBlockTableRecord
  2
*D15
340
0
  0
BLOCK_RECORD
  5
63F
330
1
100
AcDbSymbolTableRecord
100
AcDbBlockTableRecord
  2
*D16
340
0
  0
BLOCK_RECORD
  5
64D
330
1
100
AcDbSymbolTableRecord
100
AcDbBlockTableRecord
  2
*D17
340
0
  0
BLOCK_RECORD
  5
65E
330
1
100
AcDbSymbolTableRecord
100
AcDbBlockTableRecord
  2
*D18
340
0
  0
BLOCK_RECORD
  5
66E
330
1
100
AcDbSymbolTableRecord
100
AcDbBlockTableRecord
  2
*D19
340
0
  0
BLOCK_RECORD
  5
67C
330
1
100
AcDbSymbolTableRecord
100
AcDbBlockTableRecord
  2
*D20
340
0
  0
BLOCK_RECORD
  5
688
330
1
100
AcDbSymbolTableRecord
100
AcDbBlockTableRecord
  2
*D21
340
0
  0
BLOCK_RECORD
  5
901
330
1
100
AcDbSymbolTableRecord
100
AcDbBlockTableRecord
  2
*D23
340
0
  0
BLOCK_RECORD
  5
90D
330
1
100
AcDbSymbolTableRecord
100
AcDbBlockTableRecord
  2
*D24
340
0
  0
BLOCK_RECORD
  5
91B
330
1
100
AcDbSymbolTableRecord
100
AcDbBlockTableRecord
  2
*D25
340
0
  0
BLOCK_RECORD
  5
92C
330
1
100
AcDbSymbolTableRecord
100
AcDbBlockTableRecord
  2
*D26
340
0
  0
BLOCK_RECORD
  5
93C
330
1
100
AcDbSymbolTableRecord
100
AcDbBlockTableRecord
  2
*D27
340
0
  0
BLOCK_RECORD
  5
94A
330
1
100
AcDbSymbolTableRecord
100
AcDbBlockTableRecord
  2
*D28
340
0
  0
BLOCK_RECORD
  5
956
330
1
100
AcDbSymbolTableRecord
100
AcDbBlockTableRecord
  2
*D29
340
0
  0
BLOCK_RECORD
  5
AE0
330
1
100
AcDbSymbolTableRecord
100
AcDbBlockTableRecord
  2
*D30
340
0
  0
BLOCK_RECORD
  5
AEC
330
1
100
AcDbSymbolTableRecord
100
AcDbBlockTableRecord
  2
*D31
340
0
  0
BLOCK_RECORD
  5
AFA
330
1
100
AcDbSymbolTableRecord
100
AcDbBlockTableRecord
  2
*D32
340
0
  0
BLOCK_RECORD
  5
B0B
330
1
100
AcDbSymbolTableRecord
100
AcDbBlockTableRecord
  2
*D33
340
0
  0
BLOCK_RECORD
  5
B1B
330
1
100
AcDbSymbolTableRecord
100
AcDbBlockTableRecord
  2
*D34
340
0
  0
BLOCK_RECORD
  5
B29
330
1
100
AcDbSymbolTableRecord
100
AcDbBlockTableRecord
  2
*D35
340
0
  0
BLOCK_RECORD
  5
B35
330
1
100
AcDbSymbolTableRecord
100
AcDbBlockTableRecord
  2
*D36
340
0
  0
BLOCK_RECORD
  5
B8F
330
1
100
AcDbSymbolTableRecord
100
AcDbBlockTableRecord
  2
*D37
340
0
  0
BLOCK_RECORD
  5
BC2
330
1
100
AcDbSymbolTableRecord
100
AcDbBlockTableRecord
  2
*D38
340
0
  0
BLOCK_RECORD
  5
BEC
330
1
100
AcDbSymbolTableRecord
100
AcDbBlockTableRecord
  2
*D39
340
0
  0
BLOCK_RECORD
  5
C29
330
1
100
AcDbSymbolTableRecord
100
AcDbBlockTableRecord
  2
*D40
340
0
  0
BLOCK_RECORD
  5
C5C
330
1
100
AcDbSymbolTableRecord
100
AcDbBlockTableRecord
  2
*D41
340
0
  0
BLOCK_RECORD
  5
C8E
330
1
100
AcDbSymbolTableRecord
100
AcDbBlockTableRecord
  2
*D42
340
0
  0
BLOCK_RECORD
  5
CAF
330
1
100
AcDbSymbolTableRecord
100
AcDbBlockTableRecord
  2
*D43
340
0
  0
BLOCK_RECORD
  5
CD0
330
1
100
AcDbSymbolTableRecord
100
AcDbBlockTableRecord
  2
*D44
340
0
  0
BLOCK_RECORD
  5
E1C
330
1
100
AcDbSymbolTableRecord
100
AcDbBlockTableRecord
  2
*S47
340
0
  0
BLOCK_RECORD
  5
E26
330
1
100
AcDbSymbolTableRecord
100
AcDbBlockTableRecord
  2
*S48
340
0
  0
BLOCK_RECORD
  5
E30
330
1
100
AcDbSymbolTableRecord
100
AcDbBlockTableRecord
  2
*S49
340
0
  0
ENDTAB
  0
ENDSEC
  0
SECTION
  2
BLOCKS
  0
BLOCK
  5
68
330
67
100
AcDbEntity
  8
0
100
AcDbBlockBegin
  2
*Model_Space
 70
     0
 10
0.0
 20
0.0
 30
0.0
  3
*Model_Space
  1

  0
ENDBLK
  5
69
330
67
100
AcDbEntity
  8
0
100
AcDbBlockEnd
  0
BLOCK
  5
64
330
63
100
AcDbEntity
 67
     1
  8
0
100
AcDbBlockBegin
  2
*Paper_Space
 70
     0
 10
0.0
 20
0.0
 30
0.0
  3
*Paper_Space
  1

  0
ENDBLK
  5
65
330
63
100
AcDbEntity
 67
     1
  8
0
100
AcDbBlockEnd
  0
BLOCK
  5
6C
330
6B
100
AcDbEntity
 67
     1
  8
0
100
AcDbBlockBegin
  2
*Paper_Space0
 70
     0
 10
0.0
 20
0.0
 30
0.0
  3
*Paper_Space0
  1

  0
ENDBLK
  5
6D
330
6B
100
AcDbEntity
 67
     1
  8
0
100
AcDbBlockEnd
  0
BLOCK
  5
4D7
330
A3
100
AcDbEntity
  8
0
100
AcDbBlockBegin
  2
_Open
 70
     0
 10
0.0
 20
0.0
 30
0.0
  3
_Open
  1

  0
LINE
  5
4D8
330
A3
100
AcDbEntity
  8
0
  6
ByBlock
 62
     0
370
    -2
100
AcDbLine
 10
-1.0
 20
0.1666666666666666
 30
0.0
 11
0.0
 21
0.0
 31
0.0
  0
LINE
  5
4D9
330
A3
100
AcDbEntity
  8
0
  6
ByBlock
 62
     0
370
    -2
100
AcDbLine
 10
-1.0
 20
-0.1666666666666666
 30
0.0
 11
0.0
 21
0.0
 31
0.0
  0
LINE
  5
4DA
330
A3
100
AcDbEntity
  8
0
  6
ByBlock
 62
     0
370
    -2
100
AcDbLine
 10
0.0
 20
0.0
 30
0.0
 11
-1.0
 21
0.0
 31
0.0
  0
ENDBLK
  5
4DB
330
A3
100
AcDbEntity
  8
0
100
AcDbBlockEnd
  0
BLOCK
  5
4E4
330
AF
100
AcDbEntity
  8
0
100
AcDbBlockBegin
  2
GENAXEH
 70
     0
 10
0.0
 20
0.0
 30
0.0
  3
GENAXEH
  1

  0
LINE
  5
4E5
330
AF
100
AcDbEntity
  8
0
100
AcDbLine
 10
-1.0
 20
0.0
 30
0.0
 11
1.0
 21
0.0
 31
0.0
  0
ENDBLK
  5
4E6
330
AF
100
AcDbEntity
  8
0
100
AcDbBlockEnd
  0
BLOCK
  5
21C
330
21B
100
AcDbEntity
  8
0
100
AcDbBlockBegin
  2
CustomObjectsInViewport2_0
 70
     0
 10
0.0
 20
0.0
 30
0.0
  3
CustomObjectsInViewport2_0
  1

  0
LINE
  5
21D
330
21B
100
AcDbEntity
  8
AM_5
100
AcDbLine
 10
189.8515174930885
 20
6.860758778172442
 30
0.0
 11
158.1418425474442
 21
6.860758778172442
 31
0.0
  0
LINE
  5
21E
330
21B
100
AcDbEntity
  8
AM_5
100
AcDbLine
 10
158.1418425474442
 20
6.860758778172442
 30
0.0
 11
167.2885587224564
 21
22.70333591570558
 31
0.0
  0
LINE
  5
21F
330
21B
100
AcDbEntity
  8
AM_5
  6
Continuous
100
AcDbLine
 10
167.2885587224564
 20
22.70333591570558
 30
0.0
 11
168.5385587224564
 21
24.86839942516668
 31
0.0
  0
LINE
  5
220
330
21B
100
AcDbEntity
  8
AM_5
  6
Continuous
100
AcDbLine
 10
167.6494026262661
 20
22.49500259070558
 30
0.0
 11
168.5385587224564
 21
24.86839942516668
 31
0.0
  0
LINE
  5
221
330
21B
100
AcDbEntity
  8
AM_5
  6
Continuous
100
AcDbLine
 10
168.5385587224564
 20
24.86839942516668
 30
0.0
 11
166.9277148186466
 21
22.91166924070557
 31
0.0
  0
TEXT
  5
222
330
21B
100
AcDbEntity
  8
AM_5
 62
   140
100
AcDbText
 10
163.0738143366077
 20
9.579193969576067
 30
0.0
 40
3.5
  1
S8B-EH(JST)
  7
CustomTextStyle0
100
AcDbText
  0
LINE
  5
223
330
21B
100
AcDbEntity
  8
AM_5
100
AcDbLine
 10
11.2891080003094
 20
66.16225614650028
 30
0.0
 11
39.48859436617451
 21
66.16225614650028
 31
0.0
  0
LINE
  5
224
330
21B
100
AcDbEntity
  8
AM_5
100
AcDbLine
 10
39.48859436617451
 20
66.16225614650028
 30
0.0
 11
33.65431209350131
 21
53.08090815687132
 31
0.0
  0
LINE
  5
225
330
21B
100
AcDbEntity
  8
AM_5
  6
Continuous
100
AcDbLine
 10
33.65431209350131
 20
53.08090815687132
 30
0.0
 11
32.63600081069292
 21
50.79769942105563
 31
0.0
  0
LINE
  5
226
330
21B
100
AcDbEntity
  8
AM_5
  6
Continuous
100
AcDbLine
 10
33.27377731942009
 20
53.25062669721731
 30
0.0
 11
32.63600081069292
 21
50.79769942105563
 31
0.0
  0
LINE
  5
227
330
21B
100
AcDbEntity
  8
AM_5
  6
Continuous
100
AcDbLine
 10
32.63600081069292
 20
50.79769942105563
 30
0.0
 11
34.03484686758254
 21
52.91118961652532
 31
0.0
  0
TEXT
  5
228
330
21B
100
AcDbEntity
  8
AM_5
 62
   140
100
AcDbText
 10
11.19508516619254
 20
66.87682968578839
 30
0.0
 40
3.5
  1
4-M2.6
  7
CustomTextStyle1
100
AcDbText
  0
TEXT
  5
229
330
21B
100
AcDbEntity
  8
AM_5
 62
   140
100
AcDbText
 10
11.01069890940031
 20
60.40713271609142
 30
0.0
 40
3.5
  1
有効深さ
  7
CustomTextStyle2
100
AcDbText
  0
TEXT
  5
22A
330
21B
100
AcDbEntity
  8
AM_5
 62
   140
100
AcDbText
 10
30.18115345485486
 20
60.40713271609142
 30
0.0
 40
3.5
  1
3
  7
CustomTextStyle3
100
AcDbText
  0
LINE
  5
22B
330
21B
100
AcDbEntity
  8
AM_5
100
AcDbLine
 10
11.2891080003094
 20
66.16225614650028
 30
0.0
 11
32.53642544948212
 21
66.16225614650028
 31
0.0
  0
LINE
  5
22C
330
21B
100
AcDbEntity
  8
AM_5
100
AcDbLine
 10
127.1009460144394
 20
61.03939097305294
 30
0.0
 11
103.8537869235304
 21
61.03939097305294
 31
0.0
  0
LINE
  5
22D
330
21B
100
AcDbEntity
  8
AM_5
100
AcDbLine
 10
103.8537869235304
 20
61.03939097305294
 30
0.0
 11
99.29647920755396
 21
52.288515042036
 31
0.0
  0
LWPOLYLINE
  5
22E
330
21B
100
AcDbEntity
  8
AM_5
  6
Continuous
100
AcDbPolyline
 90
        2
 70
   129
 43
0.4464285714285677
 10
97.91851660751541
 20
50.07118413967496
 42
1.0
 10
98.36494517894394
 20
50.07118413967496
 42
1.0
  0
LINE
  5
22F
330
21B
100
AcDbEntity
  8
AM_5
  6
Continuous
100
AcDbLine
 10
98.347935949359
 20
50.46713608652514
 30
0.0
 11
99.29647920755396
 21
52.288515042036
 31
0.0
  0
TEXT
  5
230
330
21B
100
AcDbEntity
  8
AM_5
 62
   140
100
AcDbText
 10
107.0157187417122
 20
63.3064364275984
 30
0.0
 40
3.5
  1
定格銘板
  7
CustomTextStyle4
100
AcDbText
  0
ENDBLK
  5
231
330
21B
100
AcDbEntity
  8
0
100
AcDbBlockEnd
  0
BLOCK
  5
24D
330
24C
100
AcDbEntity
  8
0
100
AcDbBlockBegin
  2
*D4
 70
     1
 10
0.0
 20
0.0
 30
0.0
  3
*D4
  1

  0
LINE
  5
3F4
330
24C
100
AcDbEntity
  8
AM_5
  6
ByBlock
100
AcDbLine
 10
128.0563990102494
 20
18.65925307102385
 30
0.0
 11
139.0564000102494
 21
18.65925307102384
 31
0.0
  0
LINE
  5
3F5
330
24C
100
AcDbEntity
  8
AM_5
  6
ByBlock
100
AcDbLine
 10
128.0563990102494
 20
54.65925307102384
 30
0.0
 11
139.0564000102494
 21
54.65925307102384
 31
0.0
  0
LINE
  5
3F6
330
24C
100
AcDbEntity
  8
AM_5
  6
ByBlock
100
AcDbLine
 10
138.0564000102494
 20
21.15925307102385
 30
0.0
 11
138.0564000102494
 21
52.15925307102384
 31
0.0
  0
INSERT
  5
3F7
330
24C
100
AcDbEntity
  8
AM_5
100
AcDbBlockReference
  2
_Open
 10
138.0564000102494
 20
18.65925307102384
 30
0.0
 41
2.5
 42
2.5
 43
2.5
 50
270.0
  0
INSERT
  5
3F8
330
24C
100
AcDbEntity
  8
AM_5
100
AcDbBlockReference
  2
_Open
 10
138.0564000102494
 20
54.65925307102384
 30
0.0
 41
2.5
 42
2.5
 43
2.5
 50
90.0
  0
MTEXT
  5
3F9
330
24C
100
AcDbEntity
  8
AM_5
 62
   140
100
AcDbMText
 10
135.4335323138089
 20
36.65925307102387
 30
0.0
 40
3.5
 41
0.0
 71
     5
 72
     1
  1
%%c36
 11
0.0000000000000001
 21
1.0
 31
0.0
 73
     1
 44
1.0
1001
ACAD
1000
MTEXTBEGIN
1070
    73
1070
     1
1070
    44
1040
1.0
1070
    74
1070
     0
1000
MTEXTEND
  0
POINT
  5
3FA
330
24C
100
AcDbEntity
  8
Defpoints
 62
     0
100
AcDbPoint
 10
127.5563990102494
 20
18.65925307102385
 30
0.0
  0
POINT
  5
3FB
330
24C
100
AcDbEntity
  8
Defpoints
 62
     0
100
AcDbPoint
 10
127.5563990102494
 20
54.65925307102384
 30
0.0
  0
POINT
  5
3FC
330
24C
100
AcDbEntity
  8
Defpoints
 62
     0
100
AcDbPoint
 10
138.0564000102494
 20
54.65925307102384
 30
0.0
  0
ENDBLK
  5
24E
330
24C
100
AcDbEntity
  8
0
100
AcDbBlockEnd
  0
BLOCK
  5
259
330
258
100
AcDbEntity
  8
0
100
AcDbBlockBegin
  2
*D5
 70
     1
 10
0.0
 20
0.0
 30
0.0
  3
*D5
  1

  0
LINE
  5
3FD
330
258
100
AcDbEntity
  8
AM_5
  6
ByBlock
100
AcDbLine
 10
88.05639901024944
 20
54.15925307102384
 30
0.0
 11
88.05639901024944
 21
62.65925307102385
 31
0.0
  0
LINE
  5
3FE
330
258
100
AcDbEntity
  8
AM_5
  6
ByBlock
100
AcDbLine
 10
86.05639901024945
 20
42.05925307102439
 30
0.0
 11
86.05639901024945
 21
62.65925307102385
 31
0.0
  0
LINE
  5
3FF
330
258
100
AcDbEntity
  8
AM_5
  6
ByBlock
100
AcDbLine
 10
83.55639901024943
 20
61.65925307102384
 30
0.0
 11
81.05639901024943
 21
61.65925307102384
 31
0.0
  0
LINE
  5
400
330
258
100
AcDbEntity
  8
AM_5
  6
ByBlock
100
AcDbLine
 10
90.55639901024944
 20
61.65925307102384
 30
0.0
 11
96.81657362408422
 21
61.65925307102384
 31
0.0
  0
LINE
  5
401
330
258
100
AcDbEntity
  8
AM_5
  6
ByBlock
100
AcDbLine
 10
86.05639901024945
 20
61.65925307102384
 30
0.0
 11
88.05639901024944
 21
61.65925307102384
 31
0.0
  0
INSERT
  5
402
330
258
100
AcDbEntity
  8
AM_5
100
AcDbBlockReference
  2
_Open
 10
86.05639901024945
 20
61.65925307102384
 30
0.0
 41
2.5
 42
2.5
 43
2.5
  0
INSERT
  5
403
330
258
100
AcDbEntity
  8
AM_5
100
AcDbBlockReference
  2
_Open
 10
88.05639901024944
 20
61.65925307102384
 30
0.0
 41
2.5
 42
2.5
 43
2.5
 50
180.0
  0
MTEXT
  5
404
330
258
100
AcDbEntity
  8
AM_5
 62
   140
100
AcDbMText
 10
94.93648631716681
 20
64.24568691924413
 30
0.0
 40
3.5
 41
0.0
 71
     5
 72
     1
  1
2
 73
     1
 44
1.0
1001
ACAD
1000
MTEXTBEGIN
1070
    73
1070
     1
1070
    44
1040
1.0
1070
    74
1070
     0
1000
MTEXTEND
  0
POINT
  5
405
330
258
100
AcDbEntity
  8
Defpoints
 62
     0
100
AcDbPoint
 10
88.05639901024944
 20
53.65925307102386
 30
0.0
  0
POINT
  5
406
330
258
100
AcDbEntity
  8
Defpoints
 62
     0
100
AcDbPoint
 10
86.05639901024945
 20
41.55925307102438
 30
0.0
  0
POINT
  5
407
330
258
100
AcDbEntity
  8
Defpoints
 62
     0
100
AcDbPoint
 10
86.05639901024945
 20
61.65925307102384
 30
0.0
  0
ENDBLK
  5
25A
330
258
100
AcDbEntity
  8
0
100
AcDbBlockEnd
  0
BLOCK
  5
267
330
266
100
AcDbEntity
  8
0
100
AcDbBlockBegin
  2
*D6
 70
     1
 10
0.0
 20
0.0
 30
0.0
  3
*D6
  1

  0
LINE
  5
408
330
266
100
AcDbEntity
  8
AM_5
  6
ByBlock
100
AcDbLine
 10
88.05639901024944
 20
54.15925307102384
 30
0.0
 11
88.05639901024944
 21
70.65925307102381
 31
0.0
  0
LINE
  5
409
330
266
100
AcDbEntity
  8
AM_5
  6
ByBlock
100
AcDbLine
 10
79.05639901024947
 20
37.90925307102385
 30
0.0
 11
79.05639901024947
 21
70.65925307102381
 31
0.0
  0
LINE
  5
40A
330
266
100
AcDbEntity
  8
AM_5
  6
ByBlock
100
AcDbLine
 10
85.55639901024944
 20
69.65925307102381
 30
0.0
 11
81.55639901024947
 21
69.65925307102381
 31
0.0
  0
INSERT
  5
40B
330
266
100
AcDbEntity
  8
AM_5
100
AcDbBlockReference
  2
_Open
 10
88.05639901024944
 20
69.65925307102381
 30
0.0
 41
2.5
 42
2.5
 43
2.5
  0
INSERT
  5
40C
330
266
100
AcDbEntity
  8
AM_5
100
AcDbBlockReference
  2
_Open
 10
79.05639901024947
 20
69.65925307102381
 30
0.0
 41
2.5
 42
2.5
 43
2.5
 50
180.0
  0
MTEXT
  5
40D
330
266
100
AcDbEntity
  8
AM_5
 62
   140
100
AcDbMText
 10
83.55639901024948
 20
72.278594911185
 30
0.0
 40
3.5
 41
0.0
 71
     5
 72
     1
  1
9
 73
     1
 44
1.0
1001
ACAD
1000
MTEXTBEGIN
1070
    73
1070
     1
1070
    44
1040
1.0
1070
    74
1070
     0
1000
MTEXTEND
  0
POINT
  5
40E
330
266
100
AcDbEntity
  8
Defpoints
 62
     0
100
AcDbPoint
 10
88.05639901024944
 20
53.65925307102386
 30
0.0
  0
POINT
  5
40F
330
266
100
AcDbEntity
  8
Defpoints
 62
     0
100
AcDbPoint
 10
79.05639901024947
 20
37.40925307102385
 30
0.0
  0
POINT
  5
410
330
266
100
AcDbEntity
  8
Defpoints
 62
     0
100
AcDbPoint
 10
79.05639901024947
 20
69.65925307102381
 30
0.0
  0
ENDBLK
  5
268
330
266
100
AcDbEntity
  8
0
100
AcDbBlockEnd
  0
BLOCK
  5
273
330
272
100
AcDbEntity
  8
0
100
AcDbBlockBegin
  2
*D7
 70
     1
 10
0.0
 20
0.0
 30
0.0
  3
*D7
  1

  0
LINE
  5
411
330
272
100
AcDbEntity
  8
AM_5
  6
ByBlock
100
AcDbLine
 10
88.05639901024944
 20
54.15925307102384
 30
0.0
 11
88.05639901024944
 21
70.65925307102379
 31
0.0
  0
LINE
  5
412
330
272
100
AcDbEntity
  8
AM_5
  6
ByBlock
100
AcDbLine
 10
129.0563990102494
 20
54.40925307102386
 30
0.0
 11
129.0563990102494
 21
70.65925307102379
 31
0.0
  0
LINE
  5
413
330
272
100
AcDbEntity
  8
AM_5
  6
ByBlock
100
AcDbLine
 10
90.55639901024944
 20
69.65925307102378
 30
0.0
 11
126.5563990102494
 21
69.65925307102378
 31
0.0
  0
INSERT
  5
414
330
272
100
AcDbEntity
  8
AM_5
100
AcDbBlockReference
  2
_Open
 10
88.05639901024944
 20
69.65925307102378
 30
0.0
 41
2.5
 42
2.5
 43
2.5
 50
180.0
  0
INSERT
  5
415
330
272
100
AcDbEntity
  8
AM_5
100
AcDbBlockReference
  2
_Open
 10
129.0563990102494
 20
69.65925307102378
 30
0.0
 41
2.5
 42
2.5
 43
2.5
  0
MTEXT
  5
416
330
272
100
AcDbEntity
  8
AM_5
 62
   140
100
AcDbMText
 10
108.5563990102494
 20
72.21512949815608
 30
0.0
 40
3.5
 41
0.0
 71
     5
 72
     1
  1
41
 73
     1
 44
1.0
1001
ACAD
1000
MTEXTBEGIN
1070
    73
1070
     1
1070
    44
1040
1.0
1070
    74
1070
     0
1000
MTEXTEND
  0
POINT
  5
417
330
272
100
AcDbEntity
  8
Defpoints
 62
     0
100
AcDbPoint
 10
88.05639901024944
 20
53.65925307102386
 30
0.0
  0
POINT
  5
418
330
272
100
AcDbEntity
  8
Defpoints
 62
     0
100
AcDbPoint
 10
129.0563990102494
 20
53.90925307102385
 30
0.0
  0
POINT
  5
419
330
272
100
AcDbEntity
  8
Defpoints
 62
     0
100
AcDbPoint
 10
129.0563990102494
 20
69.65925307102378
 30
0.0
  0
ENDBLK
  5
274
330
272
100
AcDbEntity
  8
0
100
AcDbBlockEnd
  0
BLOCK
  5
27F
330
27E
100
AcDbEntity
  8
0
100
AcDbBlockBegin
  2
*D8
 70
     1
 10
0.0
 20
0.0
 30
0.0
  3
*D8
  1

  0
LINE
  5
41A
330
27E
100
AcDbEntity
  8
AM_5
  6
ByBlock
100
AcDbLine
 10
129.0563990102494
 20
54.40925307102386
 30
0.0
 11
129.0563990102494
 21
70.65925307102379
 31
0.0
  0
LINE
  5
41B
330
27E
100
AcDbEntity
  8
AM_5
  6
ByBlock
100
AcDbLine
 10
130.0563990102494
 20
42.15925307102384
 30
0.0
 11
130.0563990102494
 21
70.65925307102379
 31
0.0
  0
LINE
  5
41C
330
27E
100
AcDbEntity
  8
AM_5
  6
ByBlock
100
AcDbLine
 10
126.5563990102494
 20
69.65925307102378
 30
0.0
 11
124.0563990102494
 21
69.65925307102378
 31
0.0
  0
LINE
  5
41D
330
27E
100
AcDbEntity
  8
AM_5
  6
ByBlock
100
AcDbLine
 10
132.5563990102494
 20
69.65925307102378
 30
0.0
 11
138.3629134494704
 21
69.65925307102378
 31
0.0
  0
LINE
  5
41E
330
27E
100
AcDbEntity
  8
AM_5
  6
ByBlock
100
AcDbLine
 10
129.0563990102494
 20
69.65925307102378
 30
0.0
 11
130.0563990102494
 21
69.65925307102378
 31
0.0
  0
INSERT
  5
41F
330
27E
100
AcDbEntity
  8
AM_5
100
AcDbBlockReference
  2
_Open
 10
129.0563990102494
 20
69.65925307102378
 30
0.0
 41
2.5
 42
2.5
 43
2.5
  0
INSERT
  5
420
330
27E
100
AcDbEntity
  8
AM_5
100
AcDbBlockReference
  2
_Open
 10
130.0563990102494
 20
69.65925307102378
 30
0.0
 41
2.5
 42
2.5
 43
2.5
 50
180.0
  0
MTEXT
  5
421
330
27E
100
AcDbEntity
  8
AM_5
 62
   140
100
AcDbMText
 10
136.7096562298599
 20
72.21512949815608
 30
0.0
 40
3.5
 41
0.0
 71
     5
 72
     1
  1
1
 73
     1
 44
1.0
1001
ACAD
1000
MTEXTBEGIN
1070
    73
1070
     1
1070
    44
1040
1.0
1070
    74
1070
     0
1000
MTEXTEND
  0
POINT
  5
422
330
27E
100
AcDbEntity
  8
Defpoints
 62
     0
100
AcDbPoint
 10
129.0563990102494
 20
53.90925307102385
 30
0.0
  0
POINT
  5
423
330
27E
100
AcDbEntity
  8
Defpoints
 62
     0
100
AcDbPoint
 10
130.0563990102494
 20
41.65925307102384
 30
0.0
  0
POINT
  5
424
330
27E
100
AcDbEntity
  8
Defpoints
 62
     0
100
AcDbPoint
 10
130.0563990102494
 20
69.65925307102378
 30
0.0
  0
ENDBLK
  5
280
330
27E
100
AcDbEntity
  8
0
100
AcDbBlockEnd
  0
BLOCK
  5
28D
330
28C
100
AcDbEntity
  8
0
100
AcDbBlockBegin
  2
*D9
 70
     1
 10
0.0
 20
0.0
 30
0.0
  3
*D9
  1

  0
LINE
  5
425
330
28C
100
AcDbEntity
  8
AM_5
  6
ByBlock
100
AcDbLine
 10
79.05639901024947
 20
35.40925307102385
 30
0.0
 11
68.55639800024949
 21
35.40925307102385
 31
0.0
  0
LINE
  5
426
330
28C
100
AcDbEntity
  8
AM_5
  6
ByBlock
100
AcDbLine
 10
79.05639901024947
 20
37.90925307102385
 30
0.0
 11
68.55639800024949
 21
37.90925307102385
 31
0.0
  0
LINE
  5
427
330
28C
100
AcDbEntity
  8
AM_5
  6
ByBlock
100
AcDbLine
 10
69.55639800024949
 20
32.90925307102385
 30
0.0
 11
69.55639800024947
 21
30.40925307102385
 31
0.0
  0
LINE
  5
428
330
28C
100
AcDbEntity
  8
AM_5
  6
ByBlock
100
AcDbLine
 10
69.55639800024949
 20
40.40925307102384
 30
0.0
 11
69.55639800024949
 21
53.77097234570484
 31
0.0
  0
LINE
  5
429
330
28C
100
AcDbEntity
  8
AM_5
  6
ByBlock
100
AcDbLine
 10
69.55639800024949
 20
35.40925307102385
 30
0.0
 11
69.55639800024949
 21
37.90925307102385
 31
0.0
  0
INSERT
  5
42A
330
28C
100
AcDbEntity
  8
AM_5
100
AcDbBlockReference
  2
_Open
 10
69.55639800024949
 20
35.40925307102385
 30
0.0
 41
2.5
 42
2.5
 43
2.5
 50
90.0
  0
INSERT
  5
42B
330
28C
100
AcDbEntity
  8
AM_5
100
AcDbBlockReference
  2
_Open
 10
69.55639800024949
 20
37.90925307102385
 30
0.0
 41
2.5
 42
2.5
 43
2.5
 50
270.0
  0
MTEXT
  5
42C
330
28C
100
AcDbEntity
  8
AM_5
 62
   140
100
AcDbMText
 10
66.93353030380889
 20
48.34011270836435
 30
0.0
 40
3.5
 41
0.0
 71
     5
 72
     1
  1
%%c2.5
 11
0.0000000000000001
 21
1.0
 31
0.0
 73
     1
 44
1.0
1001
ACAD
1000
MTEXTBEGIN
1070
    73
1070
     1
1070
    44
1040
1.0
1070
    74
1070
     0
1000
MTEXTEND
  0
POINT
  5
42D
330
28C
100
AcDbEntity
  8
Defpoints
 62
     0
100
AcDbPoint
 10
79.55639901024948
 20
35.40925307102385
 30
0.0
  0
POINT
  5
42E
330
28C
100
AcDbEntity
  8
Defpoints
 62
     0
100
AcDbPoint
 10
79.55639901024948
 20
37.90925307102385
 30
0.0
  0
POINT
  5
42F
330
28C
100
AcDbEntity
  8
Defpoints
 62
     0
100
AcDbPoint
 10
69.55639800024949
 20
37.90925307102385
 30
0.0
  0
ENDBLK
  5
28E
330
28C
100
AcDbEntity
  8
0
100
AcDbBlockEnd
  0
BLOCK
  5
29B
330
29A
100
AcDbEntity
  8
0
100
AcDbBlockBegin
  2
*D10
 70
     1
 10
0.0
 20
0.0
 30
0.0
  3
*D10
  1

  0
LINE
  5
430
330
29A
100
AcDbEntity
  8
AM_5
  6
ByBlock
100
AcDbLine
 10
85.6563990102494
 20
31.65925307102385
 30
0.0
 11
60.55639800024948
 21
31.65925307102385
 31
0.0
  0
LINE
  5
431
330
29A
100
AcDbEntity
  8
AM_5
  6
ByBlock
100
AcDbLine
 10
85.6563990102494
 20
41.65925307102384
 30
0.0
 11
60.55639800024948
 21
41.65925307102384
 31
0.0
  0
LINE
  5
432
330
29A
100
AcDbEntity
  8
AM_5
  6
ByBlock
100
AcDbLine
 10
61.55639800024949
 20
34.15925307102386
 30
0.0
 11
61.55639800024949
 21
39.15925307102386
 31
0.0
  0
INSERT
  5
433
330
29A
100
AcDbEntity
  8
AM_5
100
AcDbBlockReference
  2
_Open
 10
61.55639800024949
 20
31.65925307102385
 30
0.0
 41
2.5
 42
2.5
 43
2.5
 50
270.0
  0
INSERT
  5
434
330
29A
100
AcDbEntity
  8
AM_5
100
AcDbBlockReference
  2
_Open
 10
61.55639800024949
 20
41.65925307102384
 30
0.0
 41
2.5
 42
2.5
 43
2.5
 50
90.0
  0
MTEXT
  5
435
330
29A
100
AcDbEntity
  8
AM_5
 62
   140
100
AcDbMText
 10
58.93470558923539
 20
36.65925307102386
 30
0.0
 40
3.5
 41
0.0
 71
     5
 72
     1
  1
%%c10
 11
0.0000000000000001
 21
1.0
 31
0.0
 73
     1
 44
1.0
1001
ACAD
1000
MTEXTBEGIN
1070
    73
1070
     1
1070
    44
1040
1.0
1070
    74
1070
     0
1000
MTEXTEND
  0
POINT
  5
436
330
29A
100
AcDbEntity
  8
Defpoints
 62
     0
100
AcDbPoint
 10
86.15639901024939
 20
31.65925307102385
 30
0.0
  0
POINT
  5
437
330
29A
100
AcDbEntity
  8
Defpoints
 62
     0
100
AcDbPoint
 10
86.15639901024939
 20
41.65925307102384
 30
0.0
  0
POINT
  5
438
330
29A
100
AcDbEntity
  8
Defpoints
 62
     0
100
AcDbPoint
 10
61.55639800024949
 20
41.65925307102384
 30
0.0
  0
ENDBLK
  5
29C
330
29A
100
AcDbEntity
  8
0
100
AcDbBlockEnd
  0
BLOCK
  5
2A7
330
2A6
100
AcDbEntity
  8
0
100
AcDbBlockBegin
  2
*D11
 70
     1
 10
0.0
 20
0.0
 30
0.0
  3
*D11
  1

  0
LINE
  5
439
330
2A6
100
AcDbEntity
  8
AM_5
  6
ByBlock
100
AcDbLine
 10
17.71893559016553
 20
44.90925310007539
 30
0.0
 11
9.308700983830686
 21
49.76490442146817
 31
0.0
  0
LINE
  5
43A
330
2A6
100
AcDbEntity
  8
AM_5
  6
ByBlock
100
AcDbLine
 10
32.00835448663827
 20
15.15925307102385
 30
0.0
 11
32.00835448663826
 21
10.4479508052659
 31
0.0
  0
ARC
  5
43B
330
2A6
100
AcDbEntity
  8
AM_5
  6
ByBlock
100
AcDbCircle
 10
32.00835448663826
 20
36.65925307102385
 30
0.0
 40
25.21130226575795
100
AcDbArc
 50
155.6838867465483
 51
264.3161127042989
  0
INSERT
  5
43C
330
2A6
100
AcDbEntity
  8
AM_5
100
AcDbBlockReference
  2
_Open
 10
10.17472638282286
 20
49.26490441316772
 30
0.0
 41
2.5
 42
2.5
 43
2.5
 50
62.84194309869782
  0
INSERT
  5
43D
330
2A6
100
AcDbEntity
  8
AM_5
100
AcDbBlockReference
  2
_Open
 10
32.00835448663826
 20
11.4479508052659
 30
0.0
 41
2.5
 42
2.5
 43
2.5
 50
357.1580563521495
  0
MTEXT
  5
43E
102
{ACAD_XDICTIONARY
360
E71
102
}
330
2A6
100
AcDbEntity
  8
AM_5
 62
   140
100
AcDbMText
 10
13.05241404808835
 20
25.71503587720699
 30
0.0
 40
3.5
 41
0.0
 71
     5
 72
     1
  1
3-120\U+00B0
 11
0.49999999584978
 21
-0.8660254061805693
 31
0.0
 73
     1
 44
1.0
1001
ACAD
1000
MTEXTBEGIN
1070
    73
1070
     1
1070
    44
1040
1.0
1070
    74
1070
     0
1000
MTEXTEND
  0
POINT
  5
43F
330
2A6
100
AcDbEntity
  8
Defpoints
 62
     0
100
AcDbPoint
 10
7.180068523812219
 20
32.28135653460969
 30
0.0
  0
POINT
  5
440
330
2A6
100
AcDbEntity
  8
Defpoints
 62
     0
100
AcDbPoint
 10
32.00835448663826
 20
36.65925307102385
 30
0.0
  0
POINT
  5
441
330
2A6
100
AcDbEntity
  8
Defpoints
 62
     0
100
AcDbPoint
 10
34.60643068361481
 20
35.15925304612253
 30
0.0
  0
POINT
  5
442
330
2A6
100
AcDbEntity
  8
Defpoints
 62
     0
100
AcDbPoint
 10
18.15194828966162
 20
44.65925309592516
 30
0.0
  0
POINT
  5
443
330
2A6
100
AcDbEntity
  8
Defpoints
 62
     0
100
AcDbPoint
 10
32.00835448663827
 20
15.65925307102385
 30
0.0
  0
ENDBLK
  5
2A8
330
2A6
100
AcDbEntity
  8
0
100
AcDbBlockEnd
  0
BLOCK
  5
2B5
330
2B4
100
AcDbEntity
  8
0
100
AcDbBlockBegin
  2
*D12
 70
     1
 10
0.0
 20
0.0
 30
0.0
  3
*D12
  1

  0
LINE
  5
444
330
2B4
100
AcDbEntity
  8
AM_5
  6
ByBlock
100
AcDbLine
 10
22.11784455157133
 20
24.72494063903422
 30
0.0
 11
20.52260101365732
 21
22.80005153710041
 31
0.0
  0
LINE
  5
445
330
2B4
100
AcDbEntity
  8
AM_5
  6
ByBlock
100
AcDbLine
 10
41.89886442170521
 20
48.59356550301349
 30
0.0
 11
58.67536735187703
 21
68.83681168539602
 31
0.0
  0
LINE
  5
446
330
2B4
100
AcDbEntity
  8
AM_5
  6
ByBlock
100
AcDbLine
 10
23.71308808948536
 20
26.64982974096803
 30
0.0
 11
40.30362088379118
 21
46.66867640107969
 31
0.0
  0
INSERT
  5
447
330
2B4
100
AcDbEntity
  8
AM_5
100
AcDbBlockReference
  2
_Open
 10
23.71308808948536
 20
26.64982974096803
 30
0.0
 41
2.5
 42
2.5
 43
2.5
 50
50.34990560061237
  0
INSERT
  5
448
330
2B4
100
AcDbEntity
  8
AM_5
100
AcDbBlockReference
  2
_Open
 10
40.30362088379118
 20
46.66867640107969
 30
0.0
 41
2.5
 42
2.5
 43
2.5
 50
230.3499056006124
  0
MTEXT
  5
449
102
{ACAD_XDICTIONARY
360
E73
102
}
330
2B4
100
AcDbEntity
  8
AM_5
 62
   140
100
AcDbMText
 10
49.16514188180481
 20
61.56901718253791
 30
0.0
 40
3.5
 41
0.0
 71
     5
 72
     1
  1
P.C.D.\U+220526
 11
0.6380974151656084
 21
0.7699556407735249
 31
0.0
 73
     1
 44
1.0
1001
ACAD
1000
MTEXTBEGIN
1070
    73
1070
     1
1070
    44
1040
1.0
1070
    74
1070
     0
1000
MTEXTEND
  0
POINT
  5
44A
330
2B4
100
AcDbEntity
  8
Defpoints
 62
     0
100
AcDbPoint
 10
40.30362088379118
 20
46.66867640107969
 30
0.0
  0
POINT
  5
44B
330
2B4
100
AcDbEntity
  8
Defpoints
 62
     0
100
AcDbPoint
 10
23.71308808948536
 20
26.64982974096803
 30
0.0
  0
ENDBLK
  5
2B6
330
2B4
100
AcDbEntity
  8
0
100
AcDbBlockEnd
  0
BLOCK
  5
62E
330
62D
100
AcDbEntity
  8
0
100
AcDbBlockBegin
  2
_Open30
 70
     0
 10
0.0
 20
0.0
 30
0.0
  3
_Open30
  1

  0
LINE
  5
62F
330
62D
100
AcDbEntity
  8
0
  6
ByBlock
 62
     0
370
    -2
100
AcDbLine
 10
-1.0
 20
0.26794919
 30
0.0
 11
0.0
 21
0.0
 31
0.0
  0
LINE
  5
630
330
62D
100
AcDbEntity
  8
0
  6
ByBlock
 62
     0
370
    -2
100
AcDbLine
 10
0.0
 20
0.0
 30
0.0
 11
-1.0
 21
-0.26794919
 31
0.0
  0
LINE
  5
631
330
62D
100
AcDbEntity
  8
0
  6
ByBlock
 62
     0
370
    -2
100
AcDbLine
 10
0.0
 20
0.0
 30
0.0
 11
-1.0
 21
0.0
 31
0.0
  0
ENDBLK
  5
632
330
62D
100
AcDbEntity
  8
0
100
AcDbBlockEnd
  0
BLOCK
  5
634
330
633
100
AcDbEntity
  8
0
370
    30
100
AcDbBlockBegin
  2
*D15
 70
     1
 10
0.0
 20
0.0
 30
0.0
  3
*D15
  1

  0
LINE
  5
635
330
633
100
AcDbEntity
  8
0
 62
     0
370
     0
100
AcDbLine
 10
504.3815958096872
 20
3798.708094798696
 30
0.0
 11
480.1815958096869
 21
3798.708094798696
 31
0.0
  0
LINE
  5
636
330
633
100
AcDbEntity
  8
0
 62
     0
370
     0
100
AcDbLine
 10
504.3815958096872
 20
3770.708094798696
 30
0.0
 11
480.1815958096869
 21
3770.708094798696
 31
0.0
  0
LINE
  5
637
330
633
100
AcDbEntity
  8
0
 62
     0
370
     0
100
AcDbLine
 10
482.1815958096869
 20
3793.708094798696
 30
0.0
 11
482.1815958096869
 21
3775.708094798697
 31
0.0
  0
INSERT
  5
638
330
633
100
AcDbEntity
  8
0
 62
     0
370
     0
100
AcDbBlockReference
  2
_Open30
 10
482.1815958096869
 20
3798.708094798696
 30
0.0
 41
5.0
 42
5.0
 43
5.0
 50
90.0
  0
INSERT
  5
639
330
633
100
AcDbEntity
  8
0
 62
     0
370
     0
100
AcDbBlockReference
  2
_Open30
 10
482.1815958096869
 20
3770.708094798696
 30
0.0
 41
5.0
 42
5.0
 43
5.0
 50
270.0
  0
MTEXT
  5
63A
330
633
100
AcDbEntity
  8
0
 62
     0
100
AcDbMText
 10
477.6815958096863
 20
3784.708094798696
 30
0.0
 40
7.0
 41
0.0
 71
     5
 72
     1
  1
14
 11
0.0000000000000001
 21
1.0
 31
0.0
 73
     1
 44
1.0
1001
ACAD
1000
MTEXTBEGIN
1070
    73
1070
     1
1070
    44
1040
1.0
1070
    74
1070
     0
1000
MTEXTEND
  0
POINT
  5
63B
330
633
100
AcDbEntity
  8
Defpoints
 62
     0
370
    30
100
AcDbPoint
 10
505.3815958096873
 20
3798.708094798696
 30
0.0
  0
POINT
  5
63C
330
633
100
AcDbEntity
  8
Defpoints
 62
     0
370
    30
100
AcDbPoint
 10
505.3815958096873
 20
3770.708094798696
 30
0.0
  0
POINT
  5
63D
330
633
100
AcDbEntity
  8
Defpoints
 62
     0
370
    30
100
AcDbPoint
 10
482.1815958096869
 20
3770.708094798696
 30
0.0
  0
ENDBLK
  5
63E
330
633
100
AcDbEntity
  8
0
370
    30
100
AcDbBlockEnd
  0
BLOCK
  5
640
330
63F
100
AcDbEntity
  8
0
370
    30
100
AcDbBlockBegin
  2
*D16
 70
     1
 10
0.0
 20
0.0
 30
0.0
  3
*D16
  1

  0
LINE
  5
641
330
63F
100
AcDbEntity
  8
0
 62
     0
370
     0
100
AcDbLine
 10
593.0139168486298
 20
3786.708094798696
 30
0.0
 11
574.4139168486302
 21
3786.708094798696
 31
0.0
  0
LINE
  5
642
330
63F
100
AcDbEntity
  8
0
 62
     0
370
     0
100
AcDbLine
 10
593.0139168486298
 20
3782.708094798696
 30
0.0
 11
574.4139168486302
 21
3782.708094798696
 31
0.0
  0
LINE
  5
643
330
63F
100
AcDbEntity
  8
0
 62
     0
370
     0
100
AcDbLine
 10
576.4139168486302
 20
3777.708094798696
 30
0.0
 11
576.4139168486302
 21
3772.708094798697
 31
0.0
  0
LINE
  5
644
330
63F
100
AcDbEntity
  8
0
 62
     0
370
     0
100
AcDbLine
 10
576.4139168486302
 20
3791.708094798696
 30
0.0
 11
576.4139168486302
 21
3810.374761465363
 31
0.0
  0
LINE
  5
645
330
63F
100
AcDbEntity
  8
0
 62
     0
370
     0
100
AcDbLine
 10
576.4139168486302
 20
3782.708094798696
 30
0.0
 11
576.4139168486302
 21
3786.708094798696
 31
0.0
  0
INSERT
  5
646
330
63F
100
AcDbEntity
  8
0
 62
     0
370
     0
100
AcDbBlockReference
  2
_Open30
 10
576.4139168486302
 20
3782.708094798696
 30
0.0
 41
5.0
 42
5.0
 43
5.0
 50
90.0
  0
INSERT
  5
647
330
63F
100
AcDbEntity
  8
0
 62
     0
370
     0
100
AcDbBlockReference
  2
_Open30
 10
576.4139168486302
 20
3786.708094798696
 30
0.0
 41
5.0
 42
5.0
 43
5.0
 50
270.0
  0
MTEXT
  5
648
330
63F
100
AcDbEntity
  8
0
 62
     0
100
AcDbMText
 10
571.9139168486297
 20
3803.541428132029
 30
0.0
 40
7.0
 41
0.0
 71
     5
 72
     1
  1
%%C2
 11
0.0000000000000001
 21
1.0
 31
0.0
 73
     1
 44
1.0
1001
ACAD
1000
MTEXTBEGIN
1070
    73
1070
     1
1070
    44
1040
1.0
1070
    74
1070
     0
1000
MTEXTEND
  0
POINT
  5
649
330
63F
100
AcDbEntity
  8
Defpoints
 62
     0
370
    30
100
AcDbPoint
 10
594.0139168486298
 20
3786.708094798696
 30
0.0
  0
POINT
  5
64A
330
63F
100
AcDbEntity
  8
Defpoints
 62
     0
370
    30
100
AcDbPoint
 10
594.0139168486298
 20
3782.708094798696
 30
0.0
  0
POINT
  5
64B
330
63F
100
AcDbEntity
  8
Defpoints
 62
     0
370
    30
100
AcDbPoint
 10
576.4139168486302
 20
3782.708094798696
 30
0.0
  0
ENDBLK
  5
64C
330
63F
100
AcDbEntity
  8
0
370
    30
100
AcDbBlockEnd
  0
BLOCK
  5
64E
330
64D
100
AcDbEntity
  8
0
370
    30
100
AcDbBlockBegin
  2
*D17
 70
     1
 10
0.0
 20
0.0
 30
0.0
  3
*D17
  1

  0
LINE
  5
64F
330
64D
100
AcDbEntity
  8
0
 62
     0
370
     0
100
AcDbLine
 10
603.6139168486297
 20
3794.708094798696
 30
0.0
 11
562.4139168486302
 21
3794.708094798696
 31
0.0
  0
LINE
  5
650
330
64D
100
AcDbEntity
  8
0
 62
     0
370
     0
100
AcDbLine
 10
603.6139168486297
 20
3774.708094798696
 30
0.0
 11
562.4139168486302
 21
3774.708094798696
 31
0.0
  0
LINE
  5
651
330
64D
100
AcDbEntity
  8
0
 62
     0
370
     0
100
AcDbLine
 10
564.4139168486303
 20
3779.708094798696
 30
0.0
 11
564.4139168486303
 21
3789.708094798696
 31
0.0
  0
LINE
  5
652
330
64D
100
AcDbEntity
  8
0
 62
     0
370
     0
100
AcDbLine
 10
564.4139168486303
 20
3794.708094798696
 30
0.0
 11
564.4139168486303
 21
3823.291428132029
 31
0.0
  0
INSERT
  5
653
330
64D
100
AcDbEntity
  8
0
 62
     0
370
     0
100
AcDbBlockReference
  2
_Open30
 10
564.4139168486303
 20
3774.708094798696
 30
0.0
 41
5.0
 42
5.0
 43
5.0
 50
90.0
  0
LINE
  5
654
330
64D
100
AcDbEntity
  8
0
 62
     0
370
     0
100
AcDbLine
 10
564.4139168486303
 20
3769.708094798696
 30
0.0
 11
564.4139168486303
 21
3764.708094798697
 31
0.0
  0
LINE
  5
655
330
64D
100
AcDbEntity
  8
0
 62
     0
370
     0
100
AcDbLine
 10
564.4139168486303
 20
3774.708094798696
 30
0.0
 11
564.4139168486303
 21
3779.708094798696
 31
0.0
  0
INSERT
  5
656
330
64D
100
AcDbEntity
  8
0
 62
     0
370
     0
100
AcDbBlockReference
  2
_Open30
 10
564.4139168486303
 20
3794.708094798696
 30
0.0
 41
5.0
 42
5.0
 43
5.0
 50
270.0
  0
LINE
  5
657
330
64D
100
AcDbEntity
  8
0
 62
     0
370
     0
100
AcDbLine
 10
564.4139168486303
 20
3799.708094798696
 30
0.0
 11
564.4139168486303
 21
3804.708094798697
 31
0.0
  0
LINE
  5
658
330
64D
100
AcDbEntity
  8
0
 62
     0
370
     0
100
AcDbLine
 10
564.4139168486303
 20
3794.708094798696
 30
0.0
 11
564.4139168486303
 21
3789.708094798696
 31
0.0
  0
MTEXT
  5
659
330
64D
100
AcDbEntity
  8
0
 62
     0
100
AcDbMText
 10
559.9139168486297
 20
3814.708094798696
 30
0.0
 40
7.0
 41
0.0
 71
     5
 72
     1
  1
%%C10
 11
0.0000000000000001
 21
1.0
 31
0.0
 73
     1
 44
1.0
1001
ACAD
1000
MTEXTBEGIN
1070
    73
1070
     1
1070
    44
1040
1.0
1070
    74
1070
     0
1000
MTEXTEND
  0
POINT
  5
65A
330
64D
100
AcDbEntity
  8
Defpoints
 62
     0
370
    30
100
AcDbPoint
 10
604.6139168486297
 20
3794.708094798696
 30
0.0
  0
POINT
  5
65B
330
64D
100
AcDbEntity
  8
Defpoints
 62
     0
370
    30
100
AcDbPoint
 10
604.6139168486297
 20
3774.708094798696
 30
0.0
  0
POINT
  5
65C
330
64D
100
AcDbEntity
  8
Defpoints
 62
     0
370
    30
100
AcDbPoint
 10
564.4139168486303
 20
3774.708094798696
 30
0.0
  0
ENDBLK
  5
65D
330
64D
100
AcDbEntity
  8
0
370
    30
100
AcDbBlockEnd
  0
BLOCK
  5
65F
330
65E
100
AcDbEntity
  8
0
370
    30
100
AcDbBlockBegin
  2
*D18
 70
     1
 10
0.0
 20
0.0
 30
0.0
  3
*D18
  1

  0
LINE
  5
660
330
65E
100
AcDbEntity
  8
0
 62
     0
370
     0
100
AcDbLine
 10
593.6139168486297
 20
3787.308094798696
 30
0.0
 11
593.6139168486297
 21
3843.708094798696
 31
0.0
  0
LINE
  5
661
330
65E
100
AcDbEntity
  8
0
 62
     0
370
     0
100
AcDbLine
 10
607.6139168486299
 20
3804.708094798697
 30
0.0
 11
607.6139168486299
 21
3843.708094798696
 31
0.0
  0
LINE
  5
662
330
65E
100
AcDbEntity
  8
0
 62
     0
370
     0
100
AcDbLine
 10
598.6139168486297
 20
3841.708094798696
 30
0.0
 11
602.6139168486298
 21
3841.708094798696
 31
0.0
  0
INSERT
  5
663
330
65E
100
AcDbEntity
  8
0
 62
     0
370
     0
100
AcDbBlockReference
  2
_Open30
 10
593.6139168486297
 20
3841.708094798696
 30
0.0
 41
5.0
 42
5.0
 43
5.0
  0
LINE
  5
664
330
65E
100
AcDbEntity
  8
0
 62
     0
370
     0
100
AcDbLine
 10
588.6139168486297
 20
3841.708094798696
 30
0.0
 11
583.6139168486297
 21
3841.708094798696
 31
0.0
  0
LINE
  5
665
330
65E
100
AcDbEntity
  8
0
 62
     0
370
     0
100
AcDbLine
 10
593.6139168486297
 20
3841.708094798696
 30
0.0
 11
598.6139168486297
 21
3841.708094798696
 31
0.0
  0
INSERT
  5
666
330
65E
100
AcDbEntity
  8
0
 62
     0
370
     0
100
AcDbBlockReference
  2
_Open30
 10
607.6139168486299
 20
3841.708094798696
 30
0.0
 41
5.0
 42
5.0
 43
5.0
 50
180.0
  0
LINE
  5
667
330
65E
100
AcDbEntity
  8
0
 62
     0
370
     0
100
AcDbLine
 10
612.6139168486298
 20
3841.708094798696
 30
0.0
 11
617.6139168486298
 21
3841.708094798696
 31
0.0
  0
LINE
  5
668
330
65E
100
AcDbEntity
  8
0
 62
     0
370
     0
100
AcDbLine
 10
607.6139168486299
 20
3841.708094798696
 30
0.0
 11
602.6139168486298
 21
3841.708094798696
 31
0.0
  0
MTEXT
  5
669
330
65E
100
AcDbEntity
  8
0
 62
     0
100
AcDbMText
 10
600.6139168486297
 20
3846.208094798696
 30
0.0
 40
7.0
 41
0.0
 71
     5
 72
     1
  1
7
 73
     1
 44
1.0
1001
ACAD
1000
MTEXTBEGIN
1070
    73
1070
     1
1070
    44
1040
1.0
1070
    74
1070
     0
1000
MTEXTEND
  0
POINT
  5
66A
330
65E
100
AcDbEntity
  8
Defpoints
 62
     0
370
    30
100
AcDbPoint
 10
593.6139168486297
 20
3786.308094798697
 30
0.0
  0
POINT
  5
66B
330
65E
100
AcDbEntity
  8
Defpoints
 62
     0
370
    30
100
AcDbPoint
 10
607.6139168486299
 20
3803.708094798696
 30
0.0
  0
POINT
  5
66C
330
65E
100
AcDbEntity
  8
Defpoints
 62
     0
370
    30
100
AcDbPoint
 10
607.6139168486299
 20
3841.708094798696
 30
0.0
  0
ENDBLK
  5
66D
330
65E
100
AcDbEntity
  8
0
370
    30
100
AcDbBlockEnd
  0
BLOCK
  5
66F
330
66E
100
AcDbEntity
  8
0
370
    30
100
AcDbBlockBegin
  2
*D19
 70
     1
 10
0.0
 20
0.0
 30
0.0
  3
*D19
  1

  0
LINE
  5
670
330
66E
100
AcDbEntity
  8
0
 62
     0
370
     0
100
AcDbLine
 10
604.6139168486297
 20
3795.708094798696
 30
0.0
 11
604.6139168486297
 21
3831.708094798696
 31
0.0
  0
LINE
  5
671
330
66E
100
AcDbEntity
  8
0
 62
     0
370
     0
100
AcDbLine
 10
607.6139168486299
 20
3804.708094798697
 30
0.0
 11
607.6139168486299
 21
3831.708094798696
 31
0.0
  0
LINE
  5
672
330
66E
100
AcDbEntity
  8
0
 62
     0
370
     0
100
AcDbLine
 10
599.6139168486297
 20
3829.708094798697
 30
0.0
 11
594.6139168486297
 21
3829.708094798697
 31
0.0
  0
LINE
  5
673
330
66E
100
AcDbEntity
  8
0
 62
     0
370
     0
100
AcDbLine
 10
612.6139168486298
 20
3829.708094798697
 30
0.0
 11
631.2805835152964
 21
3829.708094798697
 31
0.0
  0
LINE
  5
674
330
66E
100
AcDbEntity
  8
0
 62
     0
370
     0
100
AcDbLine
 10
604.6139168486297
 20
3829.708094798697
 30
0.0
 11
607.6139168486299
 21
3829.708094798697
 31
0.0
  0
INSERT
  5
675
330
66E
100
AcDbEntity
  8
0
 62
     0
370
     0
100
AcDbBlockReference
  2
_Open30
 10
604.6139168486297
 20
3829.708094798697
 30
0.0
 41
5.0
 42
5.0
 43
5.0
  0
INSERT
  5
676
330
66E
100
AcDbEntity
  8
0
 62
     0
370
     0
100
AcDbBlockReference
  2
_Open30
 10
607.6139168486299
 20
3829.708094798697
 30
0.0
 41
5.0
 42
5.0
 43
5.0
 50
180.0
  0
MTEXT
  5
677
330
66E
100
AcDbEntity
  8
0
 62
     0
100
AcDbMText
 10
624.4472501819632
 20
3834.208094798697
 30
0.0
 40
7.0
 41
0.0
 71
     5
 72
     1
  1
1.5
 73
     1
 44
1.0
1001
ACAD
1000
MTEXTBEGIN
1070
    73
1070
     1
1070
    44
1040
1.0
1070
    74
1070
     0
1000
MTEXTEND
  0
POINT
  5
678
330
66E
100
AcDbEntity
  8
Defpoints
 62
     0
370
    30
100
AcDbPoint
 10
604.6139168486297
 20
3794.708094798696
 30
0.0
  0
POINT
  5
679
330
66E
100
AcDbEntity
  8
Defpoints
 62
     0
370
    30
100
AcDbPoint
 10
607.6139168486299
 20
3803.708094798696
 30
0.0
  0
POINT
  5
67A
330
66E
100
AcDbEntity
  8
Defpoints
 62
     0
370
    30
100
AcDbPoint
 10
607.6139168486299
 20
3829.708094798697
 30
0.0
  0
ENDBLK
  5
67B
330
66E
100
AcDbEntity
  8
0
370
    30
100
AcDbBlockEnd
  0
BLOCK
  5
67D
330
67C
100
AcDbEntity
  8
0
370
    30
100
AcDbBlockBegin
  2
*D20
 70
     1
 10
0.0
 20
0.0
 30
0.0
  3
*D20
  1

  0
LINE
  5
67E
330
67C
100
AcDbEntity
  8
0
 62
     0
370
     0
100
AcDbLine
 10
607.6139168486299
 20
3804.708094798697
 30
0.0
 11
607.6139168486299
 21
3843.708094798696
 31
0.0
  0
LINE
  5
67F
330
67C
100
AcDbEntity
  8
0
 62
     0
370
     0
100
AcDbLine
 10
675.6139168486299
 20
3806.581762420847
 30
0.0
 11
675.6139168486299
 21
3843.708094798696
 31
0.0
  0
LINE
  5
680
330
67C
100
AcDbEntity
  8
0
 62
     0
370
     0
100
AcDbLine
 10
612.6139168486298
 20
3841.708094798696
 30
0.0
 11
670.6139168486299
 21
3841.708094798696
 31
0.0
  0
INSERT
  5
681
330
67C
100
AcDbEntity
  8
0
 62
     0
370
     0
100
AcDbBlockReference
  2
_Open30
 10
607.6139168486299
 20
3841.708094798696
 30
0.0
 41
5.0
 42
5.0
 43
5.0
 50
180.0
  0
INSERT
  5
682
330
67C
100
AcDbEntity
  8
0
 62
     0
370
     0
100
AcDbBlockReference
  2
_Open30
 10
675.6139168486299
 20
3841.708094798696
 30
0.0
 41
5.0
 42
5.0
 43
5.0
  0
MTEXT
  5
683
330
67C
100
AcDbEntity
  8
0
 62
     0
100
AcDbMText
 10
641.6139168486299
 20
3846.208094798696
 30
0.0
 40
7.0
 41
0.0
 71
     5
 72
     1
  1
34
 73
     1
 44
1.0
1001
ACAD
1000
MTEXTBEGIN
1070
    73
1070
     1
1070
    44
1040
1.0
1070
    74
1070
     0
1000
MTEXTEND
  0
POINT
  5
684
330
67C
100
AcDbEntity
  8
Defpoints
 62
     0
370
    30
100
AcDbPoint
 10
607.6139168486299
 20
3803.708094798696
 30
0.0
  0
POINT
  5
685
330
67C
100
AcDbEntity
  8
Defpoints
 62
     0
370
    30
100
AcDbPoint
 10
675.6139168486299
 20
3805.581762420846
 30
0.0
  0
POINT
  5
686
330
67C
100
AcDbEntity
  8
Defpoints
 62
     0
370
    30
100
AcDbPoint
 10
675.6139168486299
 20
3841.708094798696
 30
0.0
  0
ENDBLK
  5
687
330
67C
100
AcDbEntity
  8
0
370
    30
100
AcDbBlockEnd
  0
BLOCK
  5
689
330
688
100
AcDbEntity
  8
0
370
    30
100
AcDbBlockBegin
  2
*D21
 70
     1
 10
0.0
 20
0.0
 30
0.0
  3
*D21
  1

  0
LINE
  5
68A
330
688
100
AcDbEntity
  8
0
 62
     0
370
     0
100
AcDbLine
 10
675.6139168486297
 20
3806.708094798696
 30
0.0
 11
695.7340462857257
 21
3806.708094798696
 31
0.0
  0
LINE
  5
68B
330
688
100
AcDbEntity
  8
0
 62
     0
370
     0
100
AcDbLine
 10
675.6139168486297
 20
3762.708094798696
 30
0.0
 11
695.7340462857257
 21
3762.708094798696
 31
0.0
  0
LINE
  5
68C
330
688
100
AcDbEntity
  8
0
 62
     0
370
     0
100
AcDbLine
 10
693.7340462857257
 20
3801.708094798696
 30
0.0
 11
693.7340462857257
 21
3767.708094798696
 31
0.0
  0
INSERT
  5
68D
330
688
100
AcDbEntity
  8
0
 62
     0
370
     0
100
AcDbBlockReference
  2
_Open30
 10
693.7340462857257
 20
3806.708094798696
 30
0.0
 41
5.0
 42
5.0
 43
5.0
 50
90.0
  0
INSERT
  5
68E
330
688
100
AcDbEntity
  8
0
 62
     0
370
     0
100
AcDbBlockReference
  2
_Open30
 10
693.7340462857257
 20
3762.708094798696
 30
0.0
 41
5.0
 42
5.0
 43
5.0
 50
270.0
  0
MTEXT
  5
68F
330
688
100
AcDbEntity
  8
0
 62
     0
100
AcDbMText
 10
689.2340462857251
 20
3784.708094798696
 30
0.0
 40
7.0
 41
0.0
 71
     5
 72
     1
  1
%%C22
 11
0.0000000000000001
 21
1.0
 31
0.0
 73
     1
 44
1.0
1001
ACAD
1000
MTEXTBEGIN
1070
    73
1070
     1
1070
    44
1040
1.0
1070
    74
1070
     0
1000
MTEXTEND
  0
POINT
  5
690
330
688
100
AcDbEntity
  8
Defpoints
 62
     0
370
    30
100
AcDbPoint
 10
674.6139168486297
 20
3806.708094798696
 30
0.0
  0
POINT
  5
691
330
688
100
AcDbEntity
  8
Defpoints
 62
     0
370
    30
100
AcDbPoint
 10
674.6139168486297
 20
3762.708094798696
 30
0.0
  0
POINT
  5
692
330
688
100
AcDbEntity
  8
Defpoints
 62
     0
370
    30
100
AcDbPoint
 10
693.7340462857257
 20
3762.708094798696
 30
0.0
  0
ENDBLK
  5
693
330
688
100
AcDbEntity
  8
0
370
    30
100
AcDbBlockEnd
  0
BLOCK
  5
902
330
901
100
AcDbEntity
  8
0
100
AcDbBlockBegin
  2
*D23
 70
     1
 10
0.0
 20
0.0
 30
0.0
  3
*D23
  1

  0
LINE
  5
962
330
901
100
AcDbEntity
  8
0
 62
     0
370
    -2
100
AcDbLine
 10
41.5016814924395
 20
184.5579233607291
 30
0.0
 11
17.30168149243858
 21
184.5579233607291
 31
0.0
  0
LINE
  5
963
330
901
100
AcDbEntity
  8
0
 62
     0
370
    -2
100
AcDbLine
 10
41.5016814924395
 20
156.5579233607291
 30
0.0
 11
17.30168149243857
 21
156.5579233607291
 31
0.0
  0
LINE
  5
964
330
901
100
AcDbEntity
  8
0
 62
     0
370
    -2
100
AcDbLine
 10
19.30168149243857
 20
179.5579233607291
 30
0.0
 11
19.30168149243857
 21
161.5579233607291
 31
0.0
  0
INSERT
  5
965
330
901
100
AcDbEntity
  8
0
 62
     0
370
    -2
100
AcDbBlockReference
  2
_Open30
 10
19.30168149243858
 20
184.5579233607291
 30
0.0
 41
5.0
 42
5.0
 43
5.0
 50
90.0
  0
INSERT
  5
966
330
901
100
AcDbEntity
  8
0
 62
     0
370
    -2
100
AcDbBlockReference
  2
_Open30
 10
19.30168149243857
 20
156.5579233607291
 30
0.0
 41
5.0
 42
5.0
 43
5.0
 50
270.0
  0
MTEXT
  5
967
330
901
100
AcDbEntity
  8
0
 62
     0
100
AcDbMText
 10
14.78992863817394
 20
170.5579233607291
 30
0.0
 40
7.0
 41
0.0
 71
     5
 72
     1
  1
14
 11
0.0000000000000001
 21
1.0
 31
0.0
 73
     1
 44
1.0
1001
ACAD
1000
MTEXTBEGIN
1070
    73
1070
     1
1070
    44
1040
1.0
1070
    74
1070
     0
1000
MTEXTEND
  0
POINT
  5
968
330
901
100
AcDbEntity
  8
Defpoints
 62
     0
100
AcDbPoint
 10
42.5016814924395
 20
184.5579233607291
 30
0.0
  0
POINT
  5
969
330
901
100
AcDbEntity
  8
Defpoints
 62
     0
100
AcDbPoint
 10
42.5016814924395
 20
156.5579233607291
 30
0.0
  0
POINT
  5
96A
330
901
100
AcDbEntity
  8
Defpoints
 62
     0
100
AcDbPoint
 10
19.30168149243857
 20
156.5579233607291
 30
0.0
  0
ENDBLK
  5
903
330
901
100
AcDbEntity
  8
0
100
AcDbBlockEnd
  0
BLOCK
  5
90E
330
90D
100
AcDbEntity
  8
0
100
AcDbBlockBegin
  2
*D24
 70
     1
 10
0.0
 20
0.0
 30
0.0
  3
*D24
  1

  0
LINE
  5
96B
330
90D
100
AcDbEntity
  8
0
 62
     0
370
    -2
100
AcDbLine
 10
130.134002531382
 20
172.5579233607291
 30
0.0
 11
111.5340025313819
 21
172.5579233607291
 31
0.0
  0
LINE
  5
96C
330
90D
100
AcDbEntity
  8
0
 62
     0
370
    -2
100
AcDbLine
 10
130.134002531382
 20
168.5579233607291
 30
0.0
 11
111.5340025313819
 21
168.5579233607291
 31
0.0
  0
LINE
  5
96D
330
90D
100
AcDbEntity
  8
0
 62
     0
370
    -2
100
AcDbLine
 10
113.5340025313819
 20
163.5579233607291
 30
0.0
 11
113.5340025313819
 21
158.5579233607291
 31
0.0
  0
LINE
  5
96E
330
90D
100
AcDbEntity
  8
0
 62
     0
370
    -2
100
AcDbLine
 10
113.5340025313819
 20
177.5579233607291
 30
0.0
 11
113.5340025313819
 21
195.6076435308657
 31
0.0
  0
LINE
  5
96F
330
90D
100
AcDbEntity
  8
0
 62
     0
370
    -2
100
AcDbLine
 10
113.5340025313819
 20
168.5579233607291
 30
0.0
 11
113.5340025313819
 21
172.5579233607291
 31
0.0
  0
INSERT
  5
970
330
90D
100
AcDbEntity
  8
0
 62
     0
370
    -2
100
AcDbBlockReference
  2
_Open30
 10
113.5340025313819
 20
168.5579233607291
 30
0.0
 41
5.0
 42
5.0
 43
5.0
 50
90.0
  0
INSERT
  5
971
330
90D
100
AcDbEntity
  8
0
 62
     0
370
    -2
100
AcDbBlockReference
  2
_Open30
 10
113.5340025313819
 20
172.5579233607291
 30
0.0
 41
5.0
 42
5.0
 43
5.0
 50
270.0
  0
MTEXT
  5
972
330
90D
100
AcDbEntity
  8
0
 62
     0
100
AcDbMText
 10
108.9611348349413
 20
189.3912566940626
 30
0.0
 40
7.0
 41
0.0
 71
     5
 72
     1
  1
%%C2
 11
0.0000000000000001
 21
1.0
 31
0.0
 73
     1
 44
1.0
1001
ACAD
1000
MTEXTBEGIN
1070
    73
1070
     1
1070
    44
1040
1.0
1070
    74
1070
     0
1000
MTEXTEND
  0
POINT
  5
973
330
90D
100
AcDbEntity
  8
Defpoints
 62
     0
100
AcDbPoint
 10
131.134002531382
 20
172.5579233607291
 30
0.0
  0
POINT
  5
974
330
90D
100
AcDbEntity
  8
Defpoints
 62
     0
100
AcDbPoint
 10
131.134002531382
 20
168.5579233607291
 30
0.0
  0
POINT
  5
975
330
90D
100
AcDbEntity
  8
Defpoints
 62
     0
100
AcDbPoint
 10
113.5340025313819
 20
168.5579233607291
 30
0.0
  0
ENDBLK
  5
90F
330
90D
100
AcDbEntity
  8
0
100
AcDbBlockEnd
  0
BLOCK
  5
91C
330
91B
100
AcDbEntity
  8
0
100
AcDbBlockBegin
  2
*D25
 70
     1
 10
0.0
 20
0.0
 30
0.0
  3
*D25
  1

  0
LINE
  5
976
330
91B
100
AcDbEntity
  8
0
 62
     0
370
    -2
100
AcDbLine
 10
140.7340025313819
 20
180.5579233607291
 30
0.0
 11
99.53400253138196
 21
180.5579233607291
 31
0.0
  0
LINE
  5
977
330
91B
100
AcDbEntity
  8
0
 62
     0
370
    -2
100
AcDbLine
 10
140.7340025313819
 20
160.5579233607291
 30
0.0
 11
99.53400253138196
 21
160.5579233607291
 31
0.0
  0
LINE
  5
978
330
91B
100
AcDbEntity
  8
0
 62
     0
370
    -2
100
AcDbLine
 10
101.5340025313819
 20
165.5579233607291
 30
0.0
 11
101.5340025313819
 21
175.5579233607291
 31
0.0
  0
LINE
  5
979
330
91B
100
AcDbEntity
  8
0
 62
     0
370
    -2
100
AcDbLine
 10
101.5340025313819
 20
180.5579233607291
 30
0.0
 11
101.5340025313819
 21
209.4187024070689
 31
0.0
  0
INSERT
  5
97A
330
91B
100
AcDbEntity
  8
0
 62
     0
370
    -2
100
AcDbBlockReference
  2
_Open30
 10
101.5340025313819
 20
160.5579233607291
 30
0.0
 41
5.0
 42
5.0
 43
5.0
 50
90.0
  0
LINE
  5
97B
330
91B
100
AcDbEntity
  8
0
 62
     0
370
    -2
100
AcDbLine
 10
101.5340025313819
 20
155.5579233607291
 30
0.0
 11
101.5340025313819
 21
150.5579233607291
 31
0.0
  0
LINE
  5
97C
330
91B
100
AcDbEntity
  8
0
 62
     0
370
    -2
100
AcDbLine
 10
101.5340025313819
 20
160.5579233607291
 30
0.0
 11
101.5340025313819
 21
165.5579233607291
 31
0.0
  0
INSERT
  5
97D
330
91B
100
AcDbEntity
  8
0
 62
     0
370
    -2
100
AcDbBlockReference
  2
_Open30
 10
101.5340025313819
 20
180.5579233607291
 30
0.0
 41
5.0
 42
5.0
 43
5.0
 50
270.0
  0
LINE
  5
97E
330
91B
100
AcDbEntity
  8
0
 62
     0
370
    -2
100
AcDbLine
 10
101.5340025313819
 20
185.5579233607291
 30
0.0
 11
101.5340025313819
 21
190.5579233607291
 31
0.0
  0
LINE
  5
97F
330
91B
100
AcDbEntity
  8
0
 62
     0
370
    -2
100
AcDbLine
 10
101.5340025313819
 20
180.5579233607291
 30
0.0
 11
101.5340025313819
 21
175.5579233607291
 31
0.0
  0
MTEXT
  5
980
330
91B
100
AcDbEntity
  8
0
 62
     0
100
AcDbMText
 10
96.89061770935373
 20
200.5579233607291
 30
0.0
 40
7.0
 41
0.0
 71
     5
 72
     1
  1
%%C10
 11
0.0000000000000001
 21
1.0
 31
0.0
 73
     1
 44
1.0
1001
ACAD
1000
MTEXTBEGIN
1070
    73
1070
     1
1070
    44
1040
1.0
1070
    74
1070
     0
1000
MTEXTEND
  0
POINT
  5
981
330
91B
100
AcDbEntity
  8
Defpoints
 62
     0
100
AcDbPoint
 10
141.7340025313819
 20
180.5579233607291
 30
0.0
  0
POINT
  5
982
330
91B
100
AcDbEntity
  8
Defpoints
 62
     0
100
AcDbPoint
 10
141.7340025313819
 20
160.5579233607291
 30
0.0
  0
POINT
  5
983
330
91B
100
AcDbEntity
  8
Defpoints
 62
     0
100
AcDbPoint
 10
101.5340025313819
 20
160.5579233607291
 30
0.0
  0
ENDBLK
  5
91D
330
91B
100
AcDbEntity
  8
0
100
AcDbBlockEnd
  0
BLOCK
  5
92D
330
92C
100
AcDbEntity
  8
0
100
AcDbBlockBegin
  2
*D26
 70
     1
 10
0.0
 20
0.0
 30
0.0
  3
*D26
  1

  0
LINE
  5
984
330
92C
100
AcDbEntity
  8
0
 62
     0
370
    -2
100
AcDbLine
 10
130.734002531382
 20
173.1579233607294
 30
0.0
 11
130.734002531382
 21
229.5579233607291
 31
0.0
  0
LINE
  5
985
330
92C
100
AcDbEntity
  8
0
 62
     0
370
    -2
100
AcDbLine
 10
144.7340025313821
 20
190.5579233607291
 30
0.0
 11
144.7340025313821
 21
229.5579233607291
 31
0.0
  0
LINE
  5
986
330
92C
100
AcDbEntity
  8
0
 62
     0
370
    -2
100
AcDbLine
 10
135.7340025313819
 20
227.5579233607291
 30
0.0
 11
139.7340025313821
 21
227.5579233607291
 31
0.0
  0
INSERT
  5
987
330
92C
100
AcDbEntity
  8
0
 62
     0
370
    -2
100
AcDbBlockReference
  2
_Open30
 10
130.734002531382
 20
227.5579233607291
 30
0.0
 41
5.0
 42
5.0
 43
5.0
  0
LINE
  5
988
330
92C
100
AcDbEntity
  8
0
 62
     0
370
    -2
100
AcDbLine
 10
125.734002531382
 20
227.5579233607291
 30
0.0
 11
120.734002531382
 21
227.5579233607291
 31
0.0
  0
LINE
  5
989
330
92C
100
AcDbEntity
  8
0
 62
     0
370
    -2
100
AcDbLine
 10
130.734002531382
 20
227.5579233607291
 30
0.0
 11
135.7340025313819
 21
227.5579233607291
 31
0.0
  0
INSERT
  5
98A
330
92C
100
AcDbEntity
  8
0
 62
     0
370
    -2
100
AcDbBlockReference
  2
_Open30
 10
144.7340025313821
 20
227.5579233607291
 30
0.0
 41
5.0
 42
5.0
 43
5.0
 50
180.0
  0
LINE
  5
98B
330
92C
100
AcDbEntity
  8
0
 62
     0
370
    -2
100
AcDbLine
 10
149.7340025313821
 20
227.5579233607291
 30
0.0
 11
154.7340025313821
 21
227.5579233607291
 31
0.0
  0
LINE
  5
98C
330
92C
100
AcDbEntity
  8
0
 62
     0
370
    -2
100
AcDbLine
 10
144.7340025313821
 20
227.5579233607291
 30
0.0
 11
139.7340025313821
 21
227.5579233607291
 31
0.0
  0
MTEXT
  5
98D
330
92C
100
AcDbEntity
  8
0
 62
     0
100
AcDbMText
 10
137.7340025313819
 20
232.0579233607291
 30
0.0
 40
7.0
 41
0.0
 71
     5
 72
     1
  1
7
 73
     1
 44
1.0
1001
ACAD
1000
MTEXTBEGIN
1070
    73
1070
     1
1070
    44
1040
1.0
1070
    74
1070
     0
1000
MTEXTEND
  0
POINT
  5
98E
330
92C
100
AcDbEntity
  8
Defpoints
 62
     0
100
AcDbPoint
 10
130.734002531382
 20
172.1579233607294
 30
0.0
  0
POINT
  5
98F
330
92C
100
AcDbEntity
  8
Defpoints
 62
     0
100
AcDbPoint
 10
144.7340025313821
 20
189.5579233607291
 30
0.0
  0
POINT
  5
990
330
92C
100
AcDbEntity
  8
Defpoints
 62
     0
100
AcDbPoint
 10
144.7340025313821
 20
227.5579233607291
 30
0.0
  0
ENDBLK
  5
92E
330
92C
100
AcDbEntity
  8
0
100
AcDbBlockEnd
  0
BLOCK
  5
93D
330
93C
100
AcDbEntity
  8
0
100
AcDbBlockBegin
  2
*D27
 70
     1
 10
0.0
 20
0.0
 30
0.0
  3
*D27
  1

  0
LINE
  5
991
330
93C
100
AcDbEntity
  8
0
 62
     0
370
    -2
100
AcDbLine
 10
141.7340025313819
 20
181.5579233607291
 30
0.0
 11
141.7340025313819
 21
217.5579233607291
 31
0.0
  0
LINE
  5
992
330
93C
100
AcDbEntity
  8
0
 62
     0
370
    -2
100
AcDbLine
 10
144.7340025313821
 20
190.5579233607291
 30
0.0
 11
144.7340025313821
 21
217.5579233607291
 31
0.0
  0
LINE
  5
993
330
93C
100
AcDbEntity
  8
0
 62
     0
370
    -2
100
AcDbLine
 10
136.7340025313819
 20
215.5579233607291
 30
0.0
 11
131.734002531382
 21
215.5579233607291
 31
0.0
  0
LINE
  5
994
330
93C
100
AcDbEntity
  8
0
 62
     0
370
    -2
100
AcDbLine
 10
149.7340025313821
 20
215.5579233607291
 30
0.0
 11
168.5949830552236
 21
215.5579233607291
 31
0.0
  0
LINE
  5
995
330
93C
100
AcDbEntity
  8
0
 62
     0
370
    -2
100
AcDbLine
 10
141.7340025313819
 20
215.5579233607291
 30
0.0
 11
144.7340025313821
 21
215.5579233607291
 31
0.0
  0
INSERT
  5
996
330
93C
100
AcDbEntity
  8
0
 62
     0
370
    -2
100
AcDbBlockReference
  2
_Open30
 10
141.7340025313819
 20
215.5579233607291
 30
0.0
 41
5.0
 42
5.0
 43
5.0
  0
INSERT
  5
997
330
93C
100
AcDbEntity
  8
0
 62
     0
370
    -2
100
AcDbBlockReference
  2
_Open30
 10
144.7340025313821
 20
215.5579233607291
 30
0.0
 41
5.0
 42
5.0
 43
5.0
 50
180.0
  0
MTEXT
  5
998
330
93C
100
AcDbEntity
  8
0
 62
     0
100
AcDbMText
 10
161.6644927933028
 20
220.1425439114343
 30
0.0
 40
7.0
 41
0.0
 71
     5
 72
     1
  1
1.5
 73
     1
 44
1.0
1001
ACAD
1000
MTEXTBEGIN
1070
    73
1070
     1
1070
    44
1040
1.0
1070
    74
1070
     0
1000
MTEXTEND
  0
POINT
  5
999
330
93C
100
AcDbEntity
  8
Defpoints
 62
     0
100
AcDbPoint
 10
141.7340025313819
 20
180.5579233607291
 30
0.0
  0
POINT
  5
99A
330
93C
100
AcDbEntity
  8
Defpoints
 62
     0
100
AcDbPoint
 10
144.7340025313821
 20
189.5579233607291
 30
0.0
  0
POINT
  5
99B
330
93C
100
AcDbEntity
  8
Defpoints
 62
     0
100
AcDbPoint
 10
144.7340025313821
 20
215.5579233607291
 30
0.0
  0
ENDBLK
  5
93E
330
93C
100
AcDbEntity
  8
0
100
AcDbBlockEnd
  0
BLOCK
  5
94B
330
94A
100
AcDbEntity
  8
0
100
AcDbBlockBegin
  2
*D28
 70
     1
 10
0.0
 20
0.0
 30
0.0
  3
*D28
  1

  0
LINE
  5
99C
330
94A
100
AcDbEntity
  8
0
 62
     0
370
    -2
100
AcDbLine
 10
144.7340025313821
 20
190.5579233607291
 30
0.0
 11
144.7340025313821
 21
229.5579233607291
 31
0.0
  0
LINE
  5
99D
330
94A
100
AcDbEntity
  8
0
 62
     0
370
    -2
100
AcDbLine
 10
212.7340025313822
 20
192.4315909828797
 30
0.0
 11
212.7340025313822
 21
229.5579233607291
 31
0.0
  0
LINE
  5
99E
330
94A
100
AcDbEntity
  8
0
 62
     0
370
    -2
100
AcDbLine
 10
149.7340025313821
 20
227.5579233607291
 30
0.0
 11
207.7340025313822
 21
227.5579233607291
 31
0.0
  0
INSERT
  5
99F
330
94A
100
AcDbEntity
  8
0
 62
     0
370
    -2
100
AcDbBlockReference
  2
_Open30
 10
144.7340025313821
 20
227.5579233607291
 30
0.0
 41
5.0
 42
5.0
 43
5.0
 50
180.0
  0
INSERT
  5
9A0
330
94A
100
AcDbEntity
  8
0
 62
     0
370
    -2
100
AcDbBlockReference
  2
_Open30
 10
212.7340025313822
 20
227.5579233607291
 30
0.0
 41
5.0
 42
5.0
 43
5.0
  0
MTEXT
  5
9A1
330
94A
100
AcDbEntity
  8
0
 62
     0
100
AcDbMText
 10
178.7340025313822
 20
232.2036587536102
 30
0.0
 40
7.0
 41
0.0
 71
     5
 72
     1
  1
34
 73
     1
 44
1.0
1001
ACAD
1000
MTEXTBEGIN
1070
    73
1070
     1
1070
    44
1040
1.0
1070
    74
1070
     0
1000
MTEXTEND
  0
POINT
  5
9A2
330
94A
100
AcDbEntity
  8
Defpoints
 62
     0
100
AcDbPoint
 10
144.7340025313821
 20
189.5579233607291
 30
0.0
  0
POINT
  5
9A3
330
94A
100
AcDbEntity
  8
Defpoints
 62
     0
100
AcDbPoint
 10
212.7340025313822
 20
191.4315909828797
 30
0.0
  0
POINT
  5
9A4
330
94A
100
AcDbEntity
  8
Defpoints
 62
     0
100
AcDbPoint
 10
212.7340025313822
 20
227.5579233607291
 30
0.0
  0
ENDBLK
  5
94C
330
94A
100
AcDbEntity
  8
0
100
AcDbBlockEnd
  0
BLOCK
  5
957
330
956
100
AcDbEntity
  8
0
100
AcDbBlockBegin
  2
*D29
 70
     1
 10
0.0
 20
0.0
 30
0.0
  3
*D29
  1

  0
LINE
  5
9A5
330
956
100
AcDbEntity
  8
0
 62
     0
370
    -2
100
AcDbLine
 10
212.734002531382
 20
192.5579233607286
 30
0.0
 11
232.8541319684775
 21
192.5579233607286
 31
0.0
  0
LINE
  5
9A6
330
956
100
AcDbEntity
  8
0
 62
     0
370
    -2
100
AcDbLine
 10
212.734002531382
 20
148.5579233607291
 30
0.0
 11
232.8541319684775
 21
148.5579233607291
 31
0.0
  0
LINE
  5
9A7
330
956
100
AcDbEntity
  8
0
 62
     0
370
    -2
100
AcDbLine
 10
230.8541319684775
 20
187.5579233607286
 30
0.0
 11
230.8541319684775
 21
153.5579233607291
 31
0.0
  0
INSERT
  5
9A8
330
956
100
AcDbEntity
  8
0
 62
     0
370
    -2
100
AcDbBlockReference
  2
_Open30
 10
230.8541319684775
 20
192.5579233607286
 30
0.0
 41
5.0
 42
5.0
 43
5.0
 50
90.0
  0
INSERT
  5
9A9
330
956
100
AcDbEntity
  8
0
 62
     0
370
    -2
100
AcDbBlockReference
  2
_Open30
 10
230.8541319684775
 20
148.5579233607291
 30
0.0
 41
5.0
 42
5.0
 43
5.0
 50
270.0
  0
MTEXT
  5
9AA
330
956
100
AcDbEntity
  8
0
 62
     0
100
AcDbMText
 10
226.2812642720369
 20
170.5579233607291
 30
0.0
 40
7.0
 41
0.0
 71
     5
 72
     1
  1
%%C22
 11
0.0000000000000001
 21
1.0
 31
0.0
 73
     1
 44
1.0
1001
ACAD
1000
MTEXTBEGIN
1070
    73
1070
     1
1070
    44
1040
1.0
1070
    74
1070
     0
1000
MTEXTEND
  0
POINT
  5
9AB
330
956
100
AcDbEntity
  8
Defpoints
 62
     0
100
AcDbPoint
 10
211.734002531382
 20
192.5579233607286
 30
0.0
  0
POINT
  5
9AC
330
956
100
AcDbEntity
  8
Defpoints
 62
     0
100
AcDbPoint
 10
211.734002531382
 20
148.5579233607291
 30
0.0
  0
POINT
  5
9AD
330
956
100
AcDbEntity
  8
Defpoints
 62
     0
100
AcDbPoint
 10
230.8541319684775
 20
148.5579233607291
 30
0.0
  0
ENDBLK
  5
958
330
956
100
AcDbEntity
  8
0
100
AcDbBlockEnd
  0
BLOCK
  5
AE1
330
AE0
100
AcDbEntity
  8
0
100
AcDbBlockBegin
  2
*D30
 70
     1
 10
0.0
 20
0.0
 30
0.0
  3
*D30
  1

  0
LINE
  5
B41
330
AE0
100
AcDbEntity
  8
0
 62
     0
370
    -2
100
AcDbLine
 10
22.2252164578606
 20
300.2551880511624
 30
0.0
 11
-1.974783542140309
 21
300.2551880511624
 31
0.0
  0
LINE
  5
B42
330
AE0
100
AcDbEntity
  8
0
 62
     0
370
    -2
100
AcDbLine
 10
22.2252164578606
 20
272.2551880511623
 30
0.0
 11
-1.974783542140315
 21
272.2551880511623
 31
0.0
  0
LINE
  5
B43
330
AE0
100
AcDbEntity
  8
0
 62
     0
370
    -2
100
AcDbLine
 10
0.0252164578596901
 20
295.2551880511624
 30
0.0
 11
0.0252164578596861
 21
277.2551880511624
 31
0.0
  0
INSERT
  5
B44
330
AE0
100
AcDbEntity
  8
0
 62
     0
370
    -2
100
AcDbBlockReference
  2
_Open30
 10
0.0252164578596913
 20
300.2551880511624
 30
0.0
 41
5.0
 42
5.0
 43
5.0
 50
90.0
  0
INSERT
  5
B45
330
AE0
100
AcDbEntity
  8
0
 62
     0
370
    -2
100
AcDbBlockReference
  2
_Open30
 10
0.025216457859685
 20
272.2551880511623
 30
0.0
 41
5.0
 42
5.0
 43
5.0
 50
270.0
  0
MTEXT
  5
B46
330
AE0
100
AcDbEntity
  8
0
 62
     0
100
AcDbMText
 10
-4.486536396404964
 20
286.2551880511623
 30
0.0
 40
7.0
 41
0.0
 71
     5
 72
     1
  1
14
 11
0.0000000000000001
 21
1.0
 31
0.0
 73
     1
 44
1.0
1001
ACAD
1000
MTEXTBEGIN
1070
    73
1070
     1
1070
    44
1040
1.0
1070
    74
1070
     0
1000
MTEXTEND
  0
POINT
  5
B47
330
AE0
100
AcDbEntity
  8
Defpoints
 62
     0
100
AcDbPoint
 10
23.2252164578606
 20
300.2551880511624
 30
0.0
  0
POINT
  5
B48
330
AE0
100
AcDbEntity
  8
Defpoints
 62
     0
100
AcDbPoint
 10
23.2252164578606
 20
272.2551880511623
 30
0.0
  0
POINT
  5
B49
330
AE0
100
AcDbEntity
  8
Defpoints
 62
     0
100
AcDbPoint
 10
0.025216457859685
 20
272.2551880511623
 30
0.0
  0
ENDBLK
  5
AE2
330
AE0
100
AcDbEntity
  8
0
100
AcDbBlockEnd
  0
BLOCK
  5
AED
330
AEC
100
AcDbEntity
  8
0
100
AcDbBlockBegin
  2
*D31
 70
     1
 10
0.0
 20
0.0
 30
0.0
  3
*D31
  1

  0
LINE
  5
B4A
330
AEC
100
AcDbEntity
  8
0
 62
     0
370
    -2
100
AcDbLine
 10
110.8575374968031
 20
288.2551880511623
 30
0.0
 11
92.25753749680308
 21
288.2551880511623
 31
0.0
  0
LINE
  5
B4B
330
AEC
100
AcDbEntity
  8
0
 62
     0
370
    -2
100
AcDbLine
 10
110.8575374968031
 20
284.2551880511623
 30
0.0
 11
92.25753749680306
 21
284.2551880511623
 31
0.0
  0
LINE
  5
B4C
330
AEC
100
AcDbEntity
  8
0
 62
     0
370
    -2
100
AcDbLine
 10
94.25753749680307
 20
279.2551880511624
 30
0.0
 11
94.25753749680307
 21
274.2551880511623
 31
0.0
  0
LINE
  5
B4D
330
AEC
100
AcDbEntity
  8
0
 62
     0
370
    -2
100
AcDbLine
 10
94.25753749680309
 20
293.2551880511624
 30
0.0
 11
94.25753749680309
 21
311.3049082212991
 31
0.0
  0
LINE
  5
B4E
330
AEC
100
AcDbEntity
  8
0
 62
     0
370
    -2
100
AcDbLine
 10
94.25753749680307
 20
284.2551880511623
 30
0.0
 11
94.25753749680309
 21
288.2551880511623
 31
0.0
  0
INSERT
  5
B4F
330
AEC
100
AcDbEntity
  8
0
 62
     0
370
    -2
100
AcDbBlockReference
  2
_Open30
 10
94.25753749680307
 20
284.2551880511623
 30
0.0
 41
5.0
 42
5.0
 43
5.0
 50
90.0
  0
INSERT
  5
B50
330
AEC
100
AcDbEntity
  8
0
 62
     0
370
    -2
100
AcDbBlockReference
  2
_Open30
 10
94.25753749680309
 20
288.2551880511623
 30
0.0
 41
5.0
 42
5.0
 43
5.0
 50
270.0
  0
MTEXT
  5
B51
330
AEC
100
AcDbEntity
  8
0
 62
     0
100
AcDbMText
 10
89.68466980036245
 20
305.0885213844958
 30
0.0
 40
7.0
 41
0.0
 71
     5
 72
     1
  1
%%C2
 11
0.0000000000000001
 21
1.0
 31
0.0
 73
     1
 44
1.0
1001
ACAD
1000
MTEXTBEGIN
1070
    73
1070
     1
1070
    44
1040
1.0
1070
    74
1070
     0
1000
MTEXTEND
  0
POINT
  5
B52
330
AEC
100
AcDbEntity
  8
Defpoints
 62
     0
100
AcDbPoint
 10
111.8575374968031
 20
288.2551880511623
 30
0.0
  0
POINT
  5
B53
330
AEC
100
AcDbEntity
  8
Defpoints
 62
     0
100
AcDbPoint
 10
111.8575374968031
 20
284.2551880511623
 30
0.0
  0
POINT
  5
B54
330
AEC
100
AcDbEntity
  8
Defpoints
 62
     0
100
AcDbPoint
 10
94.25753749680307
 20
284.2551880511623
 30
0.0
  0
ENDBLK
  5
AEE
330
AEC
100
AcDbEntity
  8
0
100
AcDbBlockEnd
  0
BLOCK
  5
AFB
330
AFA
100
AcDbEntity
  8
0
100
AcDbBlockBegin
  2
*D32
 70
     1
 10
0.0
 20
0.0
 30
0.0
  3
*D32
  1

  0
LINE
  5
B55
330
AFA
100
AcDbEntity
  8
0
 62
     0
370
    -2
100
AcDbLine
 10
121.4575374968031
 20
296.2551880511623
 30
0.0
 11
80.25753749680308
 21
296.2551880511623
 31
0.0
  0
LINE
  5
B56
330
AFA
100
AcDbEntity
  8
0
 62
     0
370
    -2
100
AcDbLine
 10
121.4575374968031
 20
276.2551880511623
 30
0.0
 11
80.25753749680307
 21
276.2551880511623
 31
0.0
  0
LINE
  5
B57
330
AFA
100
AcDbEntity
  8
0
 62
     0
370
    -2
100
AcDbLine
 10
82.25753749680306
 20
281.2551880511623
 30
0.0
 11
82.25753749680308
 21
291.2551880511624
 31
0.0
  0
LINE
  5
B58
330
AFA
100
AcDbEntity
  8
0
 62
     0
370
    -2
100
AcDbLine
 10
82.25753749680308
 20
296.2551880511623
 30
0.0
 11
82.25753749680308
 21
325.1159670975022
 31
0.0
  0
INSERT
  5
B59
330
AFA
100
AcDbEntity
  8
0
 62
     0
370
    -2
100
AcDbBlockReference
  2
_Open30
 10
82.25753749680306
 20
276.2551880511623
 30
0.0
 41
5.0
 42
5.0
 43
5.0
 50
90.0
  0
LINE
  5
B5A
330
AFA
100
AcDbEntity
  8
0
 62
     0
370
    -2
100
AcDbLine
 10
82.25753749680306
 20
271.2551880511623
 30
0.0
 11
82.25753749680306
 21
266.2551880511624
 31
0.0
  0
LINE
  5
B5B
330
AFA
100
AcDbEntity
  8
0
 62
     0
370
    -2
100
AcDbLine
 10
82.25753749680306
 20
276.2551880511623
 30
0.0
 11
82.25753749680306
 21
281.2551880511623
 31
0.0
  0
INSERT
  5
B5C
330
AFA
100
AcDbEntity
  8
0
 62
     0
370
    -2
100
AcDbBlockReference
  2
_Open30
 10
82.25753749680308
 20
296.2551880511623
 30
0.0
 41
5.0
 42
5.0
 43
5.0
 50
270.0
  0
LINE
  5
B5D
330
AFA
100
AcDbEntity
  8
0
 62
     0
370
    -2
100
AcDbLine
 10
82.25753749680308
 20
301.2551880511623
 30
0.0
 11
82.25753749680308
 21
306.2551880511624
 31
0.0
  0
LINE
  5
B5E
330
AFA
100
AcDbEntity
  8
0
 62
     0
370
    -2
100
AcDbLine
 10
82.25753749680308
 20
296.2551880511623
 30
0.0
 11
82.25753749680308
 21
291.2551880511624
 31
0.0
  0
MTEXT
  5
B5F
330
AFA
100
AcDbEntity
  8
0
 62
     0
100
AcDbMText
 10
77.61415267477481
 20
316.2551880511624
 30
0.0
 40
7.0
 41
0.0
 71
     5
 72
     1
  1
%%C10
 11
0.0000000000000001
 21
1.0
 31
0.0
 73
     1
 44
1.0
1001
ACAD
1000
MTEXTBEGIN
1070
    73
1070
     1
1070
    44
1040
1.0
1070
    74
1070
     0
1000
MTEXTEND
  0
POINT
  5
B60
330
AFA
100
AcDbEntity
  8
Defpoints
 62
     0
100
AcDbPoint
 10
122.4575374968031
 20
296.2551880511623
 30
0.0
  0
POINT
  5
B61
330
AFA
100
AcDbEntity
  8
Defpoints
 62
     0
100
AcDbPoint
 10
122.4575374968031
 20
276.2551880511623
 30
0.0
  0
POINT
  5
B62
330
AFA
100
AcDbEntity
  8
Defpoints
 62
     0
100
AcDbPoint
 10
82.25753749680306
 20
276.2551880511623
 30
0.0
  0
ENDBLK
  5
AFC
330
AFA
100
AcDbEntity
  8
0
100
AcDbBlockEnd
  0
BLOCK
  5
B0C
330
B0B
100
AcDbEntity
  8
0
100
AcDbBlockBegin
  2
*D33
 70
     1
 10
0.0
 20
0.0
 30
0.0
  3
*D33
  1

  0
LINE
  5
B63
330
B0B
100
AcDbEntity
  8
0
 62
     0
370
    -2
100
AcDbLine
 10
111.457537496803
 20
288.8551880511627
 30
0.0
 11
111.457537496803
 21
345.2551880511624
 31
0.0
  0
LINE
  5
B64
330
B0B
100
AcDbEntity
  8
0
 62
     0
370
    -2
100
AcDbLine
 10
125.4575374968032
 20
306.2551880511624
 30
0.0
 11
125.4575374968032
 21
345.2551880511624
 31
0.0
  0
LINE
  5
B65
330
B0B
100
AcDbEntity
  8
0
 62
     0
370
    -2
100
AcDbLine
 10
116.457537496803
 20
343.2551880511624
 30
0.0
 11
120.4575374968032
 21
343.2551880511624
 31
0.0
  0
INSERT
  5
B66
330
B0B
100
AcDbEntity
  8
0
 62
     0
370
    -2
100
AcDbBlockReference
  2
_Open30
 10
111.457537496803
 20
343.2551880511624
 30
0.0
 41
5.0
 42
5.0
 43
5.0
  0
LINE
  5
B67
330
B0B
100
AcDbEntity
  8
0
 62
     0
370
    -2
100
AcDbLine
 10
106.457537496803
 20
343.2551880511624
 30
0.0
 11
101.457537496803
 21
343.2551880511624
 31
0.0
  0
LINE
  5
B68
330
B0B
100
AcDbEntity
  8
0
 62
     0
370
    -2
100
AcDbLine
 10
111.457537496803
 20
343.2551880511624
 30
0.0
 11
116.457537496803
 21
343.2551880511624
 31
0.0
  0
INSERT
  5
B69
330
B0B
100
AcDbEntity
  8
0
 62
     0
370
    -2
100
AcDbBlockReference
  2
_Open30
 10
125.4575374968032
 20
343.2551880511624
 30
0.0
 41
5.0
 42
5.0
 43
5.0
 50
180.0
  0
LINE
  5
B6A
330
B0B
100
AcDbEntity
  8
0
 62
     0
370
    -2
100
AcDbLine
 10
130.4575374968031
 20
343.2551880511624
 30
0.0
 11
135.4575374968032
 21
343.2551880511624
 31
0.0
  0
LINE
  5
B6B
330
B0B
100
AcDbEntity
  8
0
 62
     0
370
    -2
100
AcDbLine
 10
125.4575374968032
 20
343.2551880511624
 30
0.0
 11
120.4575374968032
 21
343.2551880511624
 31
0.0
  0
MTEXT
  5
B6C
330
B0B
100
AcDbEntity
  8
0
 62
     0
100
AcDbMText
 10
118.4575374968031
 20
347.7551880511624
 30
0.0
 40
7.0
 41
0.0
 71
     5
 72
     1
  1
7
 73
     1
 44
1.0
1001
ACAD
1000
MTEXTBEGIN
1070
    73
1070
     1
1070
    44
1040
1.0
1070
    74
1070
     0
1000
MTEXTEND
  0
POINT
  5
B6D
330
B0B
100
AcDbEntity
  8
Defpoints
 62
     0
100
AcDbPoint
 10
111.457537496803
 20
287.8551880511627
 30
0.0
  0
POINT
  5
B6E
330
B0B
100
AcDbEntity
  8
Defpoints
 62
     0
100
AcDbPoint
 10
125.4575374968032
 20
305.2551880511623
 30
0.0
  0
POINT
  5
B6F
330
B0B
100
AcDbEntity
  8
Defpoints
 62
     0
100
AcDbPoint
 10
125.4575374968032
 20
343.2551880511624
 30
0.0
  0
ENDBLK
  5
B0D
330
B0B
100
AcDbEntity
  8
0
100
AcDbBlockEnd
  0
BLOCK
  5
B1C
330
B1B
100
AcDbEntity
  8
0
100
AcDbBlockBegin
  2
*D34
 70
     1
 10
0.0
 20
0.0
 30
0.0
  3
*D34
  1

  0
LINE
  5
B70
330
B1B
100
AcDbEntity
  8
0
 62
     0
370
    -2
100
AcDbLine
 10
122.4575374968031
 20
297.2551880511623
 30
0.0
 11
122.4575374968031
 21
333.2551880511624
 31
0.0
  0
LINE
  5
B71
330
B1B
100
AcDbEntity
  8
0
 62
     0
370
    -2
100
AcDbLine
 10
125.4575374968032
 20
306.2551880511624
 30
0.0
 11
125.4575374968032
 21
333.2551880511624
 31
0.0
  0
LINE
  5
B72
330
B1B
100
AcDbEntity
  8
0
 62
     0
370
    -2
100
AcDbLine
 10
117.457537496803
 20
331.2551880511624
 30
0.0
 11
112.457537496803
 21
331.2551880511624
 31
0.0
  0
LINE
  5
B73
330
B1B
100
AcDbEntity
  8
0
 62
     0
370
    -2
100
AcDbLine
 10
130.4575374968031
 20
331.2551880511624
 30
0.0
 11
149.3185180206447
 21
331.2551880511624
 31
0.0
  0
LINE
  5
B74
330
B1B
100
AcDbEntity
  8
0
 62
     0
370
    -2
100
AcDbLine
 10
122.4575374968031
 20
331.2551880511624
 30
0.0
 11
125.4575374968032
 21
331.2551880511624
 31
0.0
  0
INSERT
  5
B75
330
B1B
100
AcDbEntity
  8
0
 62
     0
370
    -2
100
AcDbBlockReference
  2
_Open30
 10
122.4575374968031
 20
331.2551880511624
 30
0.0
 41
5.0
 42
5.0
 43
5.0
  0
INSERT
  5
B76
330
B1B
100
AcDbEntity
  8
0
 62
     0
370
    -2
100
AcDbBlockReference
  2
_Open30
 10
125.4575374968032
 20
331.2551880511624
 30
0.0
 41
5.0
 42
5.0
 43
5.0
 50
180.0
  0
MTEXT
  5
B77
330
B1B
100
AcDbEntity
  8
0
 62
     0
100
AcDbMText
 10
142.3880277587239
 20
335.8398086018675
 30
0.0
 40
7.0
 41
0.0
 71
     5
 72
     1
  1
1.5
 73
     1
 44
1.0
1001
ACAD
1000
MTEXTBEGIN
1070
    73
1070
     1
1070
    44
1040
1.0
1070
    74
1070
     0
1000
MTEXTEND
  0
POINT
  5
B78
330
B1B
100
AcDbEntity
  8
Defpoints
 62
     0
100
AcDbPoint
 10
122.4575374968031
 20
296.2551880511623
 30
0.0
  0
POINT
  5
B79
330
B1B
100
AcDbEntity
  8
Defpoints
 62
     0
100
AcDbPoint
 10
125.4575374968032
 20
305.2551880511623
 30
0.0
  0
POINT
  5
B7A
330
B1B
100
AcDbEntity
  8
Defpoints
 62
     0
100
AcDbPoint
 10
125.4575374968032
 20
331.2551880511624
 30
0.0
  0
ENDBLK
  5
B1D
330
B1B
100
AcDbEntity
  8
0
100
AcDbBlockEnd
  0
BLOCK
  5
B2A
330
B29
100
AcDbEntity
  8
0
100
AcDbBlockBegin
  2
*D35
 70
     1
 10
0.0
 20
0.0
 30
0.0
  3
*D35
  1

  0
LINE
  5
B7B
330
B29
100
AcDbEntity
  8
0
 62
     0
370
    -2
100
AcDbLine
 10
125.4575374968032
 20
306.2551880511624
 30
0.0
 11
125.4575374968032
 21
345.2551880511624
 31
0.0
  0
LINE
  5
B7C
330
B29
100
AcDbEntity
  8
0
 62
     0
370
    -2
100
AcDbLine
 10
193.4575374968033
 20
308.128855673313
 30
0.0
 11
193.4575374968033
 21
345.2551880511624
 31
0.0
  0
LINE
  5
B7D
330
B29
100
AcDbEntity
  8
0
 62
     0
370
    -2
100
AcDbLine
 10
130.4575374968031
 20
343.2551880511624
 30
0.0
 11
188.4575374968033
 21
343.2551880511624
 31
0.0
  0
INSERT
  5
B7E
330
B29
100
AcDbEntity
  8
0
 62
     0
370
    -2
100
AcDbBlockReference
  2
_Open30
 10
125.4575374968032
 20
343.2551880511624
 30
0.0
 41
5.0
 42
5.0
 43
5.0
 50
180.0
  0
INSERT
  5
B7F
330
B29
100
AcDbEntity
  8
0
 62
     0
370
    -2
100
AcDbBlockReference
  2
_Open30
 10
193.4575374968033
 20
343.2551880511624
 30
0.0
 41
5.0
 42
5.0
 43
5.0
  0
MTEXT
  5
B80
330
B29
100
AcDbEntity
  8
0
 62
     0
100
AcDbMText
 10
159.4575374968033
 20
347.9009234440435
 30
0.0
 40
7.0
 41
0.0
 71
     5
 72
     1
  1
34
 73
     1
 44
1.0
1001
ACAD
1000
MTEXTBEGIN
1070
    73
1070
     1
1070
    44
1040
1.0
1070
    74
1070
     0
1000
MTEXTEND
  0
POINT
  5
B81
330
B29
100
AcDbEntity
  8
Defpoints
 62
     0
100
AcDbPoint
 10
125.4575374968032
 20
305.2551880511623
 30
0.0
  0
POINT
  5
B82
330
B29
100
AcDbEntity
  8
Defpoints
 62
     0
100
AcDbPoint
 10
193.4575374968033
 20
307.128855673313
 30
0.0
  0
POINT
  5
B83
330
B29
100
AcDbEntity
  8
Defpoints
 62
     0
100
AcDbPoint
 10
193.4575374968033
 20
343.2551880511624
 30
0.0
  0
ENDBLK
  5
B2B
330
B29
100
AcDbEntity
  8
0
100
AcDbBlockEnd
  0
BLOCK
  5
B36
330
B35
100
AcDbEntity
  8
0
100
AcDbBlockBegin
  2
*D36
 70
     1
 10
0.0
 20
0.0
 30
0.0
  3
*D36
  1

  0
LINE
  5
B84
330
B35
100
AcDbEntity
  8
0
 62
     0
370
    -2
100
AcDbLine
 10
193.457537496803
 20
308.2551880511619
 30
0.0
 11
213.5776669338985
 21
308.2551880511619
 31
0.0
  0
LINE
  5
B85
330
B35
100
AcDbEntity
  8
0
 62
     0
370
    -2
100
AcDbLine
 10
193.457537496803
 20
264.2551880511624
 30
0.0
 11
213.5776669338985
 21
264.2551880511624
 31
0.0
  0
LINE
  5
B86
330
B35
100
AcDbEntity
  8
0
 62
     0
370
    -2
100
AcDbLine
 10
211.5776669338985
 20
303.2551880511619
 30
0.0
 11
211.5776669338985
 21
269.2551880511623
 31
0.0
  0
INSERT
  5
B87
330
B35
100
AcDbEntity
  8
0
 62
     0
370
    -2
100
AcDbBlockReference
  2
_Open30
 10
211.5776669338985
 20
308.2551880511619
 30
0.0
 41
5.0
 42
5.0
 43
5.0
 50
90.0
  0
INSERT
  5
B88
330
B35
100
AcDbEntity
  8
0
 62
     0
370
    -2
100
AcDbBlockReference
  2
_Open30
 10
211.5776669338985
 20
264.2551880511624
 30
0.0
 41
5.0
 42
5.0
 43
5.0
 50
270.0
  0
MTEXT
  5
B89
330
B35
100
AcDbEntity
  8
0
 62
     0
100
AcDbMText
 10
207.004799237458
 20
286.2551880511623
 30
0.0
 40
7.0
 41
0.0
 71
     5
 72
     1
  1
%%C22
 11
0.0000000000000001
 21
1.0
 31
0.0
 73
     1
 44
1.0
1001
ACAD
1000
MTEXTBEGIN
1070
    73
1070
     1
1070
    44
1040
1.0
1070
    74
1070
     0
1000
MTEXTEND
  0
POINT
  5
B8A
330
B35
100
AcDbEntity
  8
Defpoints
 62
     0
100
AcDbPoint
 10
192.457537496803
 20
308.2551880511619
 30
0.0
  0
POINT
  5
B8B
330
B35
100
AcDbEntity
  8
Defpoints
 62
     0
100
AcDbPoint
 10
192.457537496803
 20
264.2551880511624
 30
0.0
  0
POINT
  5
B8C
330
B35
100
AcDbEntity
  8
Defpoints
 62
     0
100
AcDbPoint
 10
211.5776669338985
 20
264.2551880511624
 30
0.0
  0
ENDBLK
  5
B37
330
B35
100
AcDbEntity
  8
0
100
AcDbBlockEnd
  0
BLOCK
  5
B90
330
B8F
100
AcDbEntity
  8
0
100
AcDbBlockBegin
  2
*D37
 70
     1
 10
0.0
 20
0.0
 30
0.0
  3
*D37
  1

  0
LINE
  5
BB8
330
B8F
100
AcDbEntity
  8
AM_5
  6
ByBlock
100
AcDbLine
 10
76.25015131563111
 20
166.4451164302355
 30
0.0
 11
92.73680844948968
 21
166.4451164302355
 31
0.0
  0
LINE
  5
BB9
330
B8F
100
AcDbEntity
  8
AM_5
  6
ByBlock
100
AcDbLine
 10
76.25015131563111
 20
152.4451164302355
 30
0.0
 11
92.73680844948968
 21
152.4451164302355
 31
0.0
  0
LINE
  5
BBA
330
B8F
100
AcDbEntity
  8
AM_5
  6
ByBlock
100
AcDbLine
 10
91.73680844948968
 20
163.9451164302355
 30
0.0
 11
91.73680844948966
 21
154.9451164302355
 31
0.0
  0
INSERT
  5
BBB
330
B8F
100
AcDbEntity
  8
AM_5
100
AcDbBlockReference
  2
_Open
 10
91.73680844948968
 20
166.4451164302355
 30
0.0
 41
2.5
 42
2.5
 43
2.5
 50
90.0
  0
INSERT
  5
BBC
330
B8F
100
AcDbEntity
  8
AM_5
100
AcDbBlockReference
  2
_Open
 10
91.73680844948966
 20
152.4451164302355
 30
0.0
 41
2.5
 42
2.5
 43
2.5
 50
270.0
  0
MTEXT
  5
BBD
330
B8F
100
AcDbEntity
  8
AM_5
 62
   140
100
AcDbMText
 10
89.18093202235736
 20
159.4451164302356
 30
0.0
 40
3.5
 41
0.0
 71
     5
 72
     1
  1
14
 11
0.0000000000000001
 21
1.0
 31
0.0
 73
     1
 44
1.0
1001
ACAD
1000
MTEXTBEGIN
1070
    73
1070
     1
1070
    44
1040
1.0
1070
    74
1070
     0
1000
MTEXTEND
  0
POINT
  5
BBE
330
B8F
100
AcDbEntity
  8
Defpoints
 62
     0
100
AcDbPoint
 10
75.75015131563112
 20
166.4451164302355
 30
0.0
  0
POINT
  5
BBF
330
B8F
100
AcDbEntity
  8
Defpoints
 62
     0
100
AcDbPoint
 10
75.75015131563112
 20
152.4451164302355
 30
0.0
  0
POINT
  5
BC0
330
B8F
100
AcDbEntity
  8
Defpoints
 62
     0
100
AcDbPoint
 10
91.73680844948966
 20
152.4451164302355
 30
0.0
  0
ENDBLK
  5
B91
330
B8F
100
AcDbEntity
  8
0
100
AcDbBlockEnd
  0
BLOCK
  5
BC3
330
BC2
100
AcDbEntity
  8
0
100
AcDbBlockBegin
  2
*D38
 70
     1
 10
0.0
 20
0.0
 30
0.0
  3
*D38
  1

  0
LINE
  5
DCE
330
BC2
100
AcDbEntity
  8
AM_5
  6
ByBlock
100
AcDbLine
 10
39.92894066625047
 20
27.25331575594885
 30
0.0
 11
27.42894066625045
 21
27.25331575594885
 31
0.0
  0
LINE
  5
DCF
330
BC2
100
AcDbEntity
  8
AM_5
  6
ByBlock
100
AcDbLine
 10
39.92894066625047
 20
41.25331575594884
 30
0.0
 11
27.42894066625046
 21
41.25331575594884
 31
0.0
  0
LINE
  5
DD0
330
BC2
100
AcDbEntity
  8
AM_5
  6
ByBlock
100
AcDbLine
 10
28.42894066625045
 20
29.75331575594885
 30
0.0
 11
28.42894066625045
 21
38.75331575594885
 31
0.0
  0
INSERT
  5
DD1
330
BC2
100
AcDbEntity
  8
AM_5
100
AcDbBlockReference
  2
_Open
 10
28.42894066625045
 20
27.25331575594885
 30
0.0
 41
2.5
 42
2.5
 43
2.5
 50
270.0
  0
INSERT
  5
DD2
330
BC2
100
AcDbEntity
  8
AM_5
100
AcDbBlockReference
  2
_Open
 10
28.42894066625046
 20
41.25331575594884
 30
0.0
 41
2.5
 42
2.5
 43
2.5
 50
90.0
  0
MTEXT
  5
DD3
330
BC2
100
AcDbEntity
  8
AM_5
 62
   140
100
AcDbMText
 10
25.87306423911814
 20
34.25331575594885
 30
0.0
 40
3.5
 41
0.0
 71
     5
 72
     1
  1
14
 11
0.0000000000000001
 21
1.0
 31
0.0
 73
     1
 44
1.0
1001
ACAD
1000
MTEXTBEGIN
1070
    73
1070
     1
1070
    44
1040
1.0
1070
    74
1070
     0
1000
MTEXTEND
  0
POINT
  5
DD4
330
BC2
100
AcDbEntity
  8
Defpoints
 62
     0
100
AcDbPoint
 10
40.42894066625047
 20
27.25331575594885
 30
0.0
  0
POINT
  5
DD5
330
BC2
100
AcDbEntity
  8
Defpoints
 62
     0
100
AcDbPoint
 10
40.42894066625047
 20
41.25331575594884
 30
0.0
  0
POINT
  5
DD6
330
BC2
100
AcDbEntity
  8
Defpoints
 62
     0
100
AcDbPoint
 10
28.42894066625046
 20
41.25331575594884
 30
0.0
  0
ENDBLK
  5
BC4
330
BC2
100
AcDbEntity
  8
0
100
AcDbBlockEnd
  0
BLOCK
  5
BED
330
BEC
100
AcDbEntity
  8
0
100
AcDbBlockBegin
  2
*D39
 70
     1
 10
0.0
 20
0.0
 30
0.0
  3
*D39
  1

  0
LINE
  5
E11
330
BEC
100
AcDbEntity
  8
AM_5
  6
ByBlock
100
AcDbLine
 10
83.49366357865665
 20
35.25331575594903
 30
0.0
 11
75.9214542644047
 21
35.25331575594904
 31
0.0
  0
LINE
  5
E12
330
BEC
100
AcDbEntity
  8
AM_5
  6
ByBlock
100
AcDbLine
 10
83.49366357865665
 20
33.25331575594886
 30
0.0
 11
75.9214542644047
 21
33.25331575594887
 31
0.0
  0
LINE
  5
E13
330
BEC
100
AcDbEntity
  8
AM_5
  6
ByBlock
100
AcDbLine
 10
76.92145426440468
 20
30.75331575594887
 30
0.0
 11
76.92145426440468
 21
28.25331575594887
 31
0.0
  0
LINE
  5
E14
330
BEC
100
AcDbEntity
  8
AM_5
  6
ByBlock
100
AcDbLine
 10
76.9214542644047
 20
37.75331575594904
 30
0.0
 11
76.9214542644047
 21
47.24433653837954
 31
0.0
  0
LINE
  5
E15
330
BEC
100
AcDbEntity
  8
AM_5
  6
ByBlock
100
AcDbLine
 10
76.9214542644047
 20
33.25331575594887
 30
0.0
 11
76.9214542644047
 21
35.25331575594904
 31
0.0
  0
INSERT
  5
E16
330
BEC
100
AcDbEntity
  8
AM_5
100
AcDbBlockReference
  2
_Open
 10
76.9214542644047
 20
33.25331575594887
 30
0.0
 41
2.5
 42
2.5
 43
2.5
 50
90.0
  0
INSERT
  5
E17
330
BEC
100
AcDbEntity
  8
AM_5
100
AcDbBlockReference
  2
_Open
 10
76.9214542644047
 20
35.25331575594904
 30
0.0
 41
2.5
 42
2.5
 43
2.5
 50
270.0
  0
MTEXT
  5
E18
330
BEC
100
AcDbEntity
  8
AM_5
 62
   140
100
AcDbMText
 10
74.3350204161844
 20
43.83614311997793
 30
0.0
 40
3.5
 41
0.0
 71
     5
 72
     1
  1
%%c2
 11
0.0000000000000001
 21
1.0
 31
0.0
 73
     1
 44
1.0
1001
ACAD
1000
MTEXTBEGIN
1070
    73
1070
     1
1070
    44
1040
1.0
1070
    74
1070
     0
1000
MTEXTEND
  0
POINT
  5
E19
330
BEC
100
AcDbEntity
  8
Defpoints
 62
     0
100
AcDbPoint
 10
83.99366357865664
 20
35.25331575594903
 30
0.0
  0
POINT
  5
E1A
330
BEC
100
AcDbEntity
  8
Defpoints
 62
     0
100
AcDbPoint
 10
83.99366357865664
 20
33.25331575594886
 30
0.0
  0
POINT
  5
E1B
330
BEC
100
AcDbEntity
  8
Defpoints
 62
     0
100
AcDbPoint
 10
76.9214542644047
 20
33.25331575594887
 30
0.0
  0
ENDBLK
  5
BEE
330
BEC
100
AcDbEntity
  8
0
100
AcDbBlockEnd
  0
BLOCK
  5
C2A
330
C29
100
AcDbEntity
  8
0
100
AcDbBlockBegin
  2
*D40
 70
     1
 10
0.0
 20
0.0
 30
0.0
  3
*D40
  1

  0
LINE
  5
DE2
330
C29
100
AcDbEntity
  8
AM_5
  6
ByBlock
100
AcDbLine
 10
88.79366357865661
 20
29.25331575594885
 30
0.0
 11
68.43519573799629
 21
29.25331575594885
 31
0.0
  0
LINE
  5
DE3
330
C29
100
AcDbEntity
  8
AM_5
  6
ByBlock
100
AcDbLine
 10
88.79366357865661
 20
39.25331575594885
 30
0.0
 11
68.43519573799631
 21
39.25331575594885
 31
0.0
  0
LINE
  5
DE4
330
C29
100
AcDbEntity
  8
AM_5
  6
ByBlock
100
AcDbLine
 10
69.4351957379963
 20
31.75331575594885
 30
0.0
 11
69.43519573799631
 21
36.75331575594885
 31
0.0
  0
INSERT
  5
DE5
330
C29
100
AcDbEntity
  8
AM_5
100
AcDbBlockReference
  2
_Open
 10
69.4351957379963
 20
29.25331575594885
 30
0.0
 41
2.5
 42
2.5
 43
2.5
 50
270.0
  0
INSERT
  5
DE6
330
C29
100
AcDbEntity
  8
AM_5
100
AcDbBlockReference
  2
_Open
 10
69.43519573799631
 20
39.25331575594885
 30
0.0
 41
2.5
 42
2.5
 43
2.5
 50
90.0
  0
MTEXT
  5
DE7
330
C29
100
AcDbEntity
  8
AM_5
 62
   140
100
AcDbMText
 10
66.81350332698219
 20
34.25331575594886
 30
0.0
 40
3.5
 41
0.0
 71
     5
 72
     1
  1
%%c10
 11
0.0000000000000001
 21
1.0
 31
0.0
 73
     1
 44
1.0
1001
ACAD
1000
MTEXTBEGIN
1070
    73
1070
     1
1070
    44
1040
1.0
1070
    74
1070
     0
1000
MTEXTEND
  0
POINT
  5
DE8
330
C29
100
AcDbEntity
  8
Defpoints
 62
     0
100
AcDbPoint
 10
89.2936635786566
 20
29.25331575594885
 30
0.0
  0
POINT
  5
DE9
330
C29
100
AcDbEntity
  8
Defpoints
 62
     0
100
AcDbPoint
 10
89.2936635786566
 20
39.25331575594885
 30
0.0
  0
POINT
  5
DEA
330
C29
100
AcDbEntity
  8
Defpoints
 62
     0
100
AcDbPoint
 10
69.43519573799631
 20
39.25331575594885
 30
0.0
  0
ENDBLK
  5
C2B
330
C29
100
AcDbEntity
  8
0
100
AcDbBlockEnd
  0
BLOCK
  5
C5D
330
C5C
100
AcDbEntity
  8
0
100
AcDbBlockBegin
  2
*D41
 70
     1
 10
0.0
 20
0.0
 30
0.0
  3
*D41
  1

  0
LINE
  5
DEB
330
C5C
100
AcDbEntity
  8
AM_5
  6
ByBlock
100
AcDbLine
 10
90.7936635786566
 20
45.25331575594885
 30
0.0
 11
90.7936635786566
 21
60.53440935856042
 31
0.0
  0
LINE
  5
DEC
330
C5C
100
AcDbEntity
  8
AM_5
  6
ByBlock
100
AcDbLine
 10
89.2936635786566
 20
39.75331575594885
 30
0.0
 11
89.2936635786566
 21
60.53440935856042
 31
0.0
  0
LINE
  5
DED
330
C5C
100
AcDbEntity
  8
AM_5
  6
ByBlock
100
AcDbLine
 10
86.7936635786566
 20
59.53440935856042
 30
0.0
 11
84.2936635786566
 21
59.53440935856042
 31
0.0
  0
LINE
  5
DEE
330
C5C
100
AcDbEntity
  8
AM_5
  6
ByBlock
100
AcDbLine
 10
93.2936635786566
 20
59.53440935856042
 30
0.0
 11
103.3241538405773
 21
59.53440935856042
 31
0.0
  0
LINE
  5
DEF
330
C5C
100
AcDbEntity
  8
AM_5
  6
ByBlock
100
AcDbLine
 10
89.2936635786566
 20
59.53440935856042
 30
0.0
 11
90.7936635786566
 21
59.53440935856042
 31
0.0
  0
INSERT
  5
DF0
330
C5C
100
AcDbEntity
  8
AM_5
100
AcDbBlockReference
  2
_Open
 10
89.2936635786566
 20
59.53440935856042
 30
0.0
 41
2.5
 42
2.5
 43
2.5
  0
INSERT
  5
DF1
330
C5C
100
AcDbEntity
  8
AM_5
100
AcDbBlockReference
  2
_Open
 10
90.7936635786566
 20
59.53440935856042
 30
0.0
 41
2.5
 42
2.5
 43
2.5
 50
180.0
  0
MTEXT
  5
DF2
330
C5C
100
AcDbEntity
  8
AM_5
 62
   140
100
AcDbMText
 10
99.55890870961699
 20
62.12671963391301
 30
0.0
 40
3.5
 41
0.0
 71
     5
 72
     1
  1
1.5
 73
     1
 44
1.0
1001
ACAD
1000
MTEXTBEGIN
1070
    73
1070
     1
1070
    44
1040
1.0
1070
    74
1070
     0
1000
MTEXTEND
  0
POINT
  5
DF3
330
C5C
100
AcDbEntity
  8
Defpoints
 62
     0
100
AcDbPoint
 10
90.7936635786566
 20
44.75331575594885
 30
0.0
  0
POINT
  5
DF4
330
C5C
100
AcDbEntity
  8
Defpoints
 62
     0
100
AcDbPoint
 10
89.2936635786566
 20
39.25331575594885
 30
0.0
  0
POINT
  5
DF5
330
C5C
100
AcDbEntity
  8
Defpoints
 62
     0
100
AcDbPoint
 10
89.2936635786566
 20
59.53440935856042
 30
0.0
  0
ENDBLK
  5
C5E
330
C5C
100
AcDbEntity
  8
0
100
AcDbBlockEnd
  0
BLOCK
  5
C8F
330
C8E
100
AcDbEntity
  8
0
100
AcDbBlockBegin
  2
*D42
 70
     1
 10
0.0
 20
0.0
 30
0.0
  3
*D42
  1

  0
LINE
  5
DF6
330
C8E
100
AcDbEntity
  8
AM_5
  6
ByBlock
100
AcDbLine
 10
90.7936635786566
 20
45.25331575594885
 30
0.0
 11
90.7936635786566
 21
67.07813110004656
 31
0.0
  0
LINE
  5
DF7
330
C8E
100
AcDbEntity
  8
AM_5
  6
ByBlock
100
AcDbLine
 10
83.79366357865661
 20
35.55331575594903
 30
0.0
 11
83.79366357865661
 21
67.07813110004656
 31
0.0
  0
LINE
  5
DF8
330
C8E
100
AcDbEntity
  8
AM_5
  6
ByBlock
100
AcDbLine
 10
88.2936635786566
 20
66.07813110004656
 30
0.0
 11
86.29366357865661
 21
66.07813110004656
 31
0.0
  0
INSERT
  5
DF9
330
C8E
100
AcDbEntity
  8
AM_5
100
AcDbBlockReference
  2
_Open
 10
90.7936635786566
 20
66.07813110004656
 30
0.0
 41
2.5
 42
2.5
 43
2.5
  0
INSERT
  5
DFA
330
C8E
100
AcDbEntity
  8
AM_5
100
AcDbBlockReference
  2
_Open
 10
83.79366357865661
 20
66.07813110004656
 30
0.0
 41
2.5
 42
2.5
 43
2.5
 50
180.0
  0
MTEXT
  5
DFB
330
C8E
100
AcDbEntity
  8
AM_5
 62
   140
100
AcDbMText
 10
87.29366357865661
 20
68.62813110004656
 30
0.0
 40
3.5
 41
0.0
 71
     5
 72
     1
  1
7
 73
     1
 44
1.0
1001
ACAD
1000
MTEXTBEGIN
1070
    73
1070
     1
1070
    44
1040
1.0
1070
    74
1070
     0
1000
MTEXTEND
  0
POINT
  5
DFC
330
C8E
100
AcDbEntity
  8
Defpoints
 62
     0
100
AcDbPoint
 10
90.7936635786566
 20
44.75331575594885
 30
0.0
  0
POINT
  5
DFD
330
C8E
100
AcDbEntity
  8
Defpoints
 62
     0
100
AcDbPoint
 10
83.79366357865661
 20
35.05331575594903
 30
0.0
  0
POINT
  5
DFE
330
C8E
100
AcDbEntity
  8
Defpoints
 62
     0
100
AcDbPoint
 10
83.79366357865661
 20
66.07813110004656
 30
0.0
  0
ENDBLK
  5
C90
330
C8E
100
AcDbEntity
  8
0
100
AcDbBlockEnd
  0
BLOCK
  5
CB0
330
CAF
100
AcDbEntity
  8
0
100
AcDbBlockBegin
  2
*D43
 70
     1
 10
0.0
 20
0.0
 30
0.0
  3
*D43
  1

  0
LINE
  5
DFF
330
CAF
100
AcDbEntity
  8
AM_5
  6
ByBlock
100
AcDbLine
 10
90.7936635786566
 20
45.25331575594885
 30
0.0
 11
90.7936635786566
 21
67.07813110004656
 31
0.0
  0
LINE
  5
E00
330
CAF
100
AcDbEntity
  8
AM_5
  6
ByBlock
100
AcDbLine
 10
124.7936635786567
 20
45.19014956702415
 30
0.0
 11
124.7936635786567
 21
67.07813110004656
 31
0.0
  0
LINE
  5
E01
330
CAF
100
AcDbEntity
  8
AM_5
  6
ByBlock
100
AcDbLine
 10
93.2936635786566
 20
66.07813110004656
 30
0.0
 11
122.2936635786567
 21
66.07813110004656
 31
0.0
  0
INSERT
  5
E02
330
CAF
100
AcDbEntity
  8
AM_5
100
AcDbBlockReference
  2
_Open
 10
90.7936635786566
 20
66.07813110004656
 30
0.0
 41
2.5
 42
2.5
 43
2.5
 50
180.0
  0
INSERT
  5
E03
330
CAF
100
AcDbEntity
  8
AM_5
100
AcDbBlockReference
  2
_Open
 10
124.7936635786567
 20
66.07813110004656
 30
0.0
 41
2.5
 42
2.5
 43
2.5
  0
MTEXT
  5
E04
330
CAF
100
AcDbEntity
  8
AM_5
 62
   140
100
AcDbMText
 10
107.7936635786566
 20
68.70099879648712
 30
0.0
 40
3.5
 41
0.0
 71
     5
 72
     1
  1
34
 73
     1
 44
1.0
1001
ACAD
1000
MTEXTBEGIN
1070
    73
1070
     1
1070
    44
1040
1.0
1070
    74
1070
     0
1000
MTEXTEND
  0
POINT
  5
E05
330
CAF
100
AcDbEntity
  8
Defpoints
 62
     0
100
AcDbPoint
 10
90.7936635786566
 20
44.75331575594885
 30
0.0
  0
POINT
  5
E06
330
CAF
100
AcDbEntity
  8
Defpoints
 62
     0
100
AcDbPoint
 10
124.7936635786567
 20
44.69014956702415
 30
0.0
  0
POINT
  5
E07
330
CAF
100
AcDbEntity
  8
Defpoints
 62
     0
100
AcDbPoint
 10
124.7936635786567
 20
66.07813110004656
 30
0.0
  0
ENDBLK
  5
CB1
330
CAF
100
AcDbEntity
  8
0
100
AcDbBlockEnd
  0
BLOCK
  5
CD1
330
CD0
100
AcDbEntity
  8
0
100
AcDbBlockBegin
  2
*D44
 70
     1
 10
0.0
 20
0.0
 30
0.0
  3
*D44
  1

  0
LINE
  5
E08
330
CD0
100
AcDbEntity
  8
AM_5
  6
ByBlock
100
AcDbLine
 10
121.2936635786567
 20
45.25331575594885
 30
0.0
 11
136.0404734788192
 21
45.25331575594885
 31
0.0
  0
LINE
  5
E09
330
CD0
100
AcDbEntity
  8
AM_5
  6
ByBlock
100
AcDbLine
 10
124.7936635786566
 20
23.25331575594885
 30
0.0
 11
136.0404734788192
 21
23.25331575594884
 31
0.0
  0
LINE
  5
E0A
330
CD0
100
AcDbEntity
  8
AM_5
  6
ByBlock
100
AcDbLine
 10
135.0404734788192
 20
42.75331575594885
 30
0.0
 11
135.0404734788192
 21
25.75331575594885
 31
0.0
  0
INSERT
  5
E0B
330
CD0
100
AcDbEntity
  8
AM_5
100
AcDbBlockReference
  2
_Open
 10
135.0404734788192
 20
45.25331575594885
 30
0.0
 41
2.5
 42
2.5
 43
2.5
 50
90.0
  0
INSERT
  5
E0C
330
CD0
100
AcDbEntity
  8
AM_5
100
AcDbBlockReference
  2
_Open
 10
135.0404734788192
 20
23.25331575594885
 30
0.0
 41
2.5
 42
2.5
 43
2.5
 50
270.0
  0
MTEXT
  5
E0D
330
CD0
100
AcDbEntity
  8
AM_5
 62
   140
100
AcDbMText
 10
132.4540396305989
 20
34.25331575594887
 30
0.0
 40
3.5
 41
0.0
 71
     5
 72
     1
  1
%%c22
 11
0.0000000000000001
 21
1.0
 31
0.0
 73
     1
 44
1.0
1001
ACAD
1000
MTEXTBEGIN
1070
    73
1070
     1
1070
    44
1040
1.0
1070
    74
1070
     0
1000
MTEXTEND
  0
POINT
  5
E0E
330
CD0
100
AcDbEntity
  8
Defpoints
 62
     0
100
AcDbPoint
 10
120.7936635786567
 20
45.25331575594885
 30
0.0
  0
POINT
  5
E0F
330
CD0
100
AcDbEntity
  8
Defpoints
 62
     0
100
AcDbPoint
 10
124.2936635786566
 20
23.25331575594885
 30
0.0
  0
POINT
  5
E10
330
CD0
100
AcDbEntity
  8
Defpoints
 62
     0
100
AcDbPoint
 10
135.0404734788192
 20
23.25331575594885
 30
0.0
  0
ENDBLK
  5
CD2
330
CD0
100
AcDbEntity
  8
0
100
AcDbBlockEnd
  0
BLOCK
  5
E23
330
E1C
100
AcDbEntity
  8
0
100
AcDbBlockBegin
  2
*S47
 70
     1
 10
0.0
 20
0.0
 30
0.0
  3
*S47
  1

  0
LINE
  5
E1D
330
E1C
100
AcDbEntity
  8
AM_5
  6
Continuous
 62
    92
100
AcDbLine
 10
115.7066410822061
 20
50.39933206280966
 30
0.0
 11
94.65614375871542
 21
50.39933206280966
 31
0.0
  0
LINE
  5
E1E
330
E1C
100
AcDbEntity
  8
AM_5
  6
Continuous
 62
    92
100
AcDbLine
 10
94.65614375871542
 20
50.39933206280966
 30
0.0
 11
103.2834178444053
 21
46.32162714351267
 31
0.0
  0
LINE
  5
E1F
330
E1C
100
AcDbEntity
  8
AM_5
  6
Continuous
 62
    92
100
AcDbLine
 10
103.2834178444053
 20
46.32162714351267
 30
0.0
 11
105.5436635786566
 21
45.25331575594885
 31
0.0
  0
LINE
  5
E20
330
E1C
100
AcDbEntity
  8
AM_5
  6
Continuous
 62
    92
100
AcDbLine
 10
103.1053659536001
 20
45.94491953620575
 30
0.0
 11
105.5436635786566
 21
45.25331575594885
 31
0.0
  0
LINE
  5
E21
330
E1C
100
AcDbEntity
  8
AM_5
  6
Continuous
 62
    92
100
AcDbLine
 10
105.5436635786566
 20
45.25331575594885
 30
0.0
 11
103.4614697352105
 21
46.69833475081959
 31
0.0
  0
MTEXT
  5
E22
102
{ACAD_XDICTIONARY
360
E7A
102
}
330
E1C
100
AcDbEntity
  8
AM_5
 62
   140
100
AcDbMText
 10
95.95948199129702
 20
51.70192935603927
 30
0.0
 40
3.5
 41
0.0
 71
     7
 72
     5
  1
\U+5B9A\U+683C\U+9298\U+677F
 73
     1
 44
1.0
1001
ACAD
1000
MTEXTBEGIN
1070
    73
1070
     1
1070
    44
1040
1.0
1070
    74
1070
     0
1000
MTEXTEND
  0
ENDBLK
  5
E24
330
E1C
100
AcDbEntity
  8
0
100
AcDbBlockEnd
  0
BLOCK
  5
E2D
330
E26
100
AcDbEntity
  8
0
100
AcDbBlockBegin
  2
*S48
 70
     1
 10
0.0
 20
0.0
 30
0.0
  3
*S48
  1

  0
LINE
  5
E27
330
E26
100
AcDbEntity
  8
AM_5
  6
Continuous
 62
    92
100
AcDbLine
 10
103.5531805479272
 20
11.57351306969008
 30
0.0
 11
146.5098422508556
 21
11.57351306969008
 31
0.0
  0
LINE
  5
E28
330
E26
100
AcDbEntity
  8
AM_5
  6
Continuous
 62
    92
100
AcDbLine
 10
146.5098422508556
 20
11.57351306969008
 30
0.0
 11
153.1375420737146
 21
24.04566360188301
 31
0.0
  0
LINE
  5
E29
330
E26
100
AcDbEntity
  8
AM_5
  6
Continuous
 62
    92
100
AcDbLine
 10
153.1375420737146
 20
24.04566360188301
 30
0.0
 11
154.310688256698
 21
26.25331575594885
 31
0.0
  0
LINE
  5
E2A
330
E26
100
AcDbEntity
  8
AM_5
  6
Continuous
 62
    92
100
AcDbLine
 10
153.5054840846745
 20
23.85013924587342
 30
0.0
 11
154.310688256698
 21
26.25331575594885
 31
0.0
  0
LINE
  5
E2B
330
E26
100
AcDbEntity
  8
AM_5
  6
Continuous
 62
    92
100
AcDbLine
 10
154.310688256698
 20
26.25331575594885
 30
0.0
 11
152.7696000627546
 21
24.2411879578926
 31
0.0
  0
MTEXT
  5
E2C
330
E26
100
AcDbEntity
  8
AM_5
 62
   140
100
AcDbMText
 10
103.5531805479272
 20
12.87611036291969
 30
0.0
 40
3.5
 41
0.0
 71
     7
 72
     5
  1
MOLEX 53047-0810
 73
     1
 44
1.0
1001
ACAD
1000
MTEXTBEGIN
1070
    73
1070
     1
1070
    44
1040
1.0
1070
    74
1070
     0
1000
MTEXTEND
  0
ENDBLK
  5
E2E
330
E26
100
AcDbEntity
  8
0
100
AcDbBlockEnd
  0
BLOCK
  5
E38
330
E30
100
AcDbEntity
  8
0
100
AcDbBlockBegin
  2
*S49
 70
     1
 10
0.0
 20
0.0
 30
0.0
  3
*S49
  1

  0
LINE
  5
E31
330
E30
100
AcDbEntity
  8
AM_5
  6
Continuous
 62
    92
100
AcDbLine
 10
62.89399724522263
 20
57.5465674573511
 30
0.0
 11
31.76241700239348
 21
57.5465674573511
 31
0.0
  0
LINE
  5
E32
330
E30
100
AcDbEntity
  8
AM_5
  6
Continuous
 62
    92
100
AcDbLine
 10
31.76241700239348
 20
57.5465674573511
 30
0.0
 11
41.83482936696958
 21
44.05772262126352
 31
0.0
  0
LINE
  5
E33
330
E30
100
AcDbEntity
  8
AM_5
  6
Continuous
 62
    92
100
AcDbLine
 10
41.83482936696958
 20
44.05772262126352
 30
0.0
 11
43.33062315217022
 21
42.05457486032446
 31
0.0
  0
LINE
  5
E34
330
E30
100
AcDbEntity
  8
AM_5
  6
Continuous
 62
    92
100
AcDbLine
 10
41.50097142016739
 20
43.80842366703537
 30
0.0
 11
43.33062315217022
 21
42.05457486032446
 31
0.0
  0
LINE
  5
E35
330
E30
100
AcDbEntity
  8
AM_5
  6
Continuous
 62
    92
100
AcDbLine
 10
43.33062315217022
 20
42.05457486032446
 30
0.0
 11
42.16868731377178
 21
44.30702157549166
 31
0.0
  0
MTEXT
  5
E36
102
{ACAD_XDICTIONARY
360
E7C
102
}
330
E30
100
AcDbEntity
  8
AM_5
 62
   140
100
AcDbMText
 10
37.54023251599619
 20
61.83400869307978
 30
0.0
 40
3.5
 41
0.0
 71
     1
 72
     5
  1
2-M2\P\U+6709\U+52B9\U+6DF1\U+30551.5
 73
     1
 44
1.0
1001
ACAD
1000
MTEXTBEGIN
1070
    73
1070
     1
1070
    44
1040
1.0
1070
    74
1070
     0
1000
MTEXTEND
  0
LINE
  5
E37
330
E30
100
AcDbEntity
  8
AM_5
  6
Continuous
 62
    92
100
AcDbLine
 10
37.54023251599619
 20
57.5465674573511
 30
0.0
 11
62.89399724522264
 21
57.5465674573511
 31
0.0
  0
ENDBLK
  5
E39
330
E30
100
AcDbEntity
  8
0
100
AcDbBlockEnd
  0
ENDSEC
  0
SECTION
  2
ENTITIES
  0
LWPOLYLINE
  5
C7
330
67
100
AcDbEntity
  8
AM_VIEWS
  6
Continuous
100
AcDbPolyline
 90
        4
 70
     1
 43
0.0
 10
0.0
 20
0.0
 10
200.0
 20
0.0
 10
200.0
 20
80.0
 10
0.0
 20
80.0
  0
LWPOLYLINE
  5
2BF
330
67
100
AcDbEntity
  8
AM_VIEWS
100
AcDbPolyline
 90
        2
 70
     0
 43
0.0
 10
200.0
 20
-0.0000000000000004
 10
200.0
 20
80.0
1001
GENIUS_GENSCREG_15
1040
1.0
1040
1.0
1011
0.0
1021
0.0
1031
0.0
1011
200.0
1021
80.0
1031
0.0
1070
     2
1001
GENIUS_GENODEF_13
1002
{
1000
HIER
1070
     0
1002
}
1002
{
1000
MANEDIT
1070
     0
1002
}
1002
{
1000
NOSEL
1070
     0
1002
}
1002
{
1000
BEHIND
1070
     0
1002
}
1002
{
1000
OTHER
1070
     0
1002
}
1002
{
1000
REACTOR
1002
}
1001
GENIUS_GENOBJ-N-SDF_13
1002
{
1000
OWNER
1000
GEN
1002
}
  0
LWPOLYLINE
  5
2C0
330
67
100
AcDbEntity
  8
AM_VIEWS
100
AcDbPolyline
 90
        2
 70
     0
 43
0.0
 10
200.0
 20
80.0
 10
-0.0000000000000044
 20
80.0
1001
GENIUS_GENSCREG_15
1040
1.0
1040
1.0
1011
0.0
1021
0.0
1031
0.0
1011
200.0
1021
80.0
1031
0.0
1070
     2
1001
GENIUS_GENODEF_13
1002
{
1000
HIER
1070
     0
1002
}
1002
{
1000
MANEDIT
1070
     0
1002
}
1002
{
1000
NOSEL
1070
     0
1002
}
1002
{
1000
BEHIND
1070
     0
1002
}
1002
{
1000
OTHER
1070
     0
1002
}
1002
{
1000
REACTOR
1002
}
1001
GENIUS_GENOBJ-N-SDF_13
1002
{
1000
OWNER
1000
GEN
1002
}
  0
LWPOLYLINE
  5
2C1
330
67
100
AcDbEntity
  8
AM_VIEWS
100
AcDbPolyline
 90
        3
 70
     0
 43
0.0
 10
-0.0000000000000044
 20
80.0
 10
0.0
 20
0.0000000000000071
 10
200.0
 20
-0.0000000000000004
1001
GENIUS_GENSCREG_15
1040
1.0
1040
1.0
1011
0.0
1021
0.0
1031
0.0
1011
200.0
1021
80.0
1031
0.0
1070
     2
1001
GENIUS_GENODEF_13
1002
{
1000
HIER
1070
     0
1002
}
1002
{
1000
MANEDIT
1070
     0
1002
}
1002
{
1000
NOSEL
1070
     0
1002
}
1002
{
1000
BEHIND
1070
     0
1002
}
1002
{
1000
OTHER
1070
     0
1002
}
1002
{
1000
REACTOR
1002
}
1001
GENIUS_GENOBJ-N-SDF_13
1002
{
1000
OWNER
1000
GEN
1002
}
  0
LWPOLYLINE
  5
2C2
330
67
100
AcDbEntity
  8
AM_VIEWS
100
AcDbPolyline
 90
        2
 70
     0
 43
0.0
 10
0.0
 20
0.0000000000000071
 10
62.5
 20
0.0000000000000071
1001
GENIUS_GENSCREG_15
1040
1.0
1040
1.0
1011
0.0
1021
-45.0
1031
0.0
1011
62.5
1021
0.0
1031
0.0
1070
     2
1001
GENIUS_GENOBJ-N-SDF_13
1002
{
1000
OWNER
1000
GEN
1002
}
1001
GENIUS_GENODEF_13
1002
{
1000
HIER
1070
     0
1002
}
1002
{
1000
MANEDIT
1070
     0
1002
}
1002
{
1000
NOSEL
1070
     0
1002
}
1002
{
1000
BEHIND
1070
     0
1002
}
1002
{
1000
OTHER
1070
     0
1002
}
1002
{
1000
REACTOR
1002
}
  0
LINE
  5
7CF
330
67
100
AcDbEntity
  8
AM_0
100
AcDbLine
 10
124.7936635786567
 20
35.15331575594894
 30
0.0
 11
124.7936635786567
 21
33.35331575594921
 31
0.0
  0
ARC
  5
7D0
330
67
100
AcDbEntity
  8
AM_0
100
AcDbCircle
 10
124.4936635786567
 20
35.15331575594894
 30
0.0
 40
0.3
100
AcDbArc
 50
0.0
 51
90.0
  0
ARC
  5
7D1
330
67
100
AcDbEntity
  8
AM_0
100
AcDbCircle
 10
124.4936635786567
 20
33.35331575594921
 30
0.0
 40
0.3
100
AcDbArc
 50
270.0
 51
0.0
  0
LINE
  5
7D2
330
67
100
AcDbEntity
  8
AM_0
100
AcDbLine
 10
124.7936635786567
 20
32.75331575594885
 30
0.0
 11
124.2936635786566
 21
32.75331575594885
 31
0.0
  0
LINE
  5
7D3
330
67
100
AcDbEntity
  8
AM_0
100
AcDbLine
 10
124.7936635786567
 20
35.75331575594885
 30
0.0
 11
124.7936635786567
 21
35.15331575594894
 31
0.0
  0
LINE
  5
7D4
330
67
100
AcDbEntity
  8
AM_0
100
AcDbLine
 10
124.7936635786567
 20
33.35331575594921
 30
0.0
 11
124.7936635786567
 21
32.75331575594885
 31
0.0
  0
LINE
  5
7D5
330
67
100
AcDbEntity
  8
AM_0
100
AcDbLine
 10
124.2936635786566
 20
35.75331575594885
 30
0.0
 11
124.7936635786567
 21
35.75331575594885
 31
0.0
  0
LINE
  5
7D6
330
67
100
AcDbEntity
  8
AM_0
100
AcDbLine
 10
124.7936635786567
 20
35.75331575594885
 30
0.0
 11
124.7936635786567
 21
44.69014956702415
 31
0.0
  0
LINE
  5
7D7
330
67
100
AcDbEntity
  8
AM_0
100
AcDbLine
 10
124.7936635786567
 20
30.03082806476334
 30
0.0
 11
124.7936635786567
 21
32.75331575594885
 31
0.0
  0
LINE
  5
7D8
330
67
100
AcDbEntity
  8
AM_0
100
AcDbLine
 10
124.7936635786567
 20
23.75331575594885
 30
0.0
 11
124.7936635786567
 21
28.0389696360595
 31
0.0
  0
LINE
  5
7D9
330
67
100
AcDbEntity
  8
AM_0
100
AcDbLine
 10
124.7936635786567
 20
30.03082806476334
 30
0.0
 11
124.2936635786566
 21
30.03082806476334
 31
0.0
  0
LINE
  5
7DA
330
67
100
AcDbEntity
  8
AM_0
100
AcDbLine
 10
124.2936635786566
 20
27.78752594008222
 30
0.0
 11
124.2936635786566
 21
28.0389696360595
 31
0.0
  0
LINE
  5
7DB
330
67
100
AcDbEntity
  8
AM_0
100
AcDbLine
 10
124.2936635786566
 20
27.78752594008222
 30
0.0
 11
124.2936635786566
 21
23.25331575594885
 31
0.0
  0
LINE
  5
7DC
330
67
100
AcDbEntity
  8
AM_0
100
AcDbLine
 10
124.2936635786566
 20
45.19303695897781
 30
0.0
 11
124.2936635786566
 21
29.77938436878651
 31
0.0
  0
LINE
  5
7DD
330
67
100
AcDbEntity
  8
AM_0
100
AcDbLine
 10
124.2936635786566
 20
28.0389696360595
 30
0.0
 11
124.7936635786567
 21
28.0389696360595
 31
0.0
  0
LINE
  5
7DE
102
{ACAD_REACTORS
330
CBC
102
}
330
67
100
AcDbEntity
  8
AM_0
100
AcDbLine
 10
124.2936635786566
 20
44.69014956702415
 30
0.0
 11
124.7936635786567
 21
44.69014956702415
 31
0.0
  0
LINE
  5
7DF
330
67
100
AcDbEntity
  8
AM_0
100
AcDbLine
 10
124.7936635786567
 20
23.75331575594885
 30
0.0
 11
124.2936635786566
 21
23.75331575594885
 31
0.0
  0
LINE
  5
7E0
330
67
100
AcDbEntity
  8
AM_0
100
AcDbLine
 10
124.7936635786567
 20
30.03082806476334
 30
0.0
 11
124.7936635786567
 21
29.0073865415967
 31
0.0
  0
LINE
  5
7E1
330
67
100
AcDbEntity
  8
AM_0
100
AcDbLine
 10
124.7936635786567
 20
29.0073865415967
 30
0.0
 11
124.7936635786567
 21
28.0389696360595
 31
0.0
  0
LINE
  5
7E2
330
67
100
AcDbEntity
  8
AM_0
100
AcDbLine
 10
122.9936635786567
 20
29.77938436878651
 30
0.0
 11
124.2936635786566
 21
29.77938436878651
 31
0.0
  0
LINE
  5
7E3
330
67
100
AcDbEntity
  8
AM_0
100
AcDbLine
 10
120.7936635786567
 20
30.08113361314156
 30
0.0
 11
122.9936635786567
 21
30.08113361314156
 31
0.0
  0
LINE
  5
7E4
330
67
100
AcDbEntity
  8
AM_0
100
AcDbLine
 10
124.2936635786566
 20
27.78752594008222
 30
0.0
 11
122.9936635786567
 21
27.78752594008222
 31
0.0
  0
LINE
  5
7E5
330
67
100
AcDbEntity
  8
AM_0
100
AcDbLine
 10
119.7936635786566
 20
29.91934115973356
 30
0.0
 11
120.7936635786567
 21
29.91934115973356
 31
0.0
  0
LINE
  5
7E6
330
67
100
AcDbEntity
  8
AM_0
100
AcDbLine
 10
119.7936635786566
 20
28.75331575594885
 30
0.0
 11
119.7936635786566
 21
27.88729035216477
 31
0.0
  0
LINE
  5
7E7
330
67
100
AcDbEntity
  8
AM_0
100
AcDbLine
 10
119.7936635786566
 20
29.61934115973338
 30
0.0
 11
119.7936635786566
 21
28.75331575594885
 31
0.0
  0
LINE
  5
7E8
330
67
100
AcDbEntity
  8
AM_0
100
AcDbLine
 10
119.7936635786566
 20
29.61934115973338
 30
0.0
 11
119.7936635786566
 21
29.64211558468162
 31
0.0
  0
LINE
  5
7E9
330
67
100
AcDbEntity
  8
AM_0
100
AcDbLine
 10
120.7936635786567
 20
29.61934115973338
 30
0.0
 11
119.7936635786566
 21
29.61934115973338
 31
0.0
  0
ELLIPSE
  5
7EA
330
67
100
AcDbEntity
  8
AM_0
100
AcDbEllipse
 10
120.7936635786567
 20
29.91934115973356
 30
0.0
 11
0.6000000000000119
 21
0.0000000000000005
 31
0.0
210
0.0
220
0.0
230
1.0
 40
0.5000000000000008
 41
4.712388980384688
 42
5.962758828194486
  0
LINE
  5
7EB
330
67
100
AcDbEntity
  8
AM_0
100
AcDbLine
 10
121.5332264371072
 20
30.08113361314156
 30
0.0
 11
121.3631242840968
 21
29.824849751447
 31
0.0
  0
LINE
  5
7EC
330
67
100
AcDbEntity
  8
AM_0
100
AcDbLine
 10
120.7936635786567
 20
29.91934115973356
 30
0.0
 11
120.9010493675378
 21
30.08113361314156
 31
0.0
  0
ELLIPSE
  5
7ED
330
67
100
AcDbEntity
  8
AM_0
100
AcDbEllipse
 10
120.7936635786567
 20
28.18729035216449
 30
0.0
 11
0.6000000000000112
 21
0.000000000000006
 31
0.0
210
0.0
220
0.0
230
1.0
 40
0.4999999999999984
 41
4.712388980384683
 42
5.962758828194432
  0
LINE
  5
7EE
330
67
100
AcDbEntity
  8
AM_0
100
AcDbLine
 10
121.3631242840968
 20
28.09279894387839
 30
0.0
 11
121.9936635786566
 21
29.04279894387821
 31
0.0
  0
LINE
  5
7EF
330
67
100
AcDbEntity
  8
AM_0
100
AcDbLine
 10
121.9936635786566
 20
29.04279894387821
 30
0.0
 11
121.9936635786566
 21
30.08113361314156
 31
0.0
  0
LINE
  5
7F0
330
67
100
AcDbEntity
  8
AM_0
100
AcDbLine
 10
119.7936635786566
 20
27.88729035216477
 30
0.0
 11
120.7936635786567
 21
27.88729035216477
 31
0.0
  0
LINE
  5
7F1
330
67
100
AcDbEntity
  8
AM_0
100
AcDbLine
 10
120.7936635786567
 20
30.08113361314156
 30
0.0
 11
120.7936635786567
 21
29.91934115973356
 31
0.0
  0
LINE
  5
7F2
330
67
100
AcDbEntity
  8
AM_0
100
AcDbLine
 10
119.7936635786566
 20
27.88729035216477
 30
0.0
 11
119.7936635786566
 21
27.11293803518413
 31
0.0
  0
LINE
  5
7F3
330
67
100
AcDbEntity
  8
AM_0
100
AcDbLine
 10
122.7936635786567
 20
27.11293803518413
 30
0.0
 11
119.7936635786566
 21
27.11293803518413
 31
0.0
  0
LINE
  5
7F4
330
67
100
AcDbEntity
  8
AM_0
100
AcDbLine
 10
122.7936635786567
 20
27.41832461951083
 30
0.0
 11
122.7936635786567
 21
27.11293803518413
 31
0.0
  0
LINE
  5
7F5
330
67
100
AcDbEntity
  8
AM_0
100
AcDbLine
 10
122.7936635786567
 20
27.41832461951083
 30
0.0
 11
119.7936635786566
 21
27.41832461951083
 31
0.0
  0
LINE
  5
7F6
330
67
100
AcDbEntity
  8
AM_0
100
AcDbLine
 10
119.7936635786566
 20
30.57703965032181
 30
0.0
 11
122.7936635786567
 21
30.57703965032181
 31
0.0
  0
LINE
  5
7F7
330
67
100
AcDbEntity
  8
AM_0
100
AcDbLine
 10
119.7936635786566
 20
30.57703965032181
 30
0.0
 11
119.7936635786566
 21
29.64211558468162
 31
0.0
  0
LINE
  5
7F8
330
67
100
AcDbEntity
  8
AM_0
100
AcDbLine
 10
124.7936635786567
 20
29.0073865415967
 30
0.0
 11
121.9701594616533
 21
29.0073865415967
 31
0.0
  0
LINE
  5
7F9
330
67
100
AcDbEntity
  8
AM_0
100
AcDbLine
 10
122.9936635786567
 20
28.08927518443727
 30
0.0
 11
121.3607368610299
 21
28.08927518443727
 31
0.0
  0
LINE
  5
7FA
330
67
100
AcDbEntity
  8
AM_0
100
AcDbLine
 10
122.9936635786567
 20
27.78752594008222
 30
0.0
 11
122.9936635786567
 21
28.08927518443727
 31
0.0
  0
LINE
  5
7FB
102
{ACAD_REACTORS
330
C9B
102
}
330
67
100
AcDbEntity
  8
AM_0
100
AcDbLine
 10
83.79366357865661
 20
33.45331575594912
 30
0.0
 11
83.79366357865661
 21
35.05331575594903
 31
0.0
  0
ARC
  5
7FC
330
67
100
AcDbEntity
  8
AM_0
100
AcDbCircle
 10
83.99366357865664
 20
33.45331575594912
 30
0.0
 40
0.2
100
AcDbArc
 50
180.0
 51
270.0
  0
ARC
  5
7FD
102
{ACAD_REACTORS
330
BFB
102
}
330
67
100
AcDbEntity
  8
AM_0
100
AcDbCircle
 10
83.99366357865664
 20
35.05331575594903
 30
0.0
 40
0.2
100
AcDbArc
 50
90.0
 51
180.0
  0
LINE
  5
7FE
330
67
100
AcDbEntity
  8
AM_0
100
AcDbLine
 10
122.9936635786566
 20
23.25331575594885
 30
0.0
 11
122.9936635786566
 21
27.78752594008222
 31
0.0
  0
LINE
  5
7FF
330
67
100
AcDbEntity
  8
AM_0
100
AcDbLine
 10
122.7936635786567
 20
27.11293803518413
 30
0.0
 11
122.7936635786567
 21
23.25331575594885
 31
0.0
  0
LINE
  5
800
330
67
100
AcDbEntity
  8
AM_0
100
AcDbLine
 10
122.7936635786567
 20
45.06996958234106
 30
0.0
 11
122.7936635786567
 21
30.57703965032181
 31
0.0
  0
LINE
  5
801
330
67
100
AcDbEntity
  8
AM_0
100
AcDbLine
 10
122.9936635786566
 20
29.77938436878651
 30
0.0
 11
122.9936635786566
 21
45.19303695897781
 31
0.0
  0
LINE
  5
802
330
67
100
AcDbEntity
  8
AM_0
100
AcDbLine
 10
122.7936635786567
 20
23.85331575594876
 30
0.0
 11
122.9936635786566
 21
23.85331575594876
 31
0.0
  0
LINE
  5
803
330
67
100
AcDbEntity
  8
AM_0
100
AcDbLine
 10
122.7936635786567
 20
44.58953847026816
 30
0.0
 11
122.9936635786567
 21
44.58953847026771
 31
0.0
  0
LINE
  5
804
330
67
100
AcDbEntity
  8
AM_0
100
AcDbLine
 10
124.2936635786566
 20
45.19303695897781
 30
0.0
 11
122.9936635786567
 21
45.19303695897781
 31
0.0
  0
LINE
  5
805
330
67
100
AcDbEntity
  8
AM_0
100
AcDbLine
 10
122.7936635786567
 20
45.06996958234106
 30
0.0
 11
119.7936635786566
 21
45.06996958234106
 31
0.0
  0
LINE
  5
806
330
67
100
AcDbEntity
  8
AM_0
100
AcDbLine
 10
119.7936635786566
 20
45.20776690605237
 30
0.0
 11
119.7936635786566
 21
45.06996958234106
 31
0.0
  0
LINE
  5
807
330
67
100
AcDbEntity
  8
AM_0
100
AcDbLine
 10
119.7936635786566
 20
45.20776690605237
 30
0.0
 11
119.7936635786566
 21
45.25331575594885
 31
0.0
  0
ARC
  5
808
330
67
100
AcDbEntity
  8
AM_0
100
AcDbCircle
 10
120.7936635786567
 20
44.65331575594894
 30
0.0
 40
0.6000000000000071
100
AcDbArc
 50
43.98125908675565
 51
90.0
  0
LINE
  5
809
330
67
100
AcDbEntity
  8
AM_0
100
AcDbLine
 10
119.7936635786566
 20
45.25331575594885
 30
0.0
 11
120.7936635786567
 21
45.25331575594885
 31
0.0
  0
LINE
  5
80A
330
67
100
AcDbEntity
  8
AM_0
100
AcDbLine
 10
90.7936635786566
 20
23.75331575594885
 30
0.0
 11
90.7936635786566
 21
44.75331575594885
 31
0.0
  0
ARC
  5
80B
102
{ACAD_REACTORS
330
C6B
102
}
330
67
100
AcDbEntity
  8
AM_0
100
AcDbCircle
 10
91.29366357865661
 20
44.75331575594885
 30
0.0
 40
0.5
100
AcDbArc
 50
90.0
 51
180.0
  0
ARC
  5
80C
330
67
100
AcDbEntity
  8
AM_0
100
AcDbCircle
 10
91.29366357865661
 20
23.75331575594885
 30
0.0
 40
0.5
100
AcDbArc
 50
180.0
 51
270.0
  0
LINE
  5
80D
330
67
100
AcDbEntity
  8
AM_0
100
AcDbLine
 10
89.2936635786566
 20
29.25331575594885
 30
0.0
 11
89.2936635786566
 21
39.25331575594885
 31
0.0
  0
LINE
  5
80E
102
{ACAD_REACTORS
330
C36
102
}
330
67
100
AcDbEntity
  8
AM_0
100
AcDbLine
 10
90.7936635786566
 20
29.25331575594885
 30
0.0
 11
89.2936635786566
 21
29.25331575594885
 31
0.0
  0
LINE
  5
80F
102
{ACAD_REACTORS
330
C36
102
}
330
67
100
AcDbEntity
  8
AM_0
100
AcDbLine
 10
90.7936635786566
 20
39.25331575594885
 30
0.0
 11
89.2936635786566
 21
39.25331575594885
 31
0.0
  0
LINE
  5
810
330
67
100
AcDbEntity
  8
AM_0
100
AcDbLine
 10
124.4936635786567
 20
33.05331575594903
 30
0.0
 11
124.2936635786566
 21
33.05331575594903
 31
0.0
  0
LINE
  5
811
330
67
100
AcDbEntity
  8
AM_0
100
AcDbLine
 10
124.4936635786567
 20
35.45331575594912
 30
0.0
 11
124.2936635786566
 21
35.45331575594912
 31
0.0
  0
LINE
  5
812
102
{ACAD_REACTORS
330
BFB
102
}
330
67
100
AcDbEntity
  8
AM_0
100
AcDbLine
 10
89.2936635786566
 20
33.25331575594885
 30
0.0
 11
83.99366357865664
 21
33.25331575594885
 31
0.0
  0
LINE
  5
813
330
67
100
AcDbEntity
  8
AM_0
100
AcDbLine
 10
89.2936635786566
 20
35.25331575594885
 30
0.0
 11
83.99366357865664
 21
35.25331575594885
 31
0.0
  0
LINE
  5
814
102
{ACAD_REACTORS
330
CDD
102
}
330
67
100
AcDbEntity
  8
AM_0
100
AcDbLine
 10
122.9936635786566
 20
23.25331575594885
 30
0.0
 11
124.2936635786566
 21
23.25331575594885
 31
0.0
  0
LINE
  5
815
330
67
100
AcDbEntity
  8
AM_0
100
AcDbLine
 10
91.29366357865661
 20
45.25331575594885
 30
0.0
 11
119.7936635786566
 21
45.25331575594885
 31
0.0
  0
LINE
  5
816
330
67
100
AcDbEntity
  8
AM_0
100
AcDbLine
 10
91.29366357865661
 20
23.25331575594885
 30
0.0
 11
122.7936635786567
 21
23.25331575594885
 31
0.0
  0
CIRCLE
  5
817
330
67
100
AcDbEntity
  8
AM_0
100
AcDbCircle
 10
43.92894066624842
 20
34.25331575594885
 30
0.0
 40
1.0
  0
LINE
  5
818
330
67
100
AcDbEntity
  8
AM_0
100
AcDbLine
 10
33.94210768575386
 20
29.64211558468162
 30
0.0
 11
33.90266122463015
 21
29.61934115973338
 31
0.0
  0
LINE
  5
819
330
67
100
AcDbEntity
  8
AM_0
100
AcDbLine
 10
34.40266122463015
 20
28.75331575594885
 30
0.0
 11
33.90266122463015
 21
29.61934115973338
 31
0.0
  0
LINE
  5
81A
330
67
100
AcDbEntity
  8
AM_0
100
AcDbLine
 10
34.90266122463015
 20
27.88729035216477
 30
0.0
 11
34.40266122463015
 21
28.75331575594885
 31
0.0
  0
LINE
  5
81B
330
67
100
AcDbEntity
  8
AM_0
100
AcDbLine
 10
34.90266122463015
 20
27.88729035216477
 30
0.0
 11
34.94210768575385
 21
27.91006477711301
 31
0.0
  0
LINE
  5
81C
330
67
100
AcDbEntity
  8
AM_0
100
AcDbLine
 10
52.91577364676413
 20
27.91006477711301
 30
0.0
 11
52.9552201078879
 21
27.88729035216477
 31
0.0
  0
LINE
  5
81D
330
67
100
AcDbEntity
  8
AM_0
100
AcDbLine
 10
53.4552201078879
 20
28.75331575594885
 30
0.0
 11
52.9552201078879
 21
27.88729035216477
 31
0.0
  0
LINE
  5
81E
330
67
100
AcDbEntity
  8
AM_0
100
AcDbLine
 10
53.9552201078879
 20
29.61934115973338
 30
0.0
 11
53.4552201078879
 21
28.75331575594885
 31
0.0
  0
LINE
  5
81F
330
67
100
AcDbEntity
  8
AM_0
100
AcDbLine
 10
53.9552201078879
 20
29.61934115973338
 30
0.0
 11
53.91577364676414
 21
29.64211558468162
 31
0.0
  0
CIRCLE
  5
820
330
67
100
AcDbEntity
  8
AM_0
100
AcDbCircle
 10
43.92894066625058
 20
34.25331575594885
 30
0.0
 40
11.0
  0
LINE
  5
821
330
67
100
AcDbEntity
  8
AM_0
100
AcDbLine
 10
44.9289406662591
 20
45.20776690605237
 30
0.0
 11
44.9289406662591
 21
45.25331575594885
 31
0.0
  0
LINE
  5
822
330
67
100
AcDbEntity
  8
AM_0
100
AcDbLine
 10
43.92894066625899
 20
45.25331575594885
 30
0.0
 11
44.9289406662591
 21
45.25331575594885
 31
0.0
  0
LINE
  5
823
330
67
100
AcDbEntity
  8
AM_0
100
AcDbLine
 10
42.92894066625899
 20
45.25331575594885
 30
0.0
 11
43.92894066625899
 21
45.25331575594885
 31
0.0
  0
LINE
  5
824
330
67
100
AcDbEntity
  8
AM_0
100
AcDbLine
 10
42.92894066625899
 20
45.25331575594885
 30
0.0
 11
42.92894066625899
 21
45.20776690605237
 31
0.0
  0
CIRCLE
  5
825
330
67
100
AcDbEntity
  8
AM_0
100
AcDbCircle
 10
43.92894066625046
 20
41.25331575594884
 30
0.0
 40
0.7835000000000001
  0
CIRCLE
  5
826
330
67
100
AcDbEntity
  8
AM_0
100
AcDbCircle
 10
43.92894066625046
 20
27.25331575594885
 30
0.0
 40
0.7835000000000001
  0
CIRCLE
  5
827
330
67
100
AcDbEntity
  8
AM_5
100
AcDbCircle
 10
43.92894066625046
 20
41.25331575594884
 30
0.0
 40
1.0
  0
CIRCLE
  5
828
330
67
100
AcDbEntity
  8
AM_5
100
AcDbCircle
 10
43.92894066625046
 20
27.25331575594885
 30
0.0
 40
1.0
  0
CIRCLE
  5
829
330
67
100
AcDbEntity
  8
AM_0
100
AcDbCircle
 10
43.92894066625001
 20
34.25331575594885
 30
0.0
 40
5.0
  0
CIRCLE
  5
82A
330
67
100
AcDbEntity
  8
AM_0
100
AcDbCircle
 10
160.8009752386655
 20
31.63106960203743
 30
0.0
 40
0.7500000000000001
  0
CIRCLE
  5
82B
330
67
100
AcDbEntity
  8
AM_0
100
AcDbCircle
 10
147.8204012747304
 20
36.87556190986027
 30
0.0
 40
0.7500000000000001
  0
CIRCLE
  5
82C
330
67
100
AcDbEntity
  8
AM_0
100
AcDbCircle
 10
145.4416057091671
 20
31.62617381743769
 30
0.0
 40
0.4000000000000001
  0
CIRCLE
  5
82D
330
67
100
AcDbEntity
  8
AM_0
100
AcDbCircle
 10
163.1797708042286
 20
36.88045769446046
 30
0.0
 40
0.4000000000000001
  0
LINE
  5
82E
330
67
100
AcDbEntity
  8
AM_0
100
AcDbLine
 10
163.4356882566978
 20
34.87831575594885
 30
0.0
 11
163.4356882566978
 21
34.37831575594885
 31
0.0
  0
LINE
  5
82F
330
67
100
AcDbEntity
  8
AM_0
100
AcDbLine
 10
163.4356882566978
 20
34.12831575594885
 30
0.0
 11
163.4356882566978
 21
33.62831575594885
 31
0.0
  0
LINE
  5
830
330
67
100
AcDbEntity
  8
AM_0
100
AcDbLine
 10
163.1856882566978
 20
34.37831575594885
 30
0.0
 11
163.1856882566978
 21
34.87831575594885
 31
0.0
  0
LINE
  5
831
330
67
100
AcDbEntity
  8
AM_0
100
AcDbLine
 10
163.4356882566978
 20
33.62831575594885
 30
0.0
 11
163.1856882566978
 21
33.62831575594885
 31
0.0
  0
LINE
  5
832
330
67
100
AcDbEntity
  8
AM_0
100
AcDbLine
 10
163.1856882566978
 20
33.62831575594885
 30
0.0
 11
163.1856882566978
 21
34.12831575594885
 31
0.0
  0
LINE
  5
833
330
67
100
AcDbEntity
  8
AM_0
100
AcDbLine
 10
163.1856882566978
 20
34.87831575594885
 30
0.0
 11
163.4356882566978
 21
34.87831575594885
 31
0.0
  0
LINE
  5
834
330
67
100
AcDbEntity
  8
AM_0
100
AcDbLine
 10
163.1856882566978
 20
34.12831575594885
 30
0.0
 11
162.6856882566978
 21
34.12831575594885
 31
0.0
  0
LINE
  5
835
330
67
100
AcDbEntity
  8
AM_0
100
AcDbLine
 10
162.6856882566978
 20
34.37831575594885
 30
0.0
 11
163.1856882566978
 21
34.37831575594885
 31
0.0
  0
LINE
  5
836
330
67
100
AcDbEntity
  8
AM_0
100
AcDbLine
 10
163.9356882566978
 20
34.37831575594885
 30
0.0
 11
163.9356882566978
 21
34.12831575594885
 31
0.0
  0
LINE
  5
837
330
67
100
AcDbEntity
  8
AM_0
100
AcDbLine
 10
163.9356882566978
 20
34.12831575594885
 30
0.0
 11
163.4356882566978
 21
34.12831575594885
 31
0.0
  0
LINE
  5
838
330
67
100
AcDbEntity
  8
AM_0
100
AcDbLine
 10
162.6856882566978
 20
34.12831575594885
 30
0.0
 11
162.6856882566978
 21
34.37831575594885
 31
0.0
  0
LINE
  5
839
330
67
100
AcDbEntity
  8
AM_0
100
AcDbLine
 10
163.4356882566978
 20
34.37831575594885
 30
0.0
 11
163.9356882566978
 21
34.37831575594885
 31
0.0
  0
CIRCLE
  5
83A
330
67
100
AcDbEntity
  8
AM_0
100
AcDbCircle
 10
163.3106882566978
 20
34.25331575594885
 30
0.0
 40
1.199999999999999
  0
LINE
  5
83B
330
67
100
AcDbEntity
  8
AM_0
100
AcDbLine
 10
145.1856882566978
 20
34.37831575594885
 30
0.0
 11
145.1856882566978
 21
34.87831575594885
 31
0.0
  0
LINE
  5
83C
330
67
100
AcDbEntity
  8
AM_0
100
AcDbLine
 10
145.1856882566978
 20
33.62831575594885
 30
0.0
 11
145.1856882566978
 21
34.12831575594885
 31
0.0
  0
LINE
  5
83D
330
67
100
AcDbEntity
  8
AM_0
100
AcDbLine
 10
145.4356882566978
 20
34.87831575594885
 30
0.0
 11
145.4356882566978
 21
34.37831575594885
 31
0.0
  0
LINE
  5
83E
330
67
100
AcDbEntity
  8
AM_0
100
AcDbLine
 10
145.4356882566978
 20
33.62831575594885
 30
0.0
 11
145.1856882566978
 21
33.62831575594885
 31
0.0
  0
LINE
  5
83F
330
67
100
AcDbEntity
  8
AM_0
100
AcDbLine
 10
145.4356882566978
 20
34.12831575594885
 30
0.0
 11
145.4356882566978
 21
33.62831575594885
 31
0.0
  0
LINE
  5
840
330
67
100
AcDbEntity
  8
AM_0
100
AcDbLine
 10
145.1856882566978
 20
34.87831575594885
 30
0.0
 11
145.4356882566978
 21
34.87831575594885
 31
0.0
  0
LINE
  5
841
330
67
100
AcDbEntity
  8
AM_0
100
AcDbLine
 10
145.9356882566978
 20
34.12831575594885
 30
0.0
 11
145.4356882566978
 21
34.12831575594885
 31
0.0
  0
LINE
  5
842
330
67
100
AcDbEntity
  8
AM_0
100
AcDbLine
 10
145.4356882566978
 20
34.37831575594885
 30
0.0
 11
145.9356882566978
 21
34.37831575594885
 31
0.0
  0
LINE
  5
843
330
67
100
AcDbEntity
  8
AM_0
100
AcDbLine
 10
144.6856882566978
 20
34.12831575594885
 30
0.0
 11
144.6856882566978
 21
34.37831575594885
 31
0.0
  0
LINE
  5
844
330
67
100
AcDbEntity
  8
AM_0
100
AcDbLine
 10
145.1856882566978
 20
34.12831575594885
 30
0.0
 11
144.6856882566978
 21
34.12831575594885
 31
0.0
  0
LINE
  5
845
330
67
100
AcDbEntity
  8
AM_0
100
AcDbLine
 10
145.9356882566978
 20
34.37831575594885
 30
0.0
 11
145.9356882566978
 21
34.12831575594885
 31
0.0
  0
LINE
  5
846
330
67
100
AcDbEntity
  8
AM_0
100
AcDbLine
 10
144.6856882566978
 20
34.37831575594885
 30
0.0
 11
145.1856882566978
 21
34.37831575594885
 31
0.0
  0
CIRCLE
  5
847
330
67
100
AcDbEntity
  8
AM_0
100
AcDbCircle
 10
145.3106882566978
 20
34.25331575594885
 30
0.0
 40
1.199999999999999
  0
LINE
  5
848
330
67
100
AcDbEntity
  8
AM_0
100
AcDbLine
 10
163.3106882566978
 20
35.75331575594885
 30
0.0
 11
164.7029931021111
 21
35.75331575594885
 31
0.0
  0
ARC
  5
849
330
67
100
AcDbEntity
  8
AM_0
100
AcDbCircle
 10
163.3106882566978
 20
34.25331575594885
 30
0.0
 40
1.5
100
AcDbArc
 50
90.0
 51
270.0
  0
LINE
  5
84A
330
67
100
AcDbEntity
  8
AM_0
100
AcDbLine
 10
164.7029931021111
 20
32.75331575594885
 30
0.0
 11
163.3106882566978
 21
32.75331575594885
 31
0.0
  0
LINE
  5
84B
330
67
100
AcDbEntity
  8
AM_0
100
AcDbLine
 10
145.3106882566978
 20
32.75331575594885
 30
0.0
 11
143.9183834112846
 21
32.75331575594885
 31
0.0
  0
ARC
  5
84C
330
67
100
AcDbEntity
  8
AM_0
100
AcDbCircle
 10
145.3106882566979
 20
34.25331575594885
 30
0.0
 40
1.5
100
AcDbArc
 50
270.0
 51
90.0
  0
LINE
  5
84D
330
67
100
AcDbEntity
  8
AM_0
100
AcDbLine
 10
143.9183834112846
 20
35.75331575594885
 30
0.0
 11
145.3106882566978
 21
35.75331575594885
 31
0.0
  0
ARC
  5
84E
330
67
100
AcDbEntity
  8
AM_0
100
AcDbCircle
 10
154.3106882566978
 20
34.25331575594885
 30
0.0
 40
10.5
100
AcDbArc
 50
8.213210701749463
 51
83.71213398817443
  0
ARC
  5
84F
330
67
100
AcDbEntity
  8
AM_0
100
AcDbCircle
 10
154.3106882566978
 20
34.25331575594885
 30
0.0
 40
10.5
100
AcDbArc
 50
96.28786601182557
 51
171.7867892982505
  0
ARC
  5
850
330
67
100
AcDbEntity
  8
AM_0
100
AcDbCircle
 10
154.310688256698
 20
34.25331575594885
 30
0.0
 40
10.50000000000006
100
AcDbArc
 50
188.2132107017494
 51
203.7121339881886
  0
ARC
  5
851
330
67
100
AcDbEntity
  8
AM_0
100
AcDbCircle
 10
154.3106882566978
 20
34.25331575594885
 30
0.0
 40
10.5
100
AcDbArc
 50
216.2878660118268
 51
323.7121339881732
  0
ARC
  5
852
330
67
100
AcDbEntity
  8
AM_0
100
AcDbCircle
 10
154.310688256698
 20
34.25331575594885
 30
0.0
 40
10.49999999999992
100
AcDbArc
 50
336.2878660118114
 51
351.7867892982506
  0
LINE
  5
853
330
67
100
AcDbEntity
  8
AM_0
100
AcDbLine
 10
162.7742514721651
 20
28.0389696360595
 30
0.0
 11
163.2097647288401
 21
27.78752594008222
 31
0.0
  0
LINE
  5
854
330
67
100
AcDbEntity
  8
AM_0
100
AcDbLine
 10
145.4116117845555
 20
27.78752594008222
 30
0.0
 11
145.8471250412303
 21
28.0389696360595
 31
0.0
  0
ARC
  5
855
330
67
100
AcDbEntity
  8
AM_0
100
AcDbCircle
 10
154.3106882566977
 20
34.25331575594885
 30
0.0
 40
11.0
100
AcDbArc
 50
216.0009788918501
 51
323.9990211081499
  0
LINE
  5
856
330
67
100
AcDbEntity
  8
AM_0
100
AcDbLine
 10
153.1606882566977
 20
45.19303695897781
 30
0.0
 11
153.1606882566977
 21
44.69014956702415
 31
0.0
  0
ARC
  5
857
330
67
100
AcDbEntity
  8
AM_0
100
AcDbCircle
 10
154.3106882566977
 20
34.25331575594885
 30
0.0
 40
11.0
100
AcDbArc
 50
96.00097889184878
 51
203.9990211081344
  0
LINE
  5
858
330
67
100
AcDbEntity
  8
AM_0
100
AcDbLine
 10
144.6971250412303
 20
30.03082806476334
 30
0.0
 11
144.2616117845555
 21
29.77938436878651
 31
0.0
  0
LINE
  5
859
330
67
100
AcDbEntity
  8
AM_0
100
AcDbLine
 10
164.3597647288401
 20
29.77938436878651
 30
0.0
 11
163.9242514721652
 21
30.03082806476334
 31
0.0
  0
ARC
  5
85A
330
67
100
AcDbEntity
  8
AM_0
100
AcDbCircle
 10
154.3106882566977
 20
34.25331575594885
 30
0.0
 40
11.0
100
AcDbArc
 50
336.0009788918656
 51
83.99902110815123
  0
LINE
  5
85B
330
67
100
AcDbEntity
  8
AM_0
100
AcDbLine
 10
155.4606882566977
 20
44.69014956702415
 30
0.0
 11
155.4606882566977
 21
45.19303695897781
 31
0.0
  0
CIRCLE
  5
85C
330
67
100
AcDbEntity
  8
AM_0
100
AcDbCircle
 10
154.3106882566978
 20
34.25331575594885
 30
0.0
 40
1.25
  0
LINE
  5
85D
330
67
100
AcDbEntity
  8
AM_0
100
AcDbLine
 10
149.0606882566978
 20
38.75331575594885
 30
0.0
 11
154.3106882566978
 21
41.00331575594885
 31
0.0
  0
LINE
  5
85E
330
67
100
AcDbEntity
  8
AM_0
100
AcDbLine
 10
154.3106882566978
 20
41.00331575594885
 30
0.0
 11
159.5606882566978
 21
38.75331575594885
 31
0.0
  0
LINE
  5
85F
330
67
100
AcDbEntity
  8
AM_0
100
AcDbLine
 10
159.5606882566978
 20
38.75331575594885
 30
0.0
 11
154.3106882566978
 21
36.50331575594885
 31
0.0
  0
LINE
  5
860
330
67
100
AcDbEntity
  8
AM_0
100
AcDbLine
 10
154.3106882566978
 20
36.50331575594885
 30
0.0
 11
149.0606882566978
 21
38.75331575594885
 31
0.0
  0
LINE
  5
861
330
67
100
AcDbEntity
  8
AM_0
100
AcDbLine
 10
148.2106882566979
 20
26.25331575594885
 30
0.0
 11
148.2106882566979
 21
29.65331575594894
 31
0.0
  0
LINE
  5
862
330
67
100
AcDbEntity
  8
AM_0
100
AcDbLine
 10
148.2106882566979
 20
29.65331575594894
 30
0.0
 11
160.410688256698
 21
29.65331575594894
 31
0.0
  0
LINE
  5
863
330
67
100
AcDbEntity
  8
AM_0
100
AcDbLine
 10
160.410688256698
 20
29.65331575594894
 30
0.0
 11
160.410688256698
 21
26.25331575594885
 31
0.0
  0
LINE
  5
864
330
67
100
AcDbEntity
  8
AM_0
100
AcDbLine
 10
160.410688256698
 20
26.25331575594885
 30
0.0
 11
148.2106882566979
 21
26.25331575594885
 31
0.0
  0
LINE
  5
865
330
67
100
AcDbEntity
  8
AM_0
100
AcDbLine
 10
155.4606882566979
 20
44.69014956702415
 30
0.0
 11
155.4606882566979
 21
42.75331575594885
 31
0.0
  0
LINE
  5
866
330
67
100
AcDbEntity
  8
AM_0
100
AcDbLine
 10
155.4606882566979
 20
42.75331575594885
 30
0.0
 11
153.160688256698
 21
42.75331575594885
 31
0.0
  0
LINE
  5
867
330
67
100
AcDbEntity
  8
AM_0
100
AcDbLine
 10
153.160688256698
 20
42.75331575594885
 30
0.0
 11
153.160688256698
 21
44.69014956702415
 31
0.0
  0
ARC
  5
868
330
67
100
AcDbEntity
  8
AM_0
100
AcDbCircle
 10
154.3106882566919
 20
34.25331575599614
 30
0.0
 40
10.39999999995268
100
AcDbArc
 50
95.51773437377846
 51
96.34857371456664
  0
ARC
  5
869
330
67
100
AcDbEntity
  8
AM_0
100
AcDbCircle
 10
154.310688256689
 20
34.25331575587473
 30
0.0
 40
10.40000000007482
100
AcDbArc
 50
83.65142628543992
 51
84.48226562621497
  0
LINE
  5
86A
330
67
100
AcDbEntity
  8
AM_0
100
AcDbLine
 10
144.6971250412306
 20
30.03082806476334
 30
0.0
 11
146.3744723245302
 21
30.99924497030099
 31
0.0
  0
LINE
  5
86B
330
67
100
AcDbEntity
  8
AM_0
100
AcDbLine
 10
146.3744723245302
 20
30.99924497030099
 30
0.0
 11
147.5244723245302
 21
29.0073865415967
 31
0.0
  0
LINE
  5
86C
330
67
100
AcDbEntity
  8
AM_0
100
AcDbLine
 10
147.5244723245302
 20
29.0073865415967
 30
0.0
 11
145.8471250412304
 21
28.0389696360595
 31
0.0
  0
LINE
  5
86D
330
67
100
AcDbEntity
  8
AM_0
100
AcDbLine
 10
162.7742514721652
 20
28.0389696360595
 30
0.0
 11
161.0969041888656
 21
29.0073865415967
 31
0.0
  0
LINE
  5
86E
330
67
100
AcDbEntity
  8
AM_0
100
AcDbLine
 10
161.0969041888656
 20
29.0073865415967
 30
0.0
 11
162.2469041888655
 21
30.99924497030099
 31
0.0
  0
LINE
  5
86F
330
67
100
AcDbEntity
  8
AM_0
100
AcDbLine
 10
162.2469041888655
 20
30.99924497030099
 30
0.0
 11
163.9242514721652
 21
30.03082806476334
 31
0.0
  0
LINE
  5
870
330
67
100
AcDbEntity
  8
AM_0
100
AcDbLine
 10
163.3369676983256
 20
27.88729035216477
 30
0.0
 11
162.9810163760855
 21
28.09279894387839
 31
0.0
  0
LINE
  5
871
330
67
100
AcDbEntity
  8
AM_0
100
AcDbLine
 10
161.3355681088953
 20
29.04279894387821
 30
0.0
 11
162.9810163760855
 21
28.09279894387839
 31
0.0
  0
LINE
  5
872
330
67
100
AcDbEntity
  8
AM_0
100
AcDbLine
 10
161.1719041888647
 20
29.13729035216477
 30
0.0
 11
161.3355681088953
 21
29.04279894387821
 31
0.0
  0
LINE
  5
873
330
67
100
AcDbEntity
  8
AM_0
100
AcDbLine
 10
163.9810163760856
 20
29.824849751447
 30
0.0
 11
164.3369676983255
 21
29.61934115973338
 31
0.0
  0
LINE
  5
874
330
67
100
AcDbEntity
  8
AM_0
100
AcDbLine
 10
164.3369676983255
 20
29.61934115973338
 30
0.0
 11
163.3369676983256
 21
27.88729035216477
 31
0.0
  0
LINE
  5
875
330
67
100
AcDbEntity
  8
AM_0
100
AcDbLine
 10
163.9810163760856
 20
29.824849751447
 30
0.0
 11
162.3355681088953
 21
30.77484975144728
 31
0.0
  0
LINE
  5
876
330
67
100
AcDbEntity
  8
AM_0
100
AcDbLine
 10
162.3355681088953
 20
30.77484975144728
 30
0.0
 11
161.3355681088953
 21
29.04279894387821
 31
0.0
  0
LINE
  5
877
330
67
100
AcDbEntity
  8
AM_0
100
AcDbLine
 10
162.3355681088953
 20
30.77484975144728
 30
0.0
 11
162.1719041888647
 21
30.86934115973338
 31
0.0
  0
LINE
  5
878
330
67
100
AcDbEntity
  8
AM_0
100
AcDbLine
 10
144.2844088150678
 20
29.61934115973338
 30
0.0
 11
144.6403601373082
 21
29.824849751447
 31
0.0
  0
LINE
  5
879
330
67
100
AcDbEntity
  8
AM_0
100
AcDbLine
 10
146.2858084044987
 20
30.77484975144728
 30
0.0
 11
144.6403601373082
 21
29.824849751447
 31
0.0
  0
LINE
  5
87A
330
67
100
AcDbEntity
  8
AM_0
100
AcDbLine
 10
146.4494723245292
 20
30.86934115973338
 30
0.0
 11
146.2858084044987
 21
30.77484975144728
 31
0.0
  0
LINE
  5
87B
330
67
100
AcDbEntity
  8
AM_0
100
AcDbLine
 10
145.6403601373083
 20
28.09279894387839
 30
0.0
 11
145.2844088150679
 21
27.88729035216477
 31
0.0
  0
LINE
  5
87C
330
67
100
AcDbEntity
  8
AM_0
100
AcDbLine
 10
145.2844088150679
 20
27.88729035216477
 30
0.0
 11
144.2844088150678
 21
29.61934115973338
 31
0.0
  0
LINE
  5
87D
330
67
100
AcDbEntity
  8
AM_0
100
AcDbLine
 10
145.6403601373082
 20
28.09279894387839
 30
0.0
 11
147.2858084044989
 21
29.04279894387821
 31
0.0
  0
LINE
  5
87E
330
67
100
AcDbEntity
  8
AM_0
100
AcDbLine
 10
147.2858084044989
 20
29.04279894387821
 30
0.0
 11
146.2858084044987
 21
30.77484975144728
 31
0.0
  0
LINE
  5
87F
330
67
100
AcDbEntity
  8
AM_0
100
AcDbLine
 10
147.2858084044989
 20
29.04279894387821
 30
0.0
 11
147.4494723245292
 21
29.13729035216477
 31
0.0
  0
ARC
  5
880
330
67
100
AcDbEntity
  8
AM_0
100
AcDbCircle
 10
154.3106882566676
 20
34.25331575596203
 30
0.0
 40
11.00000000003169
100
AcDbArc
 50
335.2159085704437
 51
336.0009788918656
  0
ARC
  5
881
330
67
100
AcDbEntity
  8
AM_0
100
AcDbCircle
 10
154.3106882566648
 20
34.25331575593475
 30
0.0
 40
10.39999999996516
100
AcDbArc
 50
203.6514262854298
 51
204.4822656262202
  0
ARC
  5
882
330
67
100
AcDbEntity
  8
AM_0
100
AcDbCircle
 10
154.3106882567085
 20
34.25331575594339
 30
0.0
 40
10.39999999998713
100
AcDbArc
 50
335.5177343737798
 51
336.3485737145702
  0
ARC
  5
883
330
67
100
AcDbEntity
  8
AM_0
100
AcDbCircle
 10
154.3106882567158
 20
34.25331575596294
 30
0.0
 40
11.00000000002374
100
AcDbArc
 50
215.2159085704583
 51
216.0009788918501
  0
ARC
  5
884
330
67
100
AcDbEntity
  8
AM_0
100
AcDbCircle
 10
154.3106882566912
 20
34.25331575595249
 30
0.0
 40
11.00000000000632
100
AcDbArc
 50
323.9990211081499
 51
324.7840914295417
  0
ARC
  5
885
330
67
100
AcDbEntity
  8
AM_0
100
AcDbCircle
 10
154.3106882566796
 20
34.25331575596113
 30
0.0
 40
10.4000000000212
100
AcDbArc
 50
323.6514262854335
 51
324.4822656262237
  0
ARC
  5
886
330
67
100
AcDbEntity
  8
AM_0
100
AcDbCircle
 10
154.3106882566988
 20
34.25331575595021
 30
0.0
 40
11.00000000000256
100
AcDbArc
 50
203.9990211081344
 51
204.7840914295563
  0
ARC
  5
887
330
67
100
AcDbEntity
  8
AM_0
100
AcDbCircle
 10
154.3106882566849
 20
34.25331575594021
 30
0.0
 40
10.39999999998548
100
AcDbArc
 50
215.5177343737763
 51
216.3485737145665
  0
LINE
  5
888
330
67
100
AcDbEntity
  8
AM_0
100
AcDbLine
 10
150.9106882566973
 20
27.60331575594876
 30
0.0
 11
150.9106882566973
 21
27.75331575594885
 31
0.0
  0
LINE
  5
889
330
67
100
AcDbEntity
  8
AM_0
100
AcDbLine
 10
150.9106882566973
 20
27.75331575594885
 30
0.0
 11
150.7106882566974
 21
27.75331575594885
 31
0.0
  0
LINE
  5
88A
330
67
100
AcDbEntity
  8
AM_0
100
AcDbLine
 10
150.7106882566974
 20
27.75331575594885
 30
0.0
 11
150.7106882566975
 21
27.60331575594876
 31
0.0
  0
LINE
  5
88B
330
67
100
AcDbEntity
  8
AM_0
100
AcDbLine
 10
150.7106882566975
 20
27.60331575594876
 30
0.0
 11
150.9106882566973
 21
27.60331575594876
 31
0.0
  0
LINE
  5
88C
330
67
100
AcDbEntity
  8
AM_0
100
AcDbLine
 10
150.9106882566973
 20
27.25331575594885
 30
0.0
 11
150.9106882566973
 21
27.40331575594894
 31
0.0
  0
LINE
  5
88D
330
67
100
AcDbEntity
  8
AM_0
100
AcDbLine
 10
150.9106882566973
 20
27.40331575594894
 30
0.0
 11
150.7106882566975
 21
27.40331575594894
 31
0.0
  0
LINE
  5
88E
330
67
100
AcDbEntity
  8
AM_0
100
AcDbLine
 10
150.7106882566975
 20
27.40331575594894
 30
0.0
 11
150.7106882566974
 21
27.25331575594885
 31
0.0
  0
LINE
  5
88F
330
67
100
AcDbEntity
  8
AM_0
100
AcDbLine
 10
150.7106882566974
 20
27.25331575594885
 30
0.0
 11
150.9106882566973
 21
27.25331575594885
 31
0.0
  0
LINE
  5
890
330
67
100
AcDbEntity
  8
AM_0
100
AcDbLine
 10
152.3106882566975
 20
27.60331575594876
 30
0.0
 11
152.3106882566974
 21
27.75331575594885
 31
0.0
  0
LINE
  5
891
330
67
100
AcDbEntity
  8
AM_0
100
AcDbLine
 10
152.3106882566974
 20
27.75331575594885
 30
0.0
 11
152.1106882566973
 21
27.75331575594885
 31
0.0
  0
LINE
  5
892
330
67
100
AcDbEntity
  8
AM_0
100
AcDbLine
 10
152.1106882566973
 20
27.75331575594885
 30
0.0
 11
152.1106882566973
 21
27.60331575594876
 31
0.0
  0
LINE
  5
893
330
67
100
AcDbEntity
  8
AM_0
100
AcDbLine
 10
152.1106882566973
 20
27.60331575594876
 30
0.0
 11
152.3106882566975
 21
27.60331575594876
 31
0.0
  0
LINE
  5
894
330
67
100
AcDbEntity
  8
AM_0
100
AcDbLine
 10
152.3106882566974
 20
27.25331575594885
 30
0.0
 11
152.3106882566975
 21
27.40331575594894
 31
0.0
  0
LINE
  5
895
330
67
100
AcDbEntity
  8
AM_0
100
AcDbLine
 10
152.3106882566975
 20
27.40331575594894
 30
0.0
 11
152.1106882566973
 21
27.40331575594894
 31
0.0
  0
LINE
  5
896
330
67
100
AcDbEntity
  8
AM_0
100
AcDbLine
 10
152.1106882566973
 20
27.40331575594894
 30
0.0
 11
152.1106882566973
 21
27.25331575594885
 31
0.0
  0
LINE
  5
897
330
67
100
AcDbEntity
  8
AM_0
100
AcDbLine
 10
152.1106882566973
 20
27.25331575594885
 30
0.0
 11
152.3106882566974
 21
27.25331575594885
 31
0.0
  0
LINE
  5
898
330
67
100
AcDbEntity
  8
AM_0
100
AcDbLine
 10
153.7106882566973
 20
27.60331575594876
 30
0.0
 11
153.7106882566973
 21
27.75331575594885
 31
0.0
  0
LINE
  5
899
330
67
100
AcDbEntity
  8
AM_0
100
AcDbLine
 10
153.7106882566973
 20
27.75331575594885
 30
0.0
 11
153.5106882566974
 21
27.75331575594885
 31
0.0
  0
LINE
  5
89A
330
67
100
AcDbEntity
  8
AM_0
100
AcDbLine
 10
153.5106882566974
 20
27.75331575594885
 30
0.0
 11
153.5106882566974
 21
27.60331575594876
 31
0.0
  0
LINE
  5
89B
330
67
100
AcDbEntity
  8
AM_0
100
AcDbLine
 10
153.5106882566974
 20
27.60331575594876
 30
0.0
 11
153.7106882566973
 21
27.60331575594876
 31
0.0
  0
LINE
  5
89C
330
67
100
AcDbEntity
  8
AM_0
100
AcDbLine
 10
153.7106882566973
 20
27.25331575594885
 30
0.0
 11
153.7106882566973
 21
27.40331575594894
 31
0.0
  0
LINE
  5
89D
330
67
100
AcDbEntity
  8
AM_0
100
AcDbLine
 10
153.7106882566973
 20
27.40331575594894
 30
0.0
 11
153.5106882566974
 21
27.40331575594894
 31
0.0
  0
LINE
  5
89E
330
67
100
AcDbEntity
  8
AM_0
100
AcDbLine
 10
153.5106882566974
 20
27.40331575594894
 30
0.0
 11
153.5106882566974
 21
27.25331575594885
 31
0.0
  0
LINE
  5
89F
330
67
100
AcDbEntity
  8
AM_0
100
AcDbLine
 10
153.5106882566974
 20
27.25331575594885
 30
0.0
 11
153.7106882566973
 21
27.25331575594885
 31
0.0
  0
LINE
  5
8A0
330
67
100
AcDbEntity
  8
AM_0
100
AcDbLine
 10
149.3106882566975
 20
27.40331575594894
 30
0.0
 11
149.3106882566974
 21
27.25331575594885
 31
0.0
  0
LINE
  5
8A1
330
67
100
AcDbEntity
  8
AM_0
100
AcDbLine
 10
149.3106882566974
 20
27.25331575594885
 30
0.0
 11
149.5106882566974
 21
27.25331575594885
 31
0.0
  0
LINE
  5
8A2
330
67
100
AcDbEntity
  8
AM_0
100
AcDbLine
 10
149.5106882566974
 20
27.25331575594885
 30
0.0
 11
149.5106882566974
 21
27.40331575594894
 31
0.0
  0
LINE
  5
8A3
330
67
100
AcDbEntity
  8
AM_0
100
AcDbLine
 10
149.5106882566974
 20
27.40331575594894
 30
0.0
 11
149.3106882566975
 21
27.40331575594894
 31
0.0
  0
LINE
  5
8A4
330
67
100
AcDbEntity
  8
AM_0
100
AcDbLine
 10
149.3106882566974
 20
27.75331575594885
 30
0.0
 11
149.3106882566975
 21
27.60331575594876
 31
0.0
  0
LINE
  5
8A5
330
67
100
AcDbEntity
  8
AM_0
100
AcDbLine
 10
149.3106882566975
 20
27.60331575594876
 30
0.0
 11
149.5106882566974
 21
27.60331575594876
 31
0.0
  0
LINE
  5
8A6
330
67
100
AcDbEntity
  8
AM_0
100
AcDbLine
 10
157.7106882566974
 20
27.75331575594885
 30
0.0
 11
157.7106882566974
 21
27.60331575594876
 31
0.0
  0
LINE
  5
8A7
330
67
100
AcDbEntity
  8
AM_0
100
AcDbLine
 10
157.7106882566974
 20
27.60331575594876
 30
0.0
 11
157.9106882566973
 21
27.60331575594876
 31
0.0
  0
LINE
  5
8A8
330
67
100
AcDbEntity
  8
AM_0
100
AcDbLine
 10
157.9106882566973
 20
27.60331575594876
 30
0.0
 11
157.9106882566973
 21
27.75331575594885
 31
0.0
  0
LINE
  5
8A9
330
67
100
AcDbEntity
  8
AM_0
100
AcDbLine
 10
157.9106882566973
 20
27.75331575594885
 30
0.0
 11
157.7106882566974
 21
27.75331575594885
 31
0.0
  0
LINE
  5
8AA
330
67
100
AcDbEntity
  8
AM_0
100
AcDbLine
 10
157.9106882566973
 20
27.25331575594885
 30
0.0
 11
157.9106882566973
 21
27.40331575594894
 31
0.0
  0
LINE
  5
8AB
330
67
100
AcDbEntity
  8
AM_0
100
AcDbLine
 10
157.9106882566973
 20
27.40331575594894
 30
0.0
 11
157.7106882566974
 21
27.40331575594894
 31
0.0
  0
LINE
  5
8AC
330
67
100
AcDbEntity
  8
AM_0
100
AcDbLine
 10
157.7106882566974
 20
27.40331575594894
 30
0.0
 11
157.7106882566974
 21
27.25331575594885
 31
0.0
  0
LINE
  5
8AD
330
67
100
AcDbEntity
  8
AM_0
100
AcDbLine
 10
157.7106882566974
 20
27.25331575594885
 30
0.0
 11
157.9106882566973
 21
27.25331575594885
 31
0.0
  0
LINE
  5
8AE
330
67
100
AcDbEntity
  8
AM_0
100
AcDbLine
 10
156.3106882566974
 20
27.75331575594885
 30
0.0
 11
156.3106882566974
 21
27.60331575594876
 31
0.0
  0
LINE
  5
8AF
330
67
100
AcDbEntity
  8
AM_0
100
AcDbLine
 10
156.3106882566974
 20
27.60331575594876
 30
0.0
 11
156.5106882566974
 21
27.60331575594876
 31
0.0
  0
LINE
  5
8B0
330
67
100
AcDbEntity
  8
AM_0
100
AcDbLine
 10
156.5106882566974
 20
27.60331575594876
 30
0.0
 11
156.5106882566974
 21
27.75331575594885
 31
0.0
  0
LINE
  5
8B1
330
67
100
AcDbEntity
  8
AM_0
100
AcDbLine
 10
156.5106882566974
 20
27.75331575594885
 30
0.0
 11
156.3106882566974
 21
27.75331575594885
 31
0.0
  0
LINE
  5
8B2
330
67
100
AcDbEntity
  8
AM_0
100
AcDbLine
 10
156.5106882566974
 20
27.25331575594885
 30
0.0
 11
156.5106882566974
 21
27.40331575594894
 31
0.0
  0
LINE
  5
8B3
330
67
100
AcDbEntity
  8
AM_0
100
AcDbLine
 10
156.5106882566974
 20
27.40331575594894
 30
0.0
 11
156.3106882566974
 21
27.40331575594894
 31
0.0
  0
LINE
  5
8B4
330
67
100
AcDbEntity
  8
AM_0
100
AcDbLine
 10
156.3106882566974
 20
27.40331575594894
 30
0.0
 11
156.3106882566974
 21
27.25331575594885
 31
0.0
  0
LINE
  5
8B5
330
67
100
AcDbEntity
  8
AM_0
100
AcDbLine
 10
156.3106882566974
 20
27.25331575594885
 30
0.0
 11
156.5106882566974
 21
27.25331575594885
 31
0.0
  0
LINE
  5
8B6
330
67
100
AcDbEntity
  8
AM_0
100
AcDbLine
 10
154.9106882566973
 20
27.75331575594885
 30
0.0
 11
154.9106882566973
 21
27.60331575594876
 31
0.0
  0
LINE
  5
8B7
330
67
100
AcDbEntity
  8
AM_0
100
AcDbLine
 10
154.9106882566973
 20
27.60331575594876
 30
0.0
 11
155.1106882566973
 21
27.60331575594876
 31
0.0
  0
LINE
  5
8B8
330
67
100
AcDbEntity
  8
AM_0
100
AcDbLine
 10
155.1106882566973
 20
27.60331575594876
 30
0.0
 11
155.1106882566973
 21
27.75331575594885
 31
0.0
  0
LINE
  5
8B9
330
67
100
AcDbEntity
  8
AM_0
100
AcDbLine
 10
155.1106882566973
 20
27.75331575594885
 30
0.0
 11
154.9106882566973
 21
27.75331575594885
 31
0.0
  0
LINE
  5
8BA
330
67
100
AcDbEntity
  8
AM_0
100
AcDbLine
 10
155.1106882566973
 20
27.25331575594885
 30
0.0
 11
155.1106882566973
 21
27.40331575594894
 31
0.0
  0
LINE
  5
8BB
330
67
100
AcDbEntity
  8
AM_0
100
AcDbLine
 10
155.1106882566973
 20
27.40331575594894
 30
0.0
 11
154.9106882566973
 21
27.40331575594894
 31
0.0
  0
LINE
  5
8BC
330
67
100
AcDbEntity
  8
AM_0
100
AcDbLine
 10
154.9106882566973
 20
27.40331575594894
 30
0.0
 11
154.9106882566973
 21
27.25331575594885
 31
0.0
  0
LINE
  5
8BD
330
67
100
AcDbEntity
  8
AM_0
100
AcDbLine
 10
154.9106882566973
 20
27.25331575594885
 30
0.0
 11
155.1106882566973
 21
27.25331575594885
 31
0.0
  0
LINE
  5
8BE
330
67
100
AcDbEntity
  8
AM_0
100
AcDbLine
 10
159.1106882566973
 20
27.75331575594885
 30
0.0
 11
159.1106882566976
 21
27.60331575594876
 31
0.0
  0
LINE
  5
8BF
330
67
100
AcDbEntity
  8
AM_0
100
AcDbLine
 10
159.1106882566976
 20
27.60331575594876
 30
0.0
 11
159.3106882566975
 21
27.60331575594876
 31
0.0
  0
LINE
  5
8C0
330
67
100
AcDbEntity
  8
AM_0
100
AcDbLine
 10
159.3106882566975
 20
27.60331575594876
 30
0.0
 11
159.3106882566974
 21
27.75331575594885
 31
0.0
  0
LINE
  5
8C1
330
67
100
AcDbEntity
  8
AM_0
100
AcDbLine
 10
159.3106882566974
 20
27.75331575594885
 30
0.0
 11
159.1106882566973
 21
27.75331575594885
 31
0.0
  0
LINE
  5
8C2
330
67
100
AcDbEntity
  8
AM_0
100
AcDbLine
 10
159.3106882566974
 20
27.25331575594885
 30
0.0
 11
159.3106882566975
 21
27.40331575594894
 31
0.0
  0
LINE
  5
8C3
330
67
100
AcDbEntity
  8
AM_0
100
AcDbLine
 10
159.3106882566975
 20
27.40331575594894
 30
0.0
 11
159.1106882566976
 21
27.40331575594894
 31
0.0
  0
LINE
  5
8C4
330
67
100
AcDbEntity
  8
AM_0
100
AcDbLine
 10
159.1106882566976
 20
27.40331575594894
 30
0.0
 11
159.1106882566973
 21
27.25331575594885
 31
0.0
  0
LINE
  5
8C5
330
67
100
AcDbEntity
  8
AM_0
100
AcDbLine
 10
159.1106882566973
 20
27.25331575594885
 30
0.0
 11
159.3106882566974
 21
27.25331575594885
 31
0.0
  0
LINE
  5
8C6
330
67
100
AcDbEntity
  8
AM_0
100
AcDbLine
 10
149.5106882566974
 20
27.60331575594876
 30
0.0
 11
149.5106882566974
 21
27.75331575594885
 31
0.0
  0
LINE
  5
8C7
330
67
100
AcDbEntity
  8
AM_0
100
AcDbLine
 10
149.5106882566974
 20
27.75331575594885
 30
0.0
 11
149.3106882566974
 21
27.75331575594885
 31
0.0
  0
LINE
  5
8C8
330
67
100
AcDbEntity
  8
AM_0
100
AcDbLine
 10
150.9106882566973
 20
27.60331575594876
 30
0.0
 11
150.9106882566973
 21
27.40331575594894
 31
0.0
  0
LINE
  5
8C9
330
67
100
AcDbEntity
  8
AM_0
100
AcDbLine
 10
150.7106882566975
 20
27.40331575594894
 30
0.0
 11
150.7106882566975
 21
27.60331575594876
 31
0.0
  0
LINE
  5
8CA
330
67
100
AcDbEntity
  8
AM_0
100
AcDbLine
 10
152.3106882566975
 20
27.60331575594876
 30
0.0
 11
152.3106882566975
 21
27.40331575594894
 31
0.0
  0
LINE
  5
8CB
330
67
100
AcDbEntity
  8
AM_0
100
AcDbLine
 10
152.1106882566973
 20
27.40331575594894
 30
0.0
 11
152.1106882566973
 21
27.60331575594876
 31
0.0
  0
LINE
  5
8CC
330
67
100
AcDbEntity
  8
AM_0
100
AcDbLine
 10
153.7106882566973
 20
27.60331575594876
 30
0.0
 11
153.7106882566973
 21
27.40331575594894
 31
0.0
  0
LINE
  5
8CD
330
67
100
AcDbEntity
  8
AM_0
100
AcDbLine
 10
153.5106882566974
 20
27.40331575594894
 30
0.0
 11
153.5106882566974
 21
27.60331575594876
 31
0.0
  0
LINE
  5
8CE
330
67
100
AcDbEntity
  8
AM_0
100
AcDbLine
 10
149.3106882566975
 20
27.40331575594894
 30
0.0
 11
149.3106882566975
 21
27.60331575594876
 31
0.0
  0
LINE
  5
8CF
330
67
100
AcDbEntity
  8
AM_0
100
AcDbLine
 10
149.5106882566974
 20
27.60331575594876
 30
0.0
 11
149.5106882566974
 21
27.40331575594894
 31
0.0
  0
LINE
  5
8D0
330
67
100
AcDbEntity
  8
AM_0
100
AcDbLine
 10
157.9106882566973
 20
27.40331575594894
 30
0.0
 11
157.9106882566973
 21
27.60331575594876
 31
0.0
  0
LINE
  5
8D1
330
67
100
AcDbEntity
  8
AM_0
100
AcDbLine
 10
157.7106882566974
 20
27.60331575594876
 30
0.0
 11
157.7106882566974
 21
27.40331575594894
 31
0.0
  0
LINE
  5
8D2
330
67
100
AcDbEntity
  8
AM_0
100
AcDbLine
 10
156.5106882566974
 20
27.40331575594894
 30
0.0
 11
156.5106882566974
 21
27.60331575594876
 31
0.0
  0
LINE
  5
8D3
330
67
100
AcDbEntity
  8
AM_0
100
AcDbLine
 10
156.3106882566974
 20
27.60331575594876
 30
0.0
 11
156.3106882566974
 21
27.40331575594894
 31
0.0
  0
LINE
  5
8D4
330
67
100
AcDbEntity
  8
AM_0
100
AcDbLine
 10
155.1106882566973
 20
27.40331575594894
 30
0.0
 11
155.1106882566973
 21
27.60331575594876
 31
0.0
  0
LINE
  5
8D5
330
67
100
AcDbEntity
  8
AM_0
100
AcDbLine
 10
154.9106882566973
 20
27.60331575594876
 30
0.0
 11
154.9106882566973
 21
27.40331575594894
 31
0.0
  0
LINE
  5
8D6
330
67
100
AcDbEntity
  8
AM_0
100
AcDbLine
 10
159.3106882566975
 20
27.40331575594894
 30
0.0
 11
159.3106882566975
 21
27.60331575594876
 31
0.0
  0
LINE
  5
8D7
330
67
100
AcDbEntity
  8
AM_0
100
AcDbLine
 10
159.1106882566976
 20
27.60331575594876
 30
0.0
 11
159.1106882566976
 21
27.40331575594894
 31
0.0
  0
CIRCLE
  5
8D8
330
67
100
AcDbEntity
  8
AM_0
100
AcDbCircle
 10
154.3106882566978
 20
34.25331575594885
 30
0.0
 40
1.0
  0
LINE
  5
8D9
330
67
100
AcDbEntity
  8
AM_0
100
AcDbLine
 10
148.710688256697
 20
29.15331575594894
 30
0.0
 11
159.9106882566971
 21
29.15331575594894
 31
0.0
  0
LINE
  5
8DA
330
67
100
AcDbEntity
  8
AM_0
100
AcDbLine
 10
159.9106882566975
 20
26.75331575594885
 30
0.0
 11
148.7106882566975
 21
26.75331575594885
 31
0.0
  0
LINE
  5
8DB
330
67
100
AcDbEntity
  8
AM_0
100
AcDbLine
 10
159.9106882566975
 20
29.15331575594894
 30
0.0
 11
159.9106882566975
 21
26.75331575594885
 31
0.0
  0
LINE
  5
8DC
330
67
100
AcDbEntity
  8
AM_0
100
AcDbLine
 10
148.7106882566975
 20
26.75331575594885
 30
0.0
 11
148.7106882566975
 21
29.15331575594894
 31
0.0
  0
LINE
  5
8DD
330
67
100
AcDbEntity
  8
AM_0
100
AcDbLine
 10
160.4106882566975
 20
29.15331575594894
 30
0.0
 11
159.9106882566975
 21
29.15331575594894
 31
0.0
  0
LINE
  5
8DE
330
67
100
AcDbEntity
  8
AM_0
100
AcDbLine
 10
148.7106882566975
 20
29.15331575594894
 30
0.0
 11
148.2106882566975
 21
29.15331575594894
 31
0.0
  0
ARC
  5
8DF
330
67
100
AcDbEntity
  8
AM_0
100
AcDbCircle
 10
154.3106882567049
 20
34.25331575586154
 30
0.0
 40
11.00000000008784
100
AcDbArc
 50
95.21590857045673
 51
96.00097889184553
  0
ARC
  5
8E0
330
67
100
AcDbEntity
  8
AM_0
100
AcDbCircle
 10
154.3106882566903
 20
34.25331575588746
 30
0.0
 40
11.00000000006202
100
AcDbArc
 50
83.99902110815123
 51
84.78409142954005
  0
LINE
  5
8E1
330
67
100
AcDbEntity
  8
AM_0
100
AcDbLine
 10
155.3106882566967
 20
45.25331575594885
 30
0.0
 11
155.3106882566969
 21
44.84229857252159
 31
0.0
  0
LINE
  5
8E2
330
67
100
AcDbEntity
  8
AM_0
100
AcDbLine
 10
155.310688256697
 20
42.9422985725215
 30
0.0
 11
155.3106882566969
 21
44.84229857252159
 31
0.0
  0
LINE
  5
8E3
330
67
100
AcDbEntity
  8
AM_0
100
AcDbLine
 10
155.3106882566969
 20
42.75331575594885
 30
0.0
 11
155.310688256697
 21
42.9422985725215
 31
0.0
  0
LINE
  5
8E4
330
67
100
AcDbEntity
  8
AM_0
100
AcDbLine
 10
153.3106882566969
 20
44.84229857252159
 30
0.0
 11
153.3106882566967
 21
45.25331575594885
 31
0.0
  0
LINE
  5
8E5
330
67
100
AcDbEntity
  8
AM_0
100
AcDbLine
 10
153.3106882566967
 20
45.25331575594885
 30
0.0
 11
155.3106882566967
 21
45.25331575594885
 31
0.0
  0
LINE
  5
8E6
330
67
100
AcDbEntity
  8
AM_0
100
AcDbLine
 10
153.3106882566969
 20
44.84229857252159
 30
0.0
 11
153.310688256697
 21
42.9422985725215
 31
0.0
  0
LINE
  5
8E7
330
67
100
AcDbEntity
  8
AM_0
100
AcDbLine
 10
153.310688256697
 20
42.9422985725215
 30
0.0
 11
155.310688256697
 21
42.9422985725215
 31
0.0
  0
LINE
  5
8E8
330
67
100
AcDbEntity
  8
AM_0
100
AcDbLine
 10
153.310688256697
 20
42.9422985725215
 30
0.0
 11
153.3106882566969
 21
42.75331575594885
 31
0.0
  0
LINE
  5
8E9
330
67
100
AcDbEntity
  8
AM_7
100
AcDbLine
 10
57.42894066625058
 20
34.25331575594885
 30
0.0
 11
30.42894066625058
 21
34.25331575594885
 31
0.0
  0
LINE
  5
8EA
330
67
100
AcDbEntity
  8
AM_7
100
AcDbLine
 10
43.92894066625058
 20
47.75331575594885
 30
0.0
 11
43.92894066625058
 21
20.75331575594885
 31
0.0
  0
LINE
  5
8EB
330
67
100
AcDbEntity
  8
AM_7
100
AcDbLine
 10
167.8106882566977
 20
34.25331575594885
 30
0.0
 11
140.8106882566977
 21
34.25331575594885
 31
0.0
  0
LINE
  5
8EC
330
67
100
AcDbEntity
  8
AM_7
100
AcDbLine
 10
154.3106882566977
 20
47.75331575594885
 30
0.0
 11
154.3106882566977
 21
20.75331575594885
 31
0.0
  0
LINE
  5
8ED
102
{ACAD_REACTORS
330
BCF
102
}
330
67
100
AcDbEntity
  8
AM_7
100
AcDbLine
 10
47.42894066625047
 20
41.25331575594884
 30
0.0
 11
40.42894066625047
 21
41.25331575594884
 31
0.0
  0
LINE
  5
8EE
102
{ACAD_REACTORS
330
BCF
102
}
330
67
100
AcDbEntity
  8
AM_7
100
AcDbLine
 10
47.42894066625047
 20
27.25331575594885
 30
0.0
 11
40.42894066625047
 21
27.25331575594885
 31
0.0
  0
LINE
  5
8EF
330
67
100
AcDbEntity
  8
AM_7
100
AcDbLine
 10
79.84648683824151
 20
34.25331575594885
 30
0.0
 11
128.4497826618002
 21
34.25331575594885
 31
0.0
  0
LINE
  5
8FB
330
67
100
AcDbEntity
  8
AM_0
100
AcDbLine
 10
98.0436635786566
 20
45.25331575594885
 30
0.0
 11
98.0436635786566
 21
32.75331575594885
 31
0.0
  0
LINE
  5
8FC
330
67
100
AcDbEntity
  8
AM_0
100
AcDbLine
 10
113.0436635786567
 20
45.25331575594885
 30
0.0
 11
113.0436635786567
 21
32.75331575594885
 31
0.0
  0
LINE
  5
8FD
330
67
100
AcDbEntity
  8
AM_0
100
AcDbLine
 10
98.0436635786566
 20
32.75331575594885
 30
0.0
 11
113.0436635786567
 21
32.75331575594885
 31
0.0
  0
DIMENSION
  5
BC1
102
{ACAD_XDICTIONARY
360
BCE
102
}
102
{ACAD_REACTORS
330
BCF
102
}
330
67
100
AcDbEntity
  8
AM_5
100
AcDbDimension
  2
*D38
 10
28.42894066625046
 20
41.25331575594884
 30
0.0
 11
25.87306423911814
 21
34.25331575594885
 31
0.0
 70
    32
 71
     5
 42
13.99999999999999
  3
AM_JIS$0
100
AcDbAlignedDimension
 13
40.42894066625047
 23
27.25331575594885
 33
0.0
 14
40.42894066625047
 24
41.25331575594884
 34
0.0
 50
90.0
100
AcDbRotatedDimension
1001
ACAD
1000
DSTYLE
1002
{
1070
    47
1040
0.0
1070
    48
1040
0.0
1002
}
1001
ACAD_DSTYLE_DIMINSPECT
1070
   396
1000
100%
1070
   395
1000

1070
   394
1070
    33
1070
   393
1070
     0
  0
DIMENSION
  5
BEB
102
{ACAD_XDICTIONARY
360
BFA
102
}
102
{ACAD_REACTORS
330
BFB
102
}
330
67
100
AcDbEntity
  8
AM_5
100
AcDbDimension
  2
*D39
 10
76.9214542644047
 20
33.25331575594887
 30
0.0
 11
76.92145426440468
 21
43.83614311997793
 31
0.0
 70
   160
  1
%%c<>
 71
     5
 42
2.00000000000017
  3
AM_JIS$0
100
AcDbAlignedDimension
 13
83.99366357865664
 23
35.25331575594903
 33
0.0
 14
83.99366357865664
 24
33.25331575594886
 34
0.0
 50
90.0
100
AcDbRotatedDimension
1001
ACAD
1000
DSTYLE
1002
{
1070
    47
1040
0.0
1070
    48
1040
0.0
1002
}
1001
ACAD_DSTYLE_DIMINSPECT
1070
   396
1000
100%
1070
   395
1000

1070
   394
1070
    33
1070
   393
1070
     0
  0
DIMENSION
  5
C28
102
{ACAD_XDICTIONARY
360
C35
102
}
102
{ACAD_REACTORS
330
C36
102
}
330
67
100
AcDbEntity
  8
AM_5
100
AcDbDimension
  2
*D40
 10
69.43519573799631
 20
39.25331575594885
 30
0.0
 11
66.81350332698219
 21
34.25331575594886
 31
0.0
 70
    32
  1
%%c<>
 71
     5
 42
10.0
  3
AM_JIS$0
100
AcDbAlignedDimension
 13
89.2936635786566
 23
29.25331575594885
 33
0.0
 14
89.2936635786566
 24
39.25331575594885
 34
0.0
 50
90.0
100
AcDbRotatedDimension
1001
ACAD
1000
DSTYLE
1002
{
1070
    47
1040
0.0
1070
    48
1040
0.0
1002
}
1001
ACAD_DSTYLE_DIMINSPECT
1070
   396
1000
100%
1070
   395
1000

1070
   394
1070
    33
1070
   393
1070
     0
  0
DIMENSION
  5
C5B
102
{ACAD_XDICTIONARY
360
C6A
102
}
102
{ACAD_REACTORS
330
C6B
102
}
330
67
100
AcDbEntity
  8
AM_5
100
AcDbDimension
  2
*D41
 10
89.2936635786566
 20
59.53440935856042
 30
0.0
 11
99.55890870961699
 21
59.53440935856042
 31
0.0
 70
   160
 71
     5
 42
1.5
  3
AM_JIS$0
100
AcDbAlignedDimension
 13
90.7936635786566
 23
44.75331575594885
 33
0.0
 14
89.2936635786566
 24
39.25331575594885
 34
0.0
100
AcDbRotatedDimension
1001
ACAD
1000
DSTYLE
1002
{
1070
    47
1040
0.0
1070
    48
1040
0.0
1002
}
1001
ACAD_DSTYLE_DIMINSPECT
1070
   396
1000
100%
1070
   395
1000

1070
   394
1070
    33
1070
   393
1070
     0
  0
DIMENSION
  5
C8D
102
{ACAD_XDICTIONARY
360
C9A
102
}
102
{ACAD_REACTORS
330
C9B
102
}
330
67
100
AcDbEntity
  8
AM_5
100
AcDbDimension
  2
*D42
 10
83.79366357865661
 20
66.07813110004656
 30
0.0
 11
87.29366357865661
 21
68.62813110004656
 31
0.0
 70
    32
 71
     5
 42
7.0
  3
AM_JIS$0
100
AcDbAlignedDimension
 13
90.7936635786566
 23
44.75331575594885
 33
0.0
 14
83.79366357865661
 24
35.05331575594903
 34
0.0
100
AcDbRotatedDimension
1001
ACAD
1000
DSTYLE
1002
{
1070
    47
1040
0.0
1070
    48
1040
0.0
1002
}
1001
ACAD_DSTYLE_DIMINSPECT
1070
   396
1000
100%
1070
   395
1000

1070
   394
1070
    33
1070
   393
1070
     0
  0
DIMENSION
  5
CAE
102
{ACAD_XDICTIONARY
360
CBB
102
}
102
{ACAD_REACTORS
330
CBC
102
}
330
67
100
AcDbEntity
  8
AM_5
100
AcDbDimension
  2
*D43
 10
124.7936635786567
 20
66.07813110004656
 30
0.0
 11
107.7936635786566
 21
68.70099879648712
 31
0.0
 70
    32
 71
     5
 42
34.00000000000011
  3
AM_JIS$0
100
AcDbAlignedDimension
 13
90.7936635786566
 23
44.75331575594885
 33
0.0
 14
124.7936635786567
 24
44.69014956702415
 34
0.0
100
AcDbRotatedDimension
1001
ACAD
1000
DSTYLE
1002
{
1070
    47
1040
0.0
1070
    48
1040
0.0
1002
}
1001
ACAD_DSTYLE_DIMINSPECT
1070
   396
1000
100%
1070
   395
1000

1070
   394
1070
    33
1070
   393
1070
     0
  0
DIMENSION
  5
CCF
102
{ACAD_XDICTIONARY
360
CDC
102
}
102
{ACAD_REACTORS
330
CDD
102
}
330
67
100
AcDbEntity
  8
AM_5
100
AcDbDimension
  2
*D44
 10
135.0404734788192
 20
23.25331575594885
 30
0.0
 11
132.4540396305989
 21
34.25331575594887
 31
0.0
 70
    32
  1
%%c<>
 71
     5
 42
22.0
  3
AM_JIS$0
100
AcDbAlignedDimension
 13
120.7936635786567
 23
45.25331575594885
 33
0.0
 14
124.2936635786566
 24
23.25331575594885
 34
0.0
 50
90.0
100
AcDbRotatedDimension
1001
ACAD
1000
DSTYLE
1002
{
1070
    47
1040
0.0
1070
    48
1040
0.0
1002
}
1001
ACAD_DSTYLE_DIMINSPECT
1070
   396
1000
100%
1070
   395
1000

1070
   394
1070
    33
1070
   393
1070
     0
  0
INSERT
  5
D79
330
67
100
AcDbEntity
  8
AM_5
100
AcDbBlockReference
  2
*S47
 10
0.0
 20
0.0
 30
0.0
  0
INSERT
  5
DA9
330
67
100
AcDbEntity
  8
AM_5
100
AcDbBlockReference
  2
*S48
 10
0.0
 20
0.0
 30
0.0
  0
INSERT
  5
DC4
330
67
100
AcDbEntity
  8
AM_5
100
AcDbBlockReference
  2
*S49
 10
0.0
 20
0.0
 30
0.0
  0
ENDSEC
  0
SECTION
  2
OBJECTS
  0
DICTIONARY
  5
C
330
0
100
AcDbDictionary
281
     1
  3
ACAD_2007HEADERVARS_RT
350
E3F
  3
ACAD_COLOR
350
5E
  3
ACAD_GROUP
350
D
  3
ACAD_LAYOUT
350
5D
  3
ACAD_MATERIAL
350
10
  3
ACAD_MLEADERSTYLE
350
61
  3
ACAD_MLINESTYLE
350
5A
  3
ACAD_PLOTSETTINGS
350
5C
  3
ACAD_PLOTSTYLENAME
350
E
  3
ACAD_SCALELIST
350
3D
  3
ACAD_TABLESTYLE
350
5F
  3
ACAD_VISUALSTYLE
350
29
  3
ACDB_RECOMPOSE_DATA
350
E3D
  3
AcDbVariableDictionary
350
450
  3
AcmDictionary
350
4AE
  3
AMG
350
467
  3
AMGSNAPSETTINGS
350
519
  3
ASE_INDEX_DICTIONARY
350
44D
  3
DWGPROPS
350
E3E
  0
DICTIONARY
  5
695
330
2
100
AcDbDictionary
280
     1
281
     1
  3
ACAD_LAYERSTATES
360
696
  0
DICTIONARY
  5
515
330
4F
100
AcDbDictionary
280
     1
281
     1
  3
ADSK_XREC_LAYER_RECONCILED
360
516
  0
DICTIONARY
  5
C9
330
C8
100
AcDbDictionary
280
     1
281
     1
  3
ADSK_XREC_LAYER_RECONCILED
360
CA
  0
DICTIONARY
  5
D2
330
D1
100
AcDbDictionary
280
     1
281
     1
  3
ADSK_XREC_LAYER_RECONCILED
360
D3
  0
DICTIONARY
  5
F1
330
F0
100
AcDbDictionary
280
     1
281
     1
  3
ADSK_XREC_LAYER_RECONCILED
360
F2
  0
DICTIONARY
  5
120
330
11F
100
AcDbDictionary
280
     1
281
     1
  3
ADSK_XREC_LAYER_RECONCILED
360
121
  0
DICTIONARY
  5
517
330
21A
100
AcDbDictionary
280
     1
281
     1
  3
ADSK_XREC_LAYER_RECONCILED
360
518
  0
DICTIONARY
  5
D58
330
D57
100
AcDbDictionary
280
     1
281
     1
  0
DICTIONARY
  5
3F2
330
67
100
AcDbDictionary
280
     1
281
     1
  3
ACAD_SORTENTS
360
3F3
  0
DICTIONARY
  5
E71
330
43E
100
AcDbDictionary
280
     1
281
     1
  3
ACAD_MTEXT_RT
360
E72
  0
DICTIONARY
  5
E73
330
449
100
AcDbDictionary
280
     1
281
     1
  3
ACAD_MTEXT_RT
360
E74
  0
DICTIONARY
  5
E7A
330
E22
100
AcDbDictionary
280
     1
281
     1
  3
ACAD_MTEXT_RT
360
E7B
  0
DICTIONARY
  5
E7C
330
E36
100
AcDbDictionary
280
     1
281
     1
  3
ACAD_MTEXT_RT
360
E7D
  0
DICTIONARY
  5
BCE
330
BC1
100
AcDbDictionary
280
     1
281
     1
  3
ACAD_DIMASSOC
360
BCF
  0
DICTIONARY
  5
BFA
330
BEB
100
AcDbDictionary
280
     1
281
     1
  3
ACAD_DIMASSOC
360
BFB
  0
DICTIONARY
  5
C35
330
C28
100
AcDbDictionary
280
     1
281
     1
  3
ACAD_DIMASSOC
360
C36
  0
DICTIONARY
  5
C6A
330
C5B
100
AcDbDictionary
280
     1
281
     1
  3
ACAD_DIMASSOC
360
C6B
  0
DICTIONARY
  5
C9A
330
C8D
100
AcDbDictionary
280
     1
281
     1
  3
ACAD_DIMASSOC
360
C9B
  0
DICTIONARY
  5
CBB
330
CAE
100
AcDbDictionary
280
     1
281
     1
  3
ACAD_DIMASSOC
360
CBC
  0
DICTIONARY
  5
CDC
330
CCF
100
AcDbDictionary
280
     1
281
     1
  3
ACAD_DIMASSOC
360
CDD
  0
DICTIONARY
  5
E3F
102
{ACAD_REACTORS
330
C
102
}
330
C
100
AcDbDictionary
281
     1
  3
DIMARCSYM
350
E40
  3
DIMLTEX1
350
E42
  3
DIMLTEX2
350
E43
  3
DIMLTYPE
350
E41
  0
DICTIONARY
  5
5E
102
{ACAD_REACTORS
330
C
102
}
330
C
100
AcDbDictionary
281
     1
  0
DICTIONARY
  5
D
102
{ACAD_REACTORS
330
C
102
}
330
C
100
AcDbDictionary
281
     1
  0
DICTIONARY
  5
5D
102
{ACAD_REACTORS
330
C
102
}
330
C
100
AcDbDictionary
281
     1
  3
Model
350
6A
  3
レイアウト1
350
66
  3
レイアウト2
350
6E
  0
DICTIONARY
  5
10
102
{ACAD_REACTORS
330
C
102
}
330
C
100
AcDbDictionary
281
     1
  3
ByBlock
350
19
  3
ByLayer
350
11
  3
Global
350
21
  0
DICTIONARY
  5
61
102
{ACAD_REACTORS
330
C
102
}
330
C
100
AcDbDictionary
281
     1
  3
Standard
350
62
  0
DICTIONARY
  5
5A
102
{ACAD_REACTORS
330
C
102
}
330
C
100
AcDbDictionary
281
     1
  3
Standard
350
5B
  0
DICTIONARY
  5
5C
102
{ACAD_REACTORS
330
C
102
}
330
C
100
AcDbDictionary
281
     1
  0
ACDBDICTIONARYWDFLT
  5
E
102
{ACAD_REACTORS
330
C
102
}
330
C
100
AcDbDictionary
281
     1
  3
Normal
350
F
100
AcDbDictionaryWithDefault
340
F
  0
DICTIONARY
  5
3D
102
{ACAD_REACTORS
330
C
102
}
330
C
100
AcDbDictionary
281
     1
  3
*A1
350
B5
  3
*A10
350
BD
  3
*A11
350
BE
  3
*A12
350
BF
  3
*A13
350
C0
  3
*A14
350
C1
  3
*A15
350
C2
  3
*A16
350
C3
  3
*A17
350
C4
  3
*A18
350
C5
  3
*A2
350
C6
  3
*A3
350
B6
  3
*A4
350
B7
  3
*A5
350
B8
  3
*A6
350
B9
  3
*A7
350
BA
  3
*A8
350
BB
  3
*A9
350
BC
  3
A0
350
3E
  3
A1
350
3F
  3
A2
350
40
  3
A3
350
41
  3
A4
350
42
  3
A5
350
43
  3
A6
350
44
  3
A7
350
45
  3
A8
350
46
  3
A9
350
47
  3
B0
350
48
  3
B1
350
49
  3
B2
350
4A
  3
B3
350
4B
  3
B4
350
4C
  3
B5
350
4D
  3
B6
350
4E
  0
DICTIONARY
  5
5F
102
{ACAD_REACTORS
330
C
102
}
330
C
100
AcDbDictionary
281
     1
  3
Standard
350
60
  0
DICTIONARY
  5
29
102
{ACAD_REACTORS
330
C
102
}
330
C
100
AcDbDictionary
281
     1
  3
2dWireframe
350
2F
  3
3D Hidden
350
31
  3
3dWireframe
350
30
  3
Basic
350
2E
  3
Brighten
350
35
  3
ColorChange
350
39
  3
Conceptual
350
32
  3
Dim
350
34
  3
EdgeColorOff
350
3C
  3
Facepattern
350
38
  3
Flat
350
2A
  3
FlatWithEdges
350
2B
  3
Gouraud
350
2C
  3
GouraudWithEdges
350
2D
  3
JitterOff
350
3A
  3
Linepattern
350
37
  3
OverhangOff
350
3B
  3
Realistic
350
33
  3
Thicken
350
36
  0
XRECORD
  5
E3D
102
{ACAD_REACTORS
330
C
102
}
330
C
100
AcDbXrecord
280
     1
 90
        1
330
60
  0
DICTIONARY
  5
450
102
{ACAD_REACTORS
330
C
102
}
330
C
100
AcDbDictionary
281
     1
  3
ANNOALLVISIBLE
350
454
  3
CANNOSCALE
350
455
  3
CMLEADERSTYLE
350
452
  3
CTABLESTYLE
350
451
  3
DIMASSOC
350
524
  3
HIDETEXT
350
522
  3
INDEXCTL
350
521
  3
LAYEREVAL
350
457
  3
LAYERNOTIFY
350
458
  3
LIGHTINGUNITS
350
456
  3
MSLTSCALE
350
453
  3
SORTENTS
350
520
  3
XCLIPFRAME
350
E3B
  0
DICTIONARY
  5
4AE
102
{ACAD_REACTORS
330
C
102
}
330
C
100
AcDbDictionary
281
     1
  3
AcmStdDictionary
350
4BB
  0
DICTIONARY
  5
467
102
{ACAD_REACTORS
330
C
102
}
330
C
100
AcDbDictionary
281
     1
  0
DICTIONARY
  5
519
102
{ACAD_REACTORS
330
C
102
}
330
C
100
AcDbDictionary
281
     1
  0
DICTIONARY
  5
44D
102
{ACAD_REACTORS
330
C
102
}
330
C
100
AcDbDictionary
281
     1
  3
ASEBlockHierarchyIndexRecord
350
44F
1001
DCO15
1040
1793451729.015
  0
XRECORD
  5
E3E
102
{ACAD_REACTORS
330
C
102
}
330
C
100
AcDbXrecord
280
     1
  1
DWGPROPS COOKIE
  2

  3

  4

  6

  7

  8
kouguchi
  9

300
AmdtFileType=84
301
=
302
=
303
=
304
=
305
=
306
=
307
=
308
=
309
=
 40
0.0081827314814815
 41
2456560.755011748
 42
2457413.70959022
  1

 90
        1
  0
DICTIONARY
  5
696
102
{ACAD_REACTORS
330
695
102
}
330
695
100
AcDbDictionary
281
     1
  0
XRECORD
  5
516
102
{ACAD_REACTORS
330
515
102
}
330
515
100
AcDbXrecord
280
     1
290
     1
  0
XRECORD
  5
CA
102
{ACAD_REACTORS
330
C9
102
}
330
C9
100
AcDbXrecord
280
     1
290
     1
  0
XRECORD
  5
D3
102
{ACAD_REACTORS
330
D2
102
}
330
D2
100
AcDbXrecord
280
     1
290
     1
  0
XRECORD
  5
F2
102
{ACAD_REACTORS
330
F1
102
}
330
F1
100
AcDbXrecord
280
     1
290
     1
  0
XRECORD
  5
121
102
{ACAD_REACTORS
330
120
102
}
330
120
100
AcDbXrecord
280
     1
290
     1
  0
XRECORD
  5
518
102
{ACAD_REACTORS
330
517
102
}
330
517
100
AcDbXrecord
280
     1
290
     1
  0
SORTENTSTABLE
  5
3F3
102
{ACAD_REACTORS
330
3F2
102
}
330
3F2
100
AcDbSortentsTable
330
67
  0
XRECORD
  5
E72
102
{ACAD_REACTORS
330
E71
102
}
330
E71
100
AcDbXrecord
280
     1
 40
4433.0
  1
3-120\U+00B0
  0
XRECORD
  5
E74
102
{ACAD_REACTORS
330
E73
102
}
330
E73
100
AcDbXrecord
280
     1
 40
6709.0
  1
P.C.D.\U+220526
  0
XRECORD
  5
E7B
102
{ACAD_REACTORS
330
E7A
102
}
330
E7A
100
AcDbXrecord
280
     1
 40
25527.0
  1
定格銘板
  0
XRECORD
  5
E7D
102
{ACAD_REACTORS
330
E7C
102
}
330
E7C
100
AcDbXrecord
280
     1
 40
42391.0
  1
2-M2\P有効深さ1.5
  0
DIMASSOC
  5
BCF
102
{ACAD_REACTORS
330
BCE
102
}
330
BCE
100
AcDbDimAssoc
330
BC1
 90
        3
 70
     0
 71
     0
  1
AcDbOsnapPointRef
 72
     1
331
8EE
 73
     0
 91
        0
 40
0.0
 10
0.0
 20
0.0
 30
2.000000000000000E+50
 75
     0
  1
AcDbOsnapPointRef
 72
     1
331
8ED
 73
     0
 91
        0
 40
0.0
 10
0.0
 20
0.0
 30
2.000000000000000E+50
 75
     0
  0
DIMASSOC
  5
BFB
102
{ACAD_REACTORS
330
BFA
102
}
330
BFA
100
AcDbDimAssoc
330
BEB
 90
        3
 70
     0
 71
     0
  1
AcDbOsnapPointRef
 72
    13
331
7FD
 73
     0
 91
        0
 40
0.0
 10
0.0
 20
0.0
 30
2.000000000000000E+50
 75
     0
  1
AcDbOsnapPointRef
 72
     1
331
812
 73
     0
 91
        0
 40
0.0
 10
0.0
 20
0.0
 30
2.000000000000000E+50
 75
     0
  0
DIMASSOC
  5
C36
102
{ACAD_REACTORS
330
C35
102
}
330
C35
100
AcDbDimAssoc
330
C28
 90
        3
 70
     0
 71
     0
  1
AcDbOsnapPointRef
 72
     1
331
80E
 73
     0
 91
        0
 40
0.0
 10
0.0
 20
0.0
 30
2.000000000000000E+50
 75
     0
  1
AcDbOsnapPointRef
 72
     1
331
80F
 73
     0
 91
        0
 40
0.0
 10
0.0
 20
0.0
 30
2.000000000000000E+50
 75
     0
  0
DIMASSOC
  5
C6B
102
{ACAD_REACTORS
330
C6A
102
}
330
C6A
100
AcDbDimAssoc
330
C5B
 90
        1
 70
     0
 71
     0
  1
AcDbOsnapPointRef
 72
     1
331
80B
 73
     0
 91
        0
 40
0.0
 10
0.0
 20
0.0
 30
2.000000000000000E+50
 75
     0
  0
DIMASSOC
  5
C9B
102
{ACAD_REACTORS
330
C9A
102
}
330
C9A
100
AcDbDimAssoc
330
C8D
 90
        2
 70
     0
 71
     0
  1
AcDbOsnapPointRef
 72
     1
331
7FB
 73
     0
 91
        0
 40
0.0
 10
0.0
 20
0.0
 30
2.000000000000000E+50
 75
     0
  0
DIMASSOC
  5
CBC
102
{ACAD_REACTORS
330
CBB
102
}
330
CBB
100
AcDbDimAssoc
330
CAE
 90
        2
 70
     0
 71
     0
  1
AcDbOsnapPointRef
 72
     1
331
7DE
 73
     0
 91
        0
 40
0.0
 10
0.0
 20
0.0
 30
2.000000000000000E+50
 75
     0
  0
DIMASSOC
  5
CDD
102
{ACAD_REACTORS
330
CDC
102
}
330
CDC
100
AcDbDimAssoc
330
CCF
 90
        2
 70
     0
 71
     0
  1
AcDbOsnapPointRef
 72
     1
331
814
 73
     0
 91
        0
 40
0.0
 10
0.0
 20
0.0
 30
2.000000000000000E+50
 75
     0
  0
XRECORD
  5
E40
102
{ACAD_REACTORS
330
E3F
102
}
330
E3F
100
AcDbXrecord
280
     1
 70
     1
  0
XRECORD
  5
E42
102
{ACAD_REACTORS
330
E3F
102
}
330
E3F
100
AcDbXrecord
280
     1
340
56
  0
XRECORD
  5
E43
102
{ACAD_REACTORS
330
E3F
102
}
330
E3F
100
AcDbXrecord
280
     1
340
56
  0
XRECORD
  5
E41
102
{ACAD_REACTORS
330
E3F
102
}
330
E3F
100
AcDbXrecord
280
     1
340
56
  0
LAYOUT
  5
6A
102
{ACAD_XDICTIONARY
360
E6D
102
}
102
{ACAD_REACTORS
330
5D
102
}
330
5D
100
AcDbPlotSettings
  1

  2
KONICA MINOLTA 350_250_200 PCL.pc3
  4
A4
  6

 40
5.027082920074462
 41
5.027085781097412
 42
5.027069091796875
 43
5.027069091796875
 44
209.9733276367186
 45
296.9259948730469
 46
0.0
 47
0.0
 48
0.0
 49
0.0
140
0.0
141
0.0
142
1.0
143
0.6998907335363953
 70
 11952
 72
     1
 73
     1
 74
     0
  7

 75
     0
147
1.428794456167775
148
0.3919269200234794
149
13.31595409018193
100
AcDbLayout
  1
Model
 70
     1
 71
     0
 10
0.0
 20
0.0
 11
12.0
 21
9.0
 12
0.0
 22
0.0
 32
0.0
 14
0.0
 24
0.0
 34
0.0
 15
0.0
 25
0.0
 35
0.0
146
0.0
 13
0.0
 23
0.0
 33
0.0
 16
1.0
 26
0.0
 36
0.0
 17
0.0
 27
1.0
 37
0.0
 76
     0
330
67
331
52
1001
ACAD_PSEXT
1000
KONICA MINOLTA 350_250_200 PCL.pc3
1000
KONICA MINOLTA 350/250/200 PCL
1000
IP_192.168.3.100
1000

1070
     0
  0
LAYOUT
  5
66
102
{ACAD_XDICTIONARY
360
E6B
102
}
102
{ACAD_REACTORS
330
5D
102
}
330
5D
100
AcDbPlotSettings
  1

  2
C:\Documents and Settings\SSEGAWA\application data\autodesk\autocad mechanical 2010\r18.0\jpn\plotters\konica minolta 350_250_200 pcl.pc3
  4

  6

 40
0.0
 41
0.0
 42
0.0
 43
0.0
 44
0.0
 45
0.0
 46
0.0
 47
0.0
 48
0.0
 49
0.0
140
0.0
141
0.0
142
1.0
143
1.0
 70
   688
 72
     0
 73
     0
 74
     5
  7

 75
    16
147
1.0
148
0.0
149
0.0
100
AcDbLayout
  1
レイアウト1
 70
     1
 71
     1
 10
0.0
 20
0.0
 11
12.0
 21
9.0
 12
0.0
 22
0.0
 32
0.0
 14
1.000000000000000E+20
 24
1.000000000000000E+20
 34
1.000000000000000E+20
 15
-1.000000000000000E+20
 25
-1.000000000000000E+20
 35
-1.000000000000000E+20
146
0.0
 13
0.0
 23
0.0
 33
0.0
 16
1.0
 26
0.0
 36
0.0
 17
0.0
 27
1.0
 37
0.0
 76
     0
330
63
  0
LAYOUT
  5
6E
102
{ACAD_XDICTIONARY
360
E6F
102
}
102
{ACAD_REACTORS
330
5D
102
}
330
5D
100
AcDbPlotSettings
  1

  2
C:\Documents and Settings\SSEGAWA\application data\autodesk\autocad mechanical 2010\r18.0\jpn\plotters\konica minolta 350_250_200 pcl.pc3
  4

  6

 40
0.0
 41
0.0
 42
0.0
 43
0.0
 44
0.0
 45
0.0
 46
0.0
 47
0.0
 48
0.0
 49
0.0
140
0.0
141
0.0
142
1.0
143
1.0
 70
   688
 72
     0
 73
     0
 74
     5
  7

 75
    16
147
1.0
148
0.0
149
0.0
100
AcDbLayout
  1
レイアウト2
 70
     1
 71
     2
 10
0.0
 20
0.0
 11
12.0
 21
9.0
 12
0.0
 22
0.0
 32
0.0
 14
0.0
 24
0.0
 34
0.0
 15
0.0
 25
0.0
 35
0.0
146
0.0
 13
0.0
 23
0.0
 33
0.0
 16
1.0
 26
0.0
 36
0.0
 17
0.0
 27
1.0
 37
0.0
 76
     0
330
6B
  0
MATERIAL
  5
19
102
{ACAD_XDICTIONARY
360
1A
102
}
102
{ACAD_REACTORS
330
10
102
}
330
10
100
AcDbMaterial
  1
ByBlock
 72
     0
 43
0.0208333333333333
 43
0.0
 43
0.0
 43
0.0
 43
0.0
 43
0.0208333333333333
 43
0.0
 43
0.0
 43
0.0
 43
0.0
 43
1.0
 43
0.0
 43
0.0
 43
0.0
 43
0.0
 43
1.0
 77
     0
 47
0.0208333333333333
 47
0.0
 47
0.0
 47
0.0
 47
0.0
 47
0.0208333333333333
 47
0.0
 47
0.0
 47
0.0
 47
0.0
 47
1.0
 47
0.0
 47
0.0
 47
0.0
 47
0.0
 47
1.0
171
     0
 49
0.0208333333333333
 49
0.0
 49
0.0
 49
0.0
 49
0.0
 49
0.0208333333333333
 49
0.0
 49
0.0
 49
0.0
 49
0.0
 49
1.0
 49
0.0
 49
0.0
 49
0.0
 49
0.0
 49
1.0
175
     0
142
0.0208333333333333
142
0.0
142
0.0
142
0.0
142
0.0
142
0.0208333333333333
142
0.0
142
0.0
142
0.0
142
0.0
142
1.0
142
0.0
142
0.0
142
0.0
142
0.0
142
1.0
179
     0
144
0.0208333333333333
144
0.0
144
0.0
144
0.0
144
0.0
144
0.0208333333333333
144
0.0
144
0.0
144
0.0
144
0.0
144
1.0
144
0.0
144
0.0
144
0.0
144
0.0
144
1.0
147
0.0208333333333333
147
0.0
147
0.0
147
0.0
147
0.0
147
0.0208333333333333
147
0.0
147
0.0
147
0.0
147
0.0
147
1.0
147
0.0
147
0.0
147
0.0
147
0.0
147
1.0
  0
MATERIAL
  5
11
102
{ACAD_XDICTIONARY
360
12
102
}
102
{ACAD_REACTORS
330
10
102
}
330
10
100
AcDbMaterial
  1
ByLayer
 72
     0
 43
0.0208333333333333
 43
0.0
 43
0.0
 43
0.0
 43
0.0
 43
0.0208333333333333
 43
0.0
 43
0.0
 43
0.0
 43
0.0
 43
1.0
 43
0.0
 43
0.0
 43
0.0
 43
0.0
 43
1.0
 77
     0
 47
0.0208333333333333
 47
0.0
 47
0.0
 47
0.0
 47
0.0
 47
0.0208333333333333
 47
0.0
 47
0.0
 47
0.0
 47
0.0
 47
1.0
 47
0.0
 47
0.0
 47
0.0
 47
0.0
 47
1.0
171
     0
 49
0.0208333333333333
 49
0.0
 49
0.0
 49
0.0
 49
0.0
 49
0.0208333333333333
 49
0.0
 49
0.0
 49
0.0
 49
0.0
 49
1.0
 49
0.0
 49
0.0
 49
0.0
 49
0.0
 49
1.0
175
     0
142
0.0208333333333333
142
0.0
142
0.0
142
0.0
142
0.0
142
0.0208333333333333
142
0.0
142
0.0
142
0.0
142
0.0
142
1.0
142
0.0
142
0.0
142
0.0
142
0.0
142
1.0
179
     0
144
0.0208333333333333
144
0.0
144
0.0
144
0.0
144
0.0
144
0.0208333333333333
144
0.0
144
0.0
144
0.0
144
0.0
144
1.0
144
0.0
144
0.0
144
0.0
144
0.0
144
1.0
147
0.0208333333333333
147
0.0
147
0.0
147
0.0
147
0.0
147
0.0208333333333333
147
0.0
147
0.0
147
0.0
147
0.0
147
1.0
147
0.0
147
0.0
147
0.0
147
0.0
147
1.0
  0
MATERIAL
  5
21
102
{ACAD_XDICTIONARY
360
22
102
}
102
{ACAD_REACTORS
330
10
102
}
330
10
100
AcDbMaterial
  1
Global
 72
     0
 43
0.0208333333333333
 43
0.0
 43
0.0
 43
0.0
 43
0.0
 43
0.0208333333333333
 43
0.0
 43
0.0
 43
0.0
 43
0.0
 43
1.0
 43
0.0
 43
0.0
 43
0.0
 43
0.0
 43
1.0
 77
     0
 47
0.0208333333333333
 47
0.0
 47
0.0
 47
0.0
 47
0.0
 47
0.0208333333333333
 47
0.0
 47
0.0
 47
0.0
 47
0.0
 47
1.0
 47
0.0
 47
0.0
 47
0.0
 47
0.0
 47
1.0
171
     0
 49
0.0208333333333333
 49
0.0
 49
0.0
 49
0.0
 49
0.0
 49
0.0208333333333333
 49
0.0
 49
0.0
 49
0.0
 49
0.0
 49
1.0
 49
0.0
 49
0.0
 49
0.0
 49
0.0
 49
1.0
175
     0
142
0.0208333333333333
142
0.0
142
0.0
142
0.0
142
0.0
142
0.0208333333333333
142
0.0
142
0.0
142
0.0
142
0.0
142
1.0
142
0.0
142
0.0
142
0.0
142
0.0
142
1.0
179
     0
144
0.0208333333333333
144
0.0
144
0.0
144
0.0
144
0.0
144
0.0208333333333333
144
0.0
144
0.0
144
0.0
144
0.0
144
1.0
144
0.0
144
0.0
144
0.0
144
0.0
144
1.0
147
0.0208333333333333
147
0.0
147
0.0
147
0.0
147
0.0
147
0.0208333333333333
147
0.0
147
0.0
147
0.0
147
0.0
147
1.0
147
0.0
147
0.0
147
0.0
147
0.0
147
1.0
  0
MLEADERSTYLE
  5
62
102
{ACAD_REACTORS
330
61
102
}
330
61
100
AcDbMLeaderStyle
170
     2
171
     1
172
     0
 90
        2
 40
0.0
 41
0.0
173
     1
 91
-1056964608
340
56
 92
       -2
290
     1
 42
0.09
291
     1
 43
0.36
  3
Standard
 44
0.18
300

342
50
174
     1
178
     6
175
     1
176
     0
 93
-1056964608
 45
0.18
292
     0
297
     0
 46
0.18
 94
-1056964608
 47
1.0
 49
1.0
140
1.0
293
     1
141
0.0
294
     1
177
     0
142
1.0
295
     0
296
     0
143
0.125
1001
ACAD_MLEADERVER
1070
     2
  0
MLINESTYLE
  5
5B
102
{ACAD_REACTORS
330
5A
102
}
330
5A
100
AcDbMlineStyle
  2
STANDARD
 70
     0
  3

 62
   256
 51
90.0
 52
90.0
 71
     2
 49
0.5
 62
   256
  6
BYLAYER
 49
-0.5
 62
   256
  6
BYLAYER
  0
ACDBPLACEHOLDER
  5
F
102
{ACAD_REACTORS
330
E
102
}
330
E
  0
SCALE
  5
B5
102
{ACAD_REACTORS
330
3D
102
}
330
3D
100
AcDbScale
 70
     0
300
1.5:1
140
1.5
141
1.0
290
     0
  0
SCALE
  5
BD
102
{ACAD_REACTORS
330
3D
102
}
330
3D
100
AcDbScale
 70
     0
300
3/16" = 1'-0"
140
0.1875
141
12.0
290
     0
  0
SCALE
  5
BE
102
{ACAD_REACTORS
330
3D
102
}
330
3D
100
AcDbScale
 70
     0
300
1/4" = 1'-0"
140
0.25
141
12.0
290
     0
  0
SCALE
  5
BF
102
{ACAD_REACTORS
330
3D
102
}
330
3D
100
AcDbScale
 70
     0
300
3/8" = 1'-0"
140
0.375
141
12.0
290
     0
  0
SCALE
  5
C0
102
{ACAD_REACTORS
330
3D
102
}
330
3D
100
AcDbScale
 70
     0
300
1/2" = 1'-0"
140
0.5
141
12.0
290
     0
  0
SCALE
  5
C1
102
{ACAD_REACTORS
330
3D
102
}
330
3D
100
AcDbScale
 70
     0
300
3/4" = 1'-0"
140
0.75
141
12.0
290
     0
  0
SCALE
  5
C2
102
{ACAD_REACTORS
330
3D
102
}
330
3D
100
AcDbScale
 70
     0
300
1" = 1'-0"
140
1.0
141
12.0
290
     0
  0
SCALE
  5
C3
102
{ACAD_REACTORS
330
3D
102
}
330
3D
100
AcDbScale
 70
     0
300
1-1/2" = 1'-0"
140
1.5
141
12.0
290
     0
  0
SCALE
  5
C4
102
{ACAD_REACTORS
330
3D
102
}
330
3D
100
AcDbScale
 70
     0
300
3" = 1'-0"
140
3.0
141
12.0
290
     0
  0
SCALE
  5
C5
102
{ACAD_REACTORS
330
3D
102
}
330
3D
100
AcDbScale
 70
     0
300
6" = 1'-0"
140
6.0
141
12.0
290
     0
  0
SCALE
  5
C6
102
{ACAD_REACTORS
330
3D
102
}
330
3D
100
AcDbScale
 70
     0
300
1'-0" = 1'-0"
140
12.0
141
12.0
290
     0
  0
SCALE
  5
B6
102
{ACAD_REACTORS
330
3D
102
}
330
3D
100
AcDbScale
 70
     0
300
1.25:1
140
1.25
141
1.0
290
     0
  0
SCALE
  5
B7
102
{ACAD_REACTORS
330
3D
102
}
330
3D
100
AcDbScale
 70
     0
300
1/128" = 1'-0"
140
0.0078125
141
12.0
290
     0
  0
SCALE
  5
B8
102
{ACAD_REACTORS
330
3D
102
}
330
3D
100
AcDbScale
 70
     0
300
1/64" = 1'-0"
140
0.015625
141
12.0
290
     0
  0
SCALE
  5
B9
102
{ACAD_REACTORS
330
3D
102
}
330
3D
100
AcDbScale
 70
     0
300
1/32" = 1'-0"
140
0.03125
141
12.0
290
     0
  0
SCALE
  5
BA
102
{ACAD_REACTORS
330
3D
102
}
330
3D
100
AcDbScale
 70
     0
300
1/16" = 1'-0"
140
0.0625
141
12.0
290
     0
  0
SCALE
  5
BB
102
{ACAD_REACTORS
330
3D
102
}
330
3D
100
AcDbScale
 70
     0
300
3/32" = 1'-0"
140
0.09375
141
12.0
290
     0
  0
SCALE
  5
BC
102
{ACAD_REACTORS
330
3D
102
}
330
3D
100
AcDbScale
 70
     0
300
1/8" = 1'-0"
140
0.125
141
12.0
290
     0
  0
SCALE
  5
3E
102
{ACAD_REACTORS
330
3D
102
}
330
3D
100
AcDbScale
 70
     0
300
1:1
140
1.0
141
1.0
290
     1
  0
SCALE
  5
3F
102
{ACAD_REACTORS
330
3D
102
}
330
3D
100
AcDbScale
 70
     0
300
1:2
140
1.0
141
2.0
290
     0
  0
SCALE
  5
40
102
{ACAD_REACTORS
330
3D
102
}
330
3D
100
AcDbScale
 70
     0
300
1:4
140
1.0
141
4.0
290
     0
  0
SCALE
  5
41
102
{ACAD_REACTORS
330
3D
102
}
330
3D
100
AcDbScale
 70
     0
300
1:5
140
1.0
141
5.0
290
     0
  0
SCALE
  5
42
102
{ACAD_REACTORS
330
3D
102
}
330
3D
100
AcDbScale
 70
     0
300
1:8
140
1.0
141
8.0
290
     0
  0
SCALE
  5
43
102
{ACAD_REACTORS
330
3D
102
}
330
3D
100
AcDbScale
 70
     0
300
1:10
140
1.0
141
10.0
290
     0
  0
SCALE
  5
44
102
{ACAD_REACTORS
330
3D
102
}
330
3D
100
AcDbScale
 70
     0
300
1:16
140
1.0
141
16.0
290
     0
  0
SCALE
  5
45
102
{ACAD_REACTORS
330
3D
102
}
330
3D
100
AcDbScale
 70
     0
300
1:20
140
1.0
141
20.0
290
     0
  0
SCALE
  5
46
102
{ACAD_REACTORS
330
3D
102
}
330
3D
100
AcDbScale
 70
     0
300
1:30
140
1.0
141
30.0
290
     0
  0
SCALE
  5
47
102
{ACAD_REACTORS
330
3D
102
}
330
3D
100
AcDbScale
 70
     0
300
1:40
140
1.0
141
40.0
290
     0
  0
SCALE
  5
48
102
{ACAD_REACTORS
330
3D
102
}
330
3D
100
AcDbScale
 70
     0
300
1:50
140
1.0
141
50.0
290
     0
  0
SCALE
  5
49
102
{ACAD_REACTORS
330
3D
102
}
330
3D
100
AcDbScale
 70
     0
300
1:100
140
1.0
141
100.0
290
     0
  0
SCALE
  5
4A
102
{ACAD_REACTORS
330
3D
102
}
330
3D
100
AcDbScale
 70
     0
300
2:1
140
2.0
141
1.0
290
     0
  0
SCALE
  5
4B
102
{ACAD_REACTORS
330
3D
102
}
330
3D
100
AcDbScale
 70
     0
300
4:1
140
4.0
141
1.0
290
     0
  0
SCALE
  5
4C
102
{ACAD_REACTORS
330
3D
102
}
330
3D
100
AcDbScale
 70
     0
300
8:1
140
8.0
141
1.0
290
     0
  0
SCALE
  5
4D
102
{ACAD_REACTORS
330
3D
102
}
330
3D
100
AcDbScale
 70
     0
300
10:1
140
10.0
141
1.0
290
     0
  0
SCALE
  5
4E
102
{ACAD_REACTORS
330
3D
102
}
330
3D
100
AcDbScale
 70
     0
300
100:1
140
100.0
141
1.0
290
     0
  0
TABLESTYLE
  5
60
102
{ACAD_XDICTIONARY
360
525
102
}
102
{ACAD_REACTORS
330
5F
102
}
330
5F
100
AcDbTableStyle
  3
Standard
 70
     0
 71
     3
 40
1.5
 41
1.5
280
     0
281
     0
  7
STANDARD
140
4.5
170
     2
 62
     0
 63
     7
283
     0
274
    -2
284
     1
 64
     0
275
    -2
285
     1
 65
     0
276
    -2
286
     1
 66
     0
277
    -2
287
     1
 67
     0
278
    -2
288
     1
 68
     0
279
    -2
289
     1
 69
     0
  7
STANDARD
140
6.0
170
     5
 62
     0
 63
     7
283
     0
274
    -2
284
     1
 64
     0
275
    -2
285
     1
 65
     0
276
    -2
286
     1
 66
     0
277
    -2
287
     1
 67
     0
278
    -2
288
     1
 68
     0
279
    -2
289
     1
 69
     0
  7
STANDARD
140
4.5
170
     5
 62
     0
 63
     7
283
     0
274
    -2
284
     1
 64
     0
275
    -2
285
     1
 65
     0
276
    -2
286
     1
 66
     0
277
    -2
287
     1
 67
     0
278
    -2
288
     1
 68
     0
279
    -2
289
     1
 69
     0
  0
VISUALSTYLE
  5
2F
102
{ACAD_XDICTIONARY
360
E4E
102
}
102
{ACAD_REACTORS
330
29
102
}
330
29
100
AcDbVisualStyle
  2

 70
     4
 71
     0
 72
     2
 73
     0
 90
        0
 40
-0.6
 41
-30.0
 62
     5
 63
     7
 74
     1
 91
        4
 64
     7
 65
   257
 75
     1
175
     1
 42
1.0
 92
        0
 66
   257
 43
1.0
 76
     1
 77
     6
 78
     2
 67
     7
 79
     5
170
     0
171
     0
290
     0
174
     0
 93
        1
 44
0.0
173
     0
291
     0
 45
0.0
1001
ACAD
1000
AcDbSavedByObjectVersion
1070
     0
  0
VISUALSTYLE
  5
31
102
{ACAD_XDICTIONARY
360
E52
102
}
102
{ACAD_REACTORS
330
29
102
}
330
29
100
AcDbVisualStyle
  2

 70
     6
 71
     1
 72
     2
 73
     2
 90
        0
 40
-0.6
 41
-30.0
 62
     5
 63
     7
 74
     2
 91
        2
 64
     7
 65
   257
 75
     2
175
     1
 42
179.0
 92
        0
 66
   257
 43
1.0
 76
     1
 77
     6
 78
     2
 67
     7
 79
     3
170
     0
171
     0
290
     0
174
     0
 93
        1
 44
0.0
173
     0
291
     0
 45
0.0
1001
ACAD
1000
AcDbSavedByObjectVersion
1070
     0
  0
VISUALSTYLE
  5
30
102
{ACAD_XDICTIONARY
360
E50
102
}
102
{ACAD_REACTORS
330
29
102
}
330
29
100
AcDbVisualStyle
  2

 70
     5
 71
     0
 72
     2
 73
     0
 90
        0
 40
-0.6
 41
-30.0
 62
     5
 63
     7
 74
     1
 91
        4
 64
     7
 65
   257
 75
     1
175
     1
 42
1.0
 92
        0
 66
   257
 43
1.0
 76
     1
 77
     6
 78
     2
 67
     7
 79
     5
170
     0
171
     0
290
     0
174
     0
 93
        1
 44
0.0
173
     0
291
     0
 45
0.0
1001
ACAD
1000
AcDbSavedByObjectVersion
1070
     0
  0
VISUALSTYLE
  5
2E
102
{ACAD_XDICTIONARY
360
E4C
102
}
102
{ACAD_REACTORS
330
29
102
}
330
29
100
AcDbVisualStyle
  2

 70
     7
 71
     1
 72
     0
 73
     1
 90
        0
 40
-0.6
 41
-30.0
 62
     5
 63
     7
 74
     0
 91
        4
 64
     7
 65
   257
 75
     1
175
     1
 42
1.0
 92
        8
 66
     7
 43
1.0
 76
     1
 77
     6
 78
     2
 67
     7
 79
     5
170
     0
171
     0
290
     0
174
     0
 93
        1
 44
0.0
173
     0
291
     1
 45
0.0
1001
ACAD
1000
AcDbSavedByObjectVersion
1070
     0
  0
VISUALSTYLE
  5
35
102
{ACAD_XDICTIONARY
360
E5A
102
}
102
{ACAD_REACTORS
330
29
102
}
330
29
100
AcDbVisualStyle
  2

 70
    12
 71
     2
 72
     2
 73
     0
 90
        0
 40
-0.6
 41
-30.0
 62
     5
 63
     7
 74
     1
 91
        4
 64
     7
 65
   257
 75
     1
175
     1
 42
1.0
 92
        8
 66
     7
 43
1.0
 76
     1
 77
     6
 78
     2
 67
     7
 79
     5
170
     0
171
     0
290
     0
174
     0
 93
        1
 44
50.0
173
     0
291
     1
 45
0.0
1001
ACAD
1000
AcDbSavedByObjectVersion
1070
     0
  0
VISUALSTYLE
  5
39
102
{ACAD_XDICTIONARY
360
E62
102
}
102
{ACAD_REACTORS
330
29
102
}
330
29
100
AcDbVisualStyle
  2

 70
    16
 71
     2
 72
     2
 73
     3
 90
        0
 40
-0.6
 41
-30.0
 62
     5
 63
     8
 74
     1
 91
        4
 64
     7
 65
   257
 75
     1
175
     1
 42
1.0
 92
        8
 66
     8
 43
1.0
 76
     1
 77
     6
 78
     2
 67
     7
 79
     5
170
     0
171
     0
290
     0
174
     0
 93
        1
 44
0.0
173
     0
291
     1
 45
0.0
1001
ACAD
1000
AcDbSavedByObjectVersion
1070
     0
  0
VISUALSTYLE
  5
32
102
{ACAD_XDICTIONARY
360
E54
102
}
102
{ACAD_REACTORS
330
29
102
}
330
29
100
AcDbVisualStyle
  2

 70
     9
 71
     3
 72
     2
 73
     0
 90
        0
 40
-0.6
 41
-30.0
 62
     5
 63
     7
 74
     2
 91
        2
 64
     7
 65
   257
 75
     1
175
     1
 42
179.0
 92
        8
 66
     7
 43
1.0
 76
     1
 77
     6
 78
     2
 67
     7
 79
     3
170
     0
171
     0
290
     0
174
     0
 93
        1
 44
0.0
173
     0
291
     0
 45
0.0
1001
ACAD
1000
AcDbSavedByObjectVersion
1070
     0
  0
VISUALSTYLE
  5
34
102
{ACAD_XDICTIONARY
360
E58
102
}
102
{ACAD_REACTORS
330
29
102
}
330
29
100
AcDbVisualStyle
  2

 70
    11
 71
     2
 72
     2
 73
     0
 90
        0
 40
-0.6
 41
-30.0
 62
     5
 63
     7
 74
     1
 91
        4
 64
     7
 65
   257
 75
     1
175
     1
 42
1.0
 92
        8
 66
     7
 43
1.0
 76
     1
 77
     6
 78
     2
 67
     7
 79
     5
170
     0
171
     0
290
     0
174
     0
 93
        1
 44
-50.0
173
     0
291
     1
 45
0.0
1001
ACAD
1000
AcDbSavedByObjectVersion
1070
     0
  0
VISUALSTYLE
  5
3C
102
{ACAD_XDICTIONARY
360
E68
102
}
102
{ACAD_REACTORS
330
29
102
}
330
29
100
AcDbVisualStyle
  2

 70
    22
 71
     2
 72
     2
 73
     0
 90
        0
 40
-0.6
 41
-30.0
 62
     5
 63
     7
 74
     1
 91
        4
 64
     7
 65
   257
 75
     1
175
     1
 42
1.0
 92
        8
 66
     7
 43
1.0
 76
     1
 77
     6
 78
     2
 67
     7
 79
     5
170
     0
171
     0
290
     0
174
     0
 93
        1
 44
0.0
173
     0
291
     1
 45
0.0
1001
ACAD
1000
AcDbSavedByObjectVersion
1070
     0
  0
VISUALSTYLE
  5
38
102
{ACAD_XDICTIONARY
360
E60
102
}
102
{ACAD_REACTORS
330
29
102
}
330
29
100
AcDbVisualStyle
  2

 70
    15
 71
     2
 72
     2
 73
     0
 90
        0
 40
-0.6
 41
-30.0
 62
     5
 63
     7
 74
     1
 91
        4
 64
     7
 65
   257
 75
     1
175
     1
 42
1.0
 92
        8
 66
     7
 43
1.0
 76
     1
 77
     6
 78
     2
 67
     7
 79
     5
170
     0
171
     0
290
     0
174
     0
 93
        1
 44
0.0
173
     0
291
     1
 45
0.0
1001
ACAD
1000
AcDbSavedByObjectVersion
1070
     0
  0
VISUALSTYLE
  5
2A
102
{ACAD_XDICTIONARY
360
E44
102
}
102
{ACAD_REACTORS
330
29
102
}
330
29
100
AcDbVisualStyle
  2

 70
     0
 71
     2
 72
     1
 73
     1
 90
        2
 40
-0.6
 41
30.0
 62
     5
 63
     7
 74
     0
 91
        4
 64
     7
 65
   257
 75
     1
175
     1
 42
1.0
 92
        8
 66
     7
 43
1.0
 76
     1
 77
     6
 78
     2
 67
     7
 79
     5
170
     0
171
     0
290
     0
174
     0
 93
       13
 44
0.0
173
     0
291
     1
 45
0.0
1001
ACAD
1000
AcDbSavedByObjectVersion
1070
     0
  0
VISUALSTYLE
  5
2B
102
{ACAD_XDICTIONARY
360
E46
102
}
102
{ACAD_REACTORS
330
29
102
}
330
29
100
AcDbVisualStyle
  2

 70
     1
 71
     2
 72
     1
 73
     1
 90
        2
 40
-0.6
 41
30.0
 62
     5
 63
     7
 74
     1
 91
        4
 64
     7
 65
   257
 75
     1
175
     1
 42
1.0
 92
        0
 66
   257
 43
1.0
 76
     1
 77
     6
 78
     2
 67
     7
 79
     5
170
     0
171
     0
290
     0
174
     0
 93
       13
 44
0.0
173
     0
291
     1
 45
0.0
1001
ACAD
1000
AcDbSavedByObjectVersion
1070
     0
  0
VISUALSTYLE
  5
2C
102
{ACAD_XDICTIONARY
360
E48
102
}
102
{ACAD_REACTORS
330
29
102
}
330
29
100
AcDbVisualStyle
  2

 70
     2
 71
     2
 72
     2
 73
     1
 90
        2
 40
-0.6
 41
30.0
 62
     5
 63
     7
 74
     0
 91
        4
 64
     7
 65
   257
 75
     1
175
     1
 42
1.0
 92
        0
 66
     7
 43
1.0
 76
     1
 77
     6
 78
     2
 67
     7
 79
     5
170
     0
171
     0
290
     0
174
     0
 93
       13
 44
0.0
173
     0
291
     1
 45
0.0
1001
ACAD
1000
AcDbSavedByObjectVersion
1070
     0
  0
VISUALSTYLE
  5
2D
102
{ACAD_XDICTIONARY
360
E4A
102
}
102
{ACAD_REACTORS
330
29
102
}
330
29
100
AcDbVisualStyle
  2

 70
     3
 71
     2
 72
     2
 73
     1
 90
        2
 40
-0.6
 41
30.0
 62
     5
 63
     7
 74
     1
 91
        4
 64
     7
 65
   257
 75
     1
175
     1
 42
1.0
 92
        0
 66
   257
 43
1.0
 76
     1
 77
     6
 78
     2
 67
     7
 79
     5
170
     0
171
     0
290
     0
174
     0
 93
       13
 44
0.0
173
     0
291
     1
 45
0.0
1001
ACAD
1000
AcDbSavedByObjectVersion
1070
     0
  0
VISUALSTYLE
  5
3A
102
{ACAD_XDICTIONARY
360
E64
102
}
102
{ACAD_REACTORS
330
29
102
}
330
29
100
AcDbVisualStyle
  2

 70
    20
 71
     2
 72
     2
 73
     0
 90
        0
 40
-0.6
 41
-30.0
 62
     5
 63
     7
 74
     1
 91
        4
 64
     7
 65
   257
 75
     1
175
     1
 42
1.0
 92
       10
 66
     7
 43
1.0
 76
     1
 77
     6
 78
     2
 67
     7
 79
     5
170
     0
171
     0
290
     0
174
     0
 93
        1
 44
0.0
173
     0
291
     1
 45
0.0
1001
ACAD
1000
AcDbSavedByObjectVersion
1070
     0
  0
VISUALSTYLE
  5
37
102
{ACAD_XDICTIONARY
360
E5E
102
}
102
{ACAD_REACTORS
330
29
102
}
330
29
100
AcDbVisualStyle
  2

 70
    14
 71
     2
 72
     2
 73
     0
 90
        0
 40
-0.6
 41
-30.0
 62
     5
 63
     7
 74
     1
 91
        4
 64
     7
 65
   257
 75
     7
175
     7
 42
1.0
 92
        8
 66
     7
 43
1.0
 76
     1
 77
     6
 78
     2
 67
     7
 79
     5
170
     0
171
     0
290
     0
174
     0
 93
        1
 44
0.0
173
     0
291
     1
 45
0.0
1001
ACAD
1000
AcDbSavedByObjectVersion
1070
     0
  0
VISUALSTYLE
  5
3B
102
{ACAD_XDICTIONARY
360
E66
102
}
102
{ACAD_REACTORS
330
29
102
}
330
29
100
AcDbVisualStyle
  2

 70
    21
 71
     2
 72
     2
 73
     0
 90
        0
 40
-0.6
 41
-30.0
 62
     5
 63
     7
 74
     1
 91
        4
 64
     7
 65
   257
 75
     1
175
     1
 42
1.0
 92
        9
 66
     7
 43
1.0
 76
     1
 77
     6
 78
     2
 67
     7
 79
     5
170
     0
171
     0
290
     0
174
     0
 93
        1
 44
0.0
173
     0
291
     1
 45
0.0
1001
ACAD
1000
AcDbSavedByObjectVersion
1070
     0
  0
VISUALSTYLE
  5
33
102
{ACAD_XDICTIONARY
360
E56
102
}
102
{ACAD_REACTORS
330
29
102
}
330
29
100
AcDbVisualStyle
  2

 70
     8
 71
     2
 72
     2
 73
     0
 90
        0
 40
-0.6
 41
-30.0
 62
     5
 63
     7
 74
     1
 91
        0
 64
     7
 65
   257
 75
     1
175
     1
 42
1.0
 92
        8
 66
     8
 43
1.0
 76
     1
 77
     6
 78
     2
 67
     7
 79
     5
170
     0
171
     0
290
     0
174
     0
 93
       13
 44
0.0
173
     0
291
     0
 45
0.0
1001
ACAD
1000
AcDbSavedByObjectVersion
1070
     0
  0
VISUALSTYLE
  5
36
102
{ACAD_XDICTIONARY
360
E5C
102
}
102
{ACAD_REACTORS
330
29
102
}
330
29
100
AcDbVisualStyle
  2

 70
    13
 71
     2
 72
     2
 73
     0
 90
        0
 40
-0.6
 41
-30.0
 62
     5
 63
     7
 74
     1
 91
        4
 64
     7
 65
   257
 75
     1
175
     1
 42
1.0
 92
       12
 66
     7
 43
1.0
 76
     1
 77
     6
 78
     2
 67
     7
 79
     5
170
     0
171
     0
290
     0
174
     0
 93
        1
 44
0.0
173
     0
291
     1
 45
0.0
1001
ACAD
1000
AcDbSavedByObjectVersion
1070
     0
  0
DICTIONARYVAR
  5
454
102
{ACAD_REACTORS
330
450
102
}
330
450
100
DictionaryVariables
280
     0
  1
1
  0
DICTIONARYVAR
  5
455
102
{ACAD_REACTORS
330
450
102
}
330
450
100
DictionaryVariables
280
     0
  1
1:1
  0
DICTIONARYVAR
  5
452
102
{ACAD_REACTORS
330
450
102
}
330
450
100
DictionaryVariables
280
     0
  1
STANDARD
  0
DICTIONARYVAR
  5
451
102
{ACAD_REACTORS
330
450
102
}
330
450
100
DictionaryVariables
280
     0
  1
STANDARD
  0
DICTIONARYVAR
  5
524
102
{ACAD_REACTORS
330
450
102
}
330
450
100
DictionaryVariables
280
     0
  1
2
  0
DICTIONARYVAR
  5
522
102
{ACAD_REACTORS
330
450
102
}
330
450
100
DictionaryVariables
280
     0
  1
1
  0
DICTIONARYVAR
  5
521
102
{ACAD_REACTORS
330
450
102
}
330
450
100
DictionaryVariables
280
     0
  1
0
  0
DICTIONARYVAR
  5
457
102
{ACAD_REACTORS
330
450
102
}
330
450
100
DictionaryVariables
280
     0
  1
1
  0
DICTIONARYVAR
  5
458
102
{ACAD_REACTORS
330
450
102
}
330
450
100
DictionaryVariables
280
     0
  1
15
  0
DICTIONARYVAR
  5
456
102
{ACAD_REACTORS
330
450
102
}
330
450
100
DictionaryVariables
280
     0
  1
0
  0
DICTIONARYVAR
  5
453
102
{ACAD_REACTORS
330
450
102
}
330
450
100
DictionaryVariables
280
     0
  1
0
  0
DICTIONARYVAR
  5
520
102
{ACAD_REACTORS
330
450
102
}
330
450
100
DictionaryVariables
280
     0
  1
127
  0
DICTIONARYVAR
  5
E3B
102
{ACAD_REACTORS
330
450
102
}
330
450
100
DictionaryVariables
280
     0
  1
2
  0
DICTIONARY
  5
4BB
102
{ACAD_REACTORS
330
4AE
102
}
330
4AE
100
AcDbDictionary
281
     1
  0
XRECORD
  5
44F
102
{ACAD_REACTORS
330
44D
102
}
330
44D
100
AcDbXrecord
280
     1
330
2D0
330
2D1
330
2E2
330
2E3
330
3F7
330
3F8
330
402
330
403
330
40B
330
40C
330
414
330
415
330
41F
330
420
330
42A
330
42B
330
433
330
434
330
43C
330
43D
330
447
330
448
  0
DICTIONARY
  5
E6D
330
6A
100
AcDbDictionary
280
     1
281
     1
  3
ACAD_XREC_ROUNDTRIP
360
E6E
  0
DICTIONARY
  5
E6B
330
66
100
AcDbDictionary
280
     1
281
     1
  3
ACAD_XREC_ROUNDTRIP
360
E6C
  0
DICTIONARY
  5
E6F
330
6E
100
AcDbDictionary
280
     1
281
     1
  3
ACAD_XREC_ROUNDTRIP
360
E70
  0
DICTIONARY
  5
1A
330
19
100
AcDbDictionary
280
     1
281
     1
  3
ACAD_XREC_ROUNDTRIP
360
52F
  3
BUMPTILE
360
1C
  3
DIFFUSETILE
360
1B
  3
OPACITYTILE
360
1F
  3
REFLECTIONTILE
360
1E
  3
REFRACTIONTILE
360
20
  3
SPECULARTILE
360
1D
  0
DICTIONARY
  5
12
330
11
100
AcDbDictionary
280
     1
281
     1
  3
ACAD_XREC_ROUNDTRIP
360
52E
  3
BUMPTILE
360
14
  3
DIFFUSETILE
360
13
  3
OPACITYTILE
360
17
  3
REFLECTIONTILE
360
16
  3
REFRACTIONTILE
360
18
  3
SPECULARTILE
360
15
  0
DICTIONARY
  5
22
330
21
100
AcDbDictionary
280
     1
281
     1
  3
ACAD_XREC_ROUNDTRIP
360
530
  3
BUMPTILE
360
24
  3
DIFFUSETILE
360
23
  3
OPACITYTILE
360
27
  3
REFLECTIONTILE
360
26
  3
REFRACTIONTILE
360
28
  3
SPECULARTILE
360
25
  0
DICTIONARY
  5
525
330
60
100
AcDbDictionary
280
     1
281
     1
  3
ACAD_ROUNDTRIP_2008_TABLESTYLE_CELLSTYLEMAP
360
E3C
  3
ACAD_XREC_ROUNDTRIP
360
E6A
  0
DICTIONARY
  5
E4E
330
2F
100
AcDbDictionary
280
     1
281
     1
  3
ACAD_XREC_ROUNDTRIP
360
E4F
  0
DICTIONARY
  5
E52
330
31
100
AcDbDictionary
280
     1
281
     1
  3
ACAD_XREC_ROUNDTRIP
360
E53
  0
DICTIONARY
  5
E50
330
30
100
AcDbDictionary
280
     1
281
     1
  3
ACAD_XREC_ROUNDTRIP
360
E51
  0
DICTIONARY
  5
E4C
330
2E
100
AcDbDictionary
280
     1
281
     1
  3
ACAD_XREC_ROUNDTRIP
360
E4D
  0
DICTIONARY
  5
E5A
330
35
100
AcDbDictionary
280
     1
281
     1
  3
ACAD_XREC_ROUNDTRIP
360
E5B
  0
DICTIONARY
  5
E62
330
39
100
AcDbDictionary
280
     1
281
     1
  3
ACAD_XREC_ROUNDTRIP
360
E63
  0
DICTIONARY
  5
E54
330
32
100
AcDbDictionary
280
     1
281
     1
  3
ACAD_XREC_ROUNDTRIP
360
E55
  0
DICTIONARY
  5
E58
330
34
100
AcDbDictionary
280
     1
281
     1
  3
ACAD_XREC_ROUNDTRIP
360
E59
  0
DICTIONARY
  5
E68
330
3C
100
AcDbDictionary
280
     1
281
     1
  3
ACAD_XREC_ROUNDTRIP
360
E69
  0
DICTIONARY
  5
E60
330
38
100
AcDbDictionary
280
     1
281
     1
  3
ACAD_XREC_ROUNDTRIP
360
E61
  0
DICTIONARY
  5
E44
330
2A
100
AcDbDictionary
280
     1
281
     1
  3
ACAD_XREC_ROUNDTRIP
360
E45
  0
DICTIONARY
  5
E46
330
2B
100
AcDbDictionary
280
     1
281
     1
  3
ACAD_XREC_ROUNDTRIP
360
E47
  0
DICTIONARY
  5
E48
330
2C
100
AcDbDictionary
280
     1
281
     1
  3
ACAD_XREC_ROUNDTRIP
360
E49
  0
DICTIONARY
  5
E4A
330
2D
100
AcDbDictionary
280
     1
281
     1
  3
ACAD_XREC_ROUNDTRIP
360
E4B
  0
DICTIONARY
  5
E64
330
3A
100
AcDbDictionary
280
     1
281
     1
  3
ACAD_XREC_ROUNDTRIP
360
E65
  0
DICTIONARY
  5
E5E
330
37
100
AcDbDictionary
280
     1
281
     1
  3
ACAD_XREC_ROUNDTRIP
360
E5F
  0
DICTIONARY
  5
E66
330
3B
100
AcDbDictionary
280
     1
281
     1
  3
ACAD_XREC_ROUNDTRIP
360
E67
  0
DICTIONARY
  5
E56
330
33
100
AcDbDictionary
280
     1
281
     1
  3
ACAD_XREC_ROUNDTRIP
360
E57
  0
DICTIONARY
  5
E5C
330
36
100
AcDbDictionary
280
     1
281
     1
  3
ACAD_XREC_ROUNDTRIP
360
E5D
  0
XRECORD
  5
E6E
102
{ACAD_REACTORS
330
E6D
102
}
330
E6D
100
AcDbXrecord
280
     1
102
SHADEPLOT
 70
     0
102
SHADEPLOTRESLEVEL
 70
     2
102
SHADEPLOTCUSTOMDPI
 70
   300
  0
XRECORD
  5
E6C
102
{ACAD_REACTORS
330
E6B
102
}
330
E6B
100
AcDbXrecord
280
     1
102
SHADEPLOT
 70
     0
102
SHADEPLOTRESLEVEL
 70
     2
102
SHADEPLOTCUSTOMDPI
 70
   300
  0
XRECORD
  5
E70
102
{ACAD_REACTORS
330
E6F
102
}
330
E6F
100
AcDbXrecord
280
     1
102
SHADEPLOT
 70
     0
102
SHADEPLOTRESLEVEL
 70
     2
102
SHADEPLOTCUSTOMDPI
 70
   300
  0
XRECORD
  5
52F
102
{ACAD_REACTORS
330
1A
102
}
330
1A
100
AcDbXrecord
280
     1
102
MATERIAL
148
0.0
149
0.0
149
0.0
 93
        0
 94
      127
282
     0
 72
     0
 77
     0
171
     0
175
     0
179
     0
273
     0
  0
XRECORD
  5
1C
102
{ACAD_REACTORS
330
1A
102
}
330
1A
100
AcDbXrecord
280
     1
270
     1
271
     1
  0
XRECORD
  5
1B
102
{ACAD_REACTORS
330
1A
102
}
330
1A
100
AcDbXrecord
280
     1
270
     1
271
     1
  0
XRECORD
  5
1F
102
{ACAD_REACTORS
330
1A
102
}
330
1A
100
AcDbXrecord
280
     1
270
     1
271
     1
  0
XRECORD
  5
1E
102
{ACAD_REACTORS
330
1A
102
}
330
1A
100
AcDbXrecord
280
     1
270
     1
271
     1
  0
XRECORD
  5
20
102
{ACAD_REACTORS
330
1A
102
}
330
1A
100
AcDbXrecord
280
     1
270
     1
271
     1
  0
XRECORD
  5
1D
102
{ACAD_REACTORS
330
1A
102
}
330
1A
100
AcDbXrecord
280
     1
270
     1
271
     1
  0
XRECORD
  5
52E
102
{ACAD_REACTORS
330
12
102
}
330
12
100
AcDbXrecord
280
     1
102
MATERIAL
148
0.0
149
0.0
149
0.0
 93
        0
 94
      127
282
     0
 72
     0
 77
     0
171
     0
175
     0
179
     0
273
     0
  0
XRECORD
  5
14
102
{ACAD_REACTORS
330
12
102
}
330
12
100
AcDbXrecord
280
     1
270
     1
271
     1
  0
XRECORD
  5
13
102
{ACAD_REACTORS
330
12
102
}
330
12
100
AcDbXrecord
280
     1
270
     1
271
     1
  0
XRECORD
  5
17
102
{ACAD_REACTORS
330
12
102
}
330
12
100
AcDbXrecord
280
     1
270
     1
271
     1
  0
XRECORD
  5
16
102
{ACAD_REACTORS
330
12
102
}
330
12
100
AcDbXrecord
280
     1
270
     1
271
     1
  0
XRECORD
  5
18
102
{ACAD_REACTORS
330
12
102
}
330
12
100
AcDbXrecord
280
     1
270
     1
271
     1
  0
XRECORD
  5
15
102
{ACAD_REACTORS
330
12
102
}
330
12
100
AcDbXrecord
280
     1
270
     1
271
     1
  0
XRECORD
  5
530
102
{ACAD_REACTORS
330
22
102
}
330
22
100
AcDbXrecord
280
     1
102
MATERIAL
148
0.0
149
0.0
149
0.0
 93
        0
 94
      127
282
     0
 72
     0
 77
     0
171
     0
175
     0
179
     0
273
     0
  0
XRECORD
  5
24
102
{ACAD_REACTORS
330
22
102
}
330
22
100
AcDbXrecord
280
     1
270
     1
271
     1
  0
XRECORD
  5
23
102
{ACAD_REACTORS
330
22
102
}
330
22
100
AcDbXrecord
280
     1
270
     1
271
     1
  0
XRECORD
  5
27
102
{ACAD_REACTORS
330
22
102
}
330
22
100
AcDbXrecord
280
     1
270
     1
271
     1
  0
XRECORD
  5
26
102
{ACAD_REACTORS
330
22
102
}
330
22
100
AcDbXrecord
280
     1
270
     1
271
     1
  0
XRECORD
  5
28
102
{ACAD_REACTORS
330
22
102
}
330
22
100
AcDbXrecord
280
     1
270
     1
271
     1
  0
XRECORD
  5
25
102
{ACAD_REACTORS
330
22
102
}
330
22
100
AcDbXrecord
280
     1
270
     1
271
     1
  0
CELLSTYLEMAP
  5
E3C
102
{ACAD_REACTORS
330
525
102
}
330
525
100
AcDbCellStyleMap
 90
        3
300
CELLSTYLE
  1
TABLEFORMAT_BEGIN
 90
        5
170
     1
 91
        0
 92
    32768
 62
   257
 93
        1
300
CONTENTFORMAT
  1
CONTENTFORMAT_BEGIN
 90
        0
 91
        0
 92
      512
 93
        0
300

 40
0.0
140
1.0
 94
        5
 62
     0
340
50
144
6.0
309
CONTENTFORMAT_END
171
     1
301
MARGIN
  1
CELLMARGIN_BEGIN
 40
1.5
 40
1.5
 40
1.5
 40
1.5
 40
0.18
 40
0.18
309
CELLMARGIN_END
 94
        6
 95
        1
302
GRIDFORMAT
  1
GRIDFORMAT_BEGIN
 90
        0
 91
        1
 62
     0
 92
       -2
340
0
 93
        0
 40
0.045
309
GRIDFORMAT_END
 95
        2
302
GRIDFORMAT
  1
GRIDFORMAT_BEGIN
 90
        0
 91
        1
 62
     0
 92
       -2
340
0
 93
        0
 40
0.045
309
GRIDFORMAT_END
 95
        4
302
GRIDFORMAT
  1
GRIDFORMAT_BEGIN
 90
        0
 91
        1
 62
     0
 92
       -2
340
0
 93
        0
 40
0.045
309
GRIDFORMAT_END
 95
        8
302
GRIDFORMAT
  1
GRIDFORMAT_BEGIN
 90
        0
 91
        1
 62
     0
 92
       -2
340
0
 93
        0
 40
0.045
309
GRIDFORMAT_END
 95
       16
302
GRIDFORMAT
  1
GRIDFORMAT_BEGIN
 90
        0
 91
        1
 62
     0
 92
       -2
340
0
 93
        0
 40
0.045
309
GRIDFORMAT_END
 95
       32
302
GRIDFORMAT
  1
GRIDFORMAT_BEGIN
 90
        0
 91
        1
 62
     0
 92
       -2
340
0
 93
        0
 40
0.045
309
GRIDFORMAT_END
309
TABLEFORMAT_END
  1
CELLSTYLE_BEGIN
 90
        1
 91
        1
300
_TITLE
309
CELLSTYLE_END
300
CELLSTYLE
  1
TABLEFORMAT_BEGIN
 90
        5
170
     1
 91
        0
 92
        0
 62
   257
 93
        1
300
CONTENTFORMAT
  1
CONTENTFORMAT_BEGIN
 90
        0
 91
        0
 92
      512
 93
        0
300

 40
0.0
140
1.0
 94
        5
 62
     0
340
50
144
4.5
309
CONTENTFORMAT_END
171
     1
301
MARGIN
  1
CELLMARGIN_BEGIN
 40
1.5
 40
1.5
 40
1.5
 40
1.5
 40
0.18
 40
0.18
309
CELLMARGIN_END
 94
        6
 95
        1
302
GRIDFORMAT
  1
GRIDFORMAT_BEGIN
 90
        0
 91
        1
 62
     0
 92
       -2
340
0
 93
        0
 40
0.045
309
GRIDFORMAT_END
 95
        2
302
GRIDFORMAT
  1
GRIDFORMAT_BEGIN
 90
        0
 91
        1
 62
     0
 92
       -2
340
0
 93
        0
 40
0.045
309
GRIDFORMAT_END
 95
        4
302
GRIDFORMAT
  1
GRIDFORMAT_BEGIN
 90
        0
 91
        1
 62
     0
 92
       -2
340
0
 93
        0
 40
0.045
309
GRIDFORMAT_END
 95
        8
302
GRIDFORMAT
  1
GRIDFORMAT_BEGIN
 90
        0
 91
        1
 62
     0
 92
       -2
340
0
 93
        0
 40
0.045
309
GRIDFORMAT_END
 95
       16
302
GRIDFORMAT
  1
GRIDFORMAT_BEGIN
 90
        0
 91
        1
 62
     0
 92
       -2
340
0
 93
        0
 40
0.045
309
GRIDFORMAT_END
 95
       32
302
GRIDFORMAT
  1
GRIDFORMAT_BEGIN
 90
        0
 91
        1
 62
     0
 92
       -2
340
0
 93
        0
 40
0.045
309
GRIDFORMAT_END
309
TABLEFORMAT_END
  1
CELLSTYLE_BEGIN
 90
        2
 91
        1
300
_HEADER
309
CELLSTYLE_END
300
CELLSTYLE
  1
TABLEFORMAT_BEGIN
 90
        5
170
     1
 91
        0
 92
        0
 62
   257
 93
        1
300
CONTENTFORMAT
  1
CONTENTFORMAT_BEGIN
 90
        0
 91
        0
 92
      512
 93
        0
300

 40
0.0
140
1.0
 94
        2
 62
     0
340
50
144
4.5
309
CONTENTFORMAT_END
171
     1
301
MARGIN
  1
CELLMARGIN_BEGIN
 40
1.5
 40
1.5
 40
1.5
 40
1.5
 40
0.18
 40
0.18
309
CELLMARGIN_END
 94
        6
 95
        1
302
GRIDFORMAT
  1
GRIDFORMAT_BEGIN
 90
        0
 91
        1
 62
     0
 92
       -2
340
0
 93
        0
 40
0.045
309
GRIDFORMAT_END
 95
        2
302
GRIDFORMAT
  1
GRIDFORMAT_BEGIN
 90
        0
 91
        1
 62
     0
 92
       -2
340
0
 93
        0
 40
0.045
309
GRIDFORMAT_END
 95
        4
302
GRIDFORMAT
  1
GRIDFORMAT_BEGIN
 90
        0
 91
        1
 62
     0
 92
       -2
340
0
 93
        0
 40
0.045
309
GRIDFORMAT_END
 95
        8
302
GRIDFORMAT
  1
GRIDFORMAT_BEGIN
 90
        0
 91
        1
 62
     0
 92
       -2
340
0
 93
        0
 40
0.045
309
GRIDFORMAT_END
 95
       16
302
GRIDFORMAT
  1
GRIDFORMAT_BEGIN
 90
        0
 91
        1
 62
     0
 92
       -2
340
0
 93
        0
 40
0.045
309
GRIDFORMAT_END
 95
       32
302
GRIDFORMAT
  1
GRIDFORMAT_BEGIN
 90
        0
 91
        1
 62
     0
 92
       -2
340
0
 93
        0
 40
0.045
309
GRIDFORMAT_END
309
TABLEFORMAT_END
  1
CELLSTYLE_BEGIN
 90
        3
 91
        2
300
_DATA
309
CELLSTYLE_END
  0
XRECORD
  5
E6A
102
{ACAD_REACTORS
330
525
102
}
330
525
100
AcDbXrecord
280
     1
102
ACAD_ROUNDTRIP_PRE2007_TABLESTYLE
 90
      512
 91
        0
  1

 92
      512
 93
        0
  2

 94
      512
 95
        0
  3

  0
XRECORD
  5
E4F
102
{ACAD_REACTORS
330
E4E
102
}
330
E4E
100
AcDbXrecord
280
     1
102
RTVSPropertyOp0
 70
     1
102
RTVSPropertyOp1
 70
     1
102
RTVSPropertyOp2
 70
     1
102
RTVSPropertyOp3
 70
     1
102
RTVSPropertyOp4
 70
     1
102
RTVSPropertyOp5
 70
     1
102
RTVSPropertyOp6
 70
     1
102
RTVSPropertyOp7
 70
     1
102
RTVSPropertyOp8
 70
     1
102
RTVSPropertyOp9
 70
     1
102
RTVSPropertyOp10
 70
     1
102
RTVSPropertyOp11
 70
     1
102
RTVSPropertyOp12
 70
     1
102
RTVSPropertyOp13
 70
     1
102
RTVSPropertyOp14
 70
     1
102
RTVSPropertyOp15
 70
     1
102
RTVSPropertyOp16
 70
     1
102
RTVSPropertyOp17
 70
     1
102
RTVSPropertyOp18
 70
     1
102
RTVSPropertyOp19
 70
     1
102
RTVSPropertyOp20
 70
     1
102
RTVSPropertyOp21
 70
     1
102
RTVSPropertyOp22
 70
     1
102
RTVSPropertyOp23
 70
     1
102
RTVSPropertyOp24
 70
     1
102
RTVSPropertyOp25
 70
     1
102
RTVSPropertyOp26
 70
     1
102
RTVSPropertyOp27
 70
     1
  0
XRECORD
  5
E53
102
{ACAD_REACTORS
330
E52
102
}
330
E52
100
AcDbXrecord
280
     1
102
RTVSPropertyOp0
 70
     1
102
RTVSPropertyOp1
 70
     1
102
RTVSPropertyOp2
 70
     1
102
RTVSPropertyOp3
 70
     1
102
RTVSPropertyOp4
 70
     1
102
RTVSPropertyOp5
 70
     1
102
RTVSPropertyOp6
 70
     1
102
RTVSPropertyOp7
 70
     1
102
RTVSPropertyOp8
 70
     1
102
RTVSPropertyOp9
 70
     1
102
RTVSPropertyOp10
 70
     1
102
RTVSPropertyOp11
 70
     1
102
RTVSPropertyOp12
 70
     1
102
RTVSPropertyOp13
 70
     1
102
RTVSPropertyOp14
 70
     1
102
RTVSPropertyOp15
 70
     1
102
RTVSPropertyOp16
 70
     1
102
RTVSPropertyOp17
 70
     1
102
RTVSPropertyOp18
 70
     1
102
RTVSPropertyOp19
 70
     1
102
RTVSPropertyOp20
 70
     1
102
RTVSPropertyOp21
 70
     1
102
RTVSPropertyOp22
 70
     1
102
RTVSPropertyOp23
 70
     1
102
RTVSPropertyOp24
 70
     1
102
RTVSPropertyOp25
 70
     1
102
RTVSPropertyOp26
 70
     1
102
RTVSPropertyOp27
 70
     1
  0
XRECORD
  5
E51
102
{ACAD_REACTORS
330
E50
102
}
330
E50
100
AcDbXrecord
280
     1
102
RTVSPropertyOp0
 70
     1
102
RTVSPropertyOp1
 70
     1
102
RTVSPropertyOp2
 70
     1
102
RTVSPropertyOp3
 70
     1
102
RTVSPropertyOp4
 70
     1
102
RTVSPropertyOp5
 70
     1
102
RTVSPropertyOp6
 70
     1
102
RTVSPropertyOp7
 70
     1
102
RTVSPropertyOp8
 70
     1
102
RTVSPropertyOp9
 70
     1
102
RTVSPropertyOp10
 70
     1
102
RTVSPropertyOp11
 70
     1
102
RTVSPropertyOp12
 70
     1
102
RTVSPropertyOp13
 70
     1
102
RTVSPropertyOp14
 70
     1
102
RTVSPropertyOp15
 70
     1
102
RTVSPropertyOp16
 70
     1
102
RTVSPropertyOp17
 70
     1
102
RTVSPropertyOp18
 70
     1
102
RTVSPropertyOp19
 70
     1
102
RTVSPropertyOp20
 70
     1
102
RTVSPropertyOp21
 70
     1
102
RTVSPropertyOp22
 70
     1
102
RTVSPropertyOp23
 70
     1
102
RTVSPropertyOp24
 70
     1
102
RTVSPropertyOp25
 70
     1
102
RTVSPropertyOp26
 70
     1
102
RTVSPropertyOp27
 70
     1
  0
XRECORD
  5
E4D
102
{ACAD_REACTORS
330
E4C
102
}
330
E4C
100
AcDbXrecord
280
     1
102
RTVSPropertyOp0
 70
     1
102
RTVSPropertyOp1
 70
     1
102
RTVSPropertyOp2
 70
     1
102
RTVSPropertyOp3
 70
     1
102
RTVSPropertyOp4
 70
     1
102
RTVSPropertyOp5
 70
     1
102
RTVSPropertyOp6
 70
     1
102
RTVSPropertyOp7
 70
     1
102
RTVSPropertyOp8
 70
     1
102
RTVSPropertyOp9
 70
     1
102
RTVSPropertyOp10
 70
     1
102
RTVSPropertyOp11
 70
     1
102
RTVSPropertyOp12
 70
     1
102
RTVSPropertyOp13
 70
     1
102
RTVSPropertyOp14
 70
     1
102
RTVSPropertyOp15
 70
     1
102
RTVSPropertyOp16
 70
     1
102
RTVSPropertyOp17
 70
     1
102
RTVSPropertyOp18
 70
     1
102
RTVSPropertyOp19
 70
     1
102
RTVSPropertyOp20
 70
     1
102
RTVSPropertyOp21
 70
     1
102
RTVSPropertyOp22
 70
     1
102
RTVSPropertyOp23
 70
     1
102
RTVSPropertyOp24
 70
     1
102
RTVSPropertyOp25
 70
     1
102
RTVSPropertyOp26
 70
     1
102
RTVSPropertyOp27
 70
     1
  0
XRECORD
  5
E5B
102
{ACAD_REACTORS
330
E5A
102
}
330
E5A
100
AcDbXrecord
280
     1
102
RTVSPropertyOp0
 70
     1
102
RTVSPropertyOp1
 70
     1
102
RTVSPropertyOp2
 70
     1
102
RTVSPropertyOp3
 70
     1
102
RTVSPropertyOp4
 70
     1
102
RTVSPropertyOp5
 70
     1
102
RTVSPropertyOp6
 70
     1
102
RTVSPropertyOp7
 70
     1
102
RTVSPropertyOp8
 70
     1
102
RTVSPropertyOp9
 70
     1
102
RTVSPropertyOp10
 70
     1
102
RTVSPropertyOp11
 70
     1
102
RTVSPropertyOp12
 70
     1
102
RTVSPropertyOp13
 70
     1
102
RTVSPropertyOp14
 70
     1
102
RTVSPropertyOp15
 70
     1
102
RTVSPropertyOp16
 70
     1
102
RTVSPropertyOp17
 70
     1
102
RTVSPropertyOp18
 70
     1
102
RTVSPropertyOp19
 70
     1
102
RTVSPropertyOp20
 70
     1
102
RTVSPropertyOp21
 70
     1
102
RTVSPropertyOp22
 70
     1
102
RTVSPropertyOp23
 70
     1
102
RTVSPropertyOp24
 70
     1
102
RTVSPropertyOp25
 70
     1
102
RTVSPropertyOp26
 70
     1
102
RTVSPropertyOp27
 70
     1
  0
XRECORD
  5
E63
102
{ACAD_REACTORS
330
E62
102
}
330
E62
100
AcDbXrecord
280
     1
102
RTVSPropertyOp0
 70
     1
102
RTVSPropertyOp1
 70
     1
102
RTVSPropertyOp2
 70
     1
102
RTVSPropertyOp3
 70
     1
102
RTVSPropertyOp4
 70
     1
102
RTVSPropertyOp5
 70
     1
102
RTVSPropertyOp6
 70
     1
102
RTVSPropertyOp7
 70
     1
102
RTVSPropertyOp8
 70
     1
102
RTVSPropertyOp9
 70
     1
102
RTVSPropertyOp10
 70
     1
102
RTVSPropertyOp11
 70
     1
102
RTVSPropertyOp12
 70
     1
102
RTVSPropertyOp13
 70
     1
102
RTVSPropertyOp14
 70
     1
102
RTVSPropertyOp15
 70
     1
102
RTVSPropertyOp16
 70
     1
102
RTVSPropertyOp17
 70
     1
102
RTVSPropertyOp18
 70
     1
102
RTVSPropertyOp19
 70
     1
102
RTVSPropertyOp20
 70
     1
102
RTVSPropertyOp21
 70
     1
102
RTVSPropertyOp22
 70
     1
102
RTVSPropertyOp23
 70
     1
102
RTVSPropertyOp24
 70
     1
102
RTVSPropertyOp25
 70
     1
102
RTVSPropertyOp26
 70
     1
102
RTVSPropertyOp27
 70
     1
  0
XRECORD
  5
E55
102
{ACAD_REACTORS
330
E54
102
}
330
E54
100
AcDbXrecord
280
     1
102
RTVSPropertyOp0
 70
     1
102
RTVSPropertyOp1
 70
     1
102
RTVSPropertyOp2
 70
     1
102
RTVSPropertyOp3
 70
     1
102
RTVSPropertyOp4
 70
     1
102
RTVSPropertyOp5
 70
     1
102
RTVSPropertyOp6
 70
     1
102
RTVSPropertyOp7
 70
     1
102
RTVSPropertyOp8
 70
     1
102
RTVSPropertyOp9
 70
     1
102
RTVSPropertyOp10
 70
     1
102
RTVSPropertyOp11
 70
     1
102
RTVSPropertyOp12
 70
     1
102
RTVSPropertyOp13
 70
     1
102
RTVSPropertyOp14
 70
     1
102
RTVSPropertyOp15
 70
     1
102
RTVSPropertyOp16
 70
     1
102
RTVSPropertyOp17
 70
     1
102
RTVSPropertyOp18
 70
     1
102
RTVSPropertyOp19
 70
     1
102
RTVSPropertyOp20
 70
     1
102
RTVSPropertyOp21
 70
     1
102
RTVSPropertyOp22
 70
     1
102
RTVSPropertyOp23
 70
     1
102
RTVSPropertyOp24
 70
     1
102
RTVSPropertyOp25
 70
     1
102
RTVSPropertyOp26
 70
     1
102
RTVSPropertyOp27
 70
     1
  0
XRECORD
  5
E59
102
{ACAD_REACTORS
330
E58
102
}
330
E58
100
AcDbXrecord
280
     1
102
RTVSPropertyOp0
 70
     1
102
RTVSPropertyOp1
 70
     1
102
RTVSPropertyOp2
 70
     1
102
RTVSPropertyOp3
 70
     1
102
RTVSPropertyOp4
 70
     1
102
RTVSPropertyOp5
 70
     1
102
RTVSPropertyOp6
 70
     1
102
RTVSPropertyOp7
 70
     1
102
RTVSPropertyOp8
 70
     1
102
RTVSPropertyOp9
 70
     1
102
RTVSPropertyOp10
 70
     1
102
RTVSPropertyOp11
 70
     1
102
RTVSPropertyOp12
 70
     1
102
RTVSPropertyOp13
 70
     1
102
RTVSPropertyOp14
 70
     1
102
RTVSPropertyOp15
 70
     1
102
RTVSPropertyOp16
 70
     1
102
RTVSPropertyOp17
 70
     1
102
RTVSPropertyOp18
 70
     1
102
RTVSPropertyOp19
 70
     1
102
RTVSPropertyOp20
 70
     1
102
RTVSPropertyOp21
 70
     1
102
RTVSPropertyOp22
 70
     1
102
RTVSPropertyOp23
 70
     1
102
RTVSPropertyOp24
 70
     1
102
RTVSPropertyOp25
 70
     1
102
RTVSPropertyOp26
 70
     1
102
RTVSPropertyOp27
 70
     1
  0
XRECORD
  5
E69
102
{ACAD_REACTORS
330
E68
102
}
330
E68
100
AcDbXrecord
280
     1
102
RTVSPropertyOp0
 70
     0
102
RTVSPropertyOp1
 70
     0
102
RTVSPropertyOp2
 70
     0
102
RTVSPropertyOp3
 70
     0
102
RTVSPropertyOp4
 70
     0
102
RTVSPropertyOp5
 70
     0
102
RTVSPropertyOp6
 70
     0
102
RTVSPropertyOp7
 70
     0
102
RTVSPropertyOp8
 70
     0
102
RTVSPropertyOp9
 70
     0
102
RTVSPropertyOp10
 70
     0
102
RTVSPropertyOp11
 70
     0
102
RTVSPropertyOp12
 70
     0
102
RTVSPropertyOp13
 70
     0
102
RTVSPropertyOp14
 70
     2
102
RTVSPropertyOp15
 70
     0
102
RTVSPropertyOp16
 70
     0
102
RTVSPropertyOp17
 70
     0
102
RTVSPropertyOp18
 70
     0
102
RTVSPropertyOp19
 70
     0
102
RTVSPropertyOp20
 70
     0
102
RTVSPropertyOp21
 70
     0
102
RTVSPropertyOp22
 70
     0
102
RTVSPropertyOp23
 70
     0
102
RTVSPropertyOp24
 70
     0
102
RTVSPropertyOp25
 70
     0
102
RTVSPropertyOp26
 70
     0
102
RTVSPropertyOp27
 70
     0
  0
XRECORD
  5
E61
102
{ACAD_REACTORS
330
E60
102
}
330
E60
100
AcDbXrecord
280
     1
102
RTVSPropertyOp0
 70
     1
102
RTVSPropertyOp1
 70
     1
102
RTVSPropertyOp2
 70
     1
102
RTVSPropertyOp3
 70
     1
102
RTVSPropertyOp4
 70
     1
102
RTVSPropertyOp5
 70
     1
102
RTVSPropertyOp6
 70
     1
102
RTVSPropertyOp7
 70
     1
102
RTVSPropertyOp8
 70
     1
102
RTVSPropertyOp9
 70
     1
102
RTVSPropertyOp10
 70
     1
102
RTVSPropertyOp11
 70
     1
102
RTVSPropertyOp12
 70
     1
102
RTVSPropertyOp13
 70
     1
102
RTVSPropertyOp14
 70
     1
102
RTVSPropertyOp15
 70
     1
102
RTVSPropertyOp16
 70
     1
102
RTVSPropertyOp17
 70
     1
102
RTVSPropertyOp18
 70
     1
102
RTVSPropertyOp19
 70
     1
102
RTVSPropertyOp20
 70
     1
102
RTVSPropertyOp21
 70
     1
102
RTVSPropertyOp22
 70
     1
102
RTVSPropertyOp23
 70
     1
102
RTVSPropertyOp24
 70
     1
102
RTVSPropertyOp25
 70
     1
102
RTVSPropertyOp26
 70
     1
102
RTVSPropertyOp27
 70
     1
  0
XRECORD
  5
E45
102
{ACAD_REACTORS
330
E44
102
}
330
E44
100
AcDbXrecord
280
     1
102
RTVSPropertyOp0
 70
     1
102
RTVSPropertyOp1
 70
     1
102
RTVSPropertyOp2
 70
     1
102
RTVSPropertyOp3
 70
     1
102
RTVSPropertyOp4
 70
     1
102
RTVSPropertyOp5
 70
     1
102
RTVSPropertyOp6
 70
     1
102
RTVSPropertyOp7
 70
     1
102
RTVSPropertyOp8
 70
     1
102
RTVSPropertyOp9
 70
     1
102
RTVSPropertyOp10
 70
     1
102
RTVSPropertyOp11
 70
     1
102
RTVSPropertyOp12
 70
     1
102
RTVSPropertyOp13
 70
     1
102
RTVSPropertyOp14
 70
     1
102
RTVSPropertyOp15
 70
     1
102
RTVSPropertyOp16
 70
     1
102
RTVSPropertyOp17
 70
     1
102
RTVSPropertyOp18
 70
     1
102
RTVSPropertyOp19
 70
     1
102
RTVSPropertyOp20
 70
     1
102
RTVSPropertyOp21
 70
     1
102
RTVSPropertyOp22
 70
     1
102
RTVSPropertyOp23
 70
     1
102
RTVSPropertyOp24
 70
     1
102
RTVSPropertyOp25
 70
     1
102
RTVSPropertyOp26
 70
     1
102
RTVSPropertyOp27
 70
     1
  0
XRECORD
  5
E47
102
{ACAD_REACTORS
330
E46
102
}
330
E46
100
AcDbXrecord
280
     1
102
RTVSPropertyOp0
 70
     1
102
RTVSPropertyOp1
 70
     1
102
RTVSPropertyOp2
 70
     1
102
RTVSPropertyOp3
 70
     1
102
RTVSPropertyOp4
 70
     1
102
RTVSPropertyOp5
 70
     1
102
RTVSPropertyOp6
 70
     1
102
RTVSPropertyOp7
 70
     1
102
RTVSPropertyOp8
 70
     1
102
RTVSPropertyOp9
 70
     1
102
RTVSPropertyOp10
 70
     1
102
RTVSPropertyOp11
 70
     1
102
RTVSPropertyOp12
 70
     1
102
RTVSPropertyOp13
 70
     1
102
RTVSPropertyOp14
 70
     1
102
RTVSPropertyOp15
 70
     1
102
RTVSPropertyOp16
 70
     1
102
RTVSPropertyOp17
 70
     1
102
RTVSPropertyOp18
 70
     1
102
RTVSPropertyOp19
 70
     1
102
RTVSPropertyOp20
 70
     1
102
RTVSPropertyOp21
 70
     1
102
RTVSPropertyOp22
 70
     1
102
RTVSPropertyOp23
 70
     1
102
RTVSPropertyOp24
 70
     1
102
RTVSPropertyOp25
 70
     1
102
RTVSPropertyOp26
 70
     1
102
RTVSPropertyOp27
 70
     1
  0
XRECORD
  5
E49
102
{ACAD_REACTORS
330
E48
102
}
330
E48
100
AcDbXrecord
280
     1
102
RTVSPropertyOp0
 70
     1
102
RTVSPropertyOp1
 70
     1
102
RTVSPropertyOp2
 70
     1
102
RTVSPropertyOp3
 70
     1
102
RTVSPropertyOp4
 70
     1
102
RTVSPropertyOp5
 70
     1
102
RTVSPropertyOp6
 70
     1
102
RTVSPropertyOp7
 70
     1
102
RTVSPropertyOp8
 70
     1
102
RTVSPropertyOp9
 70
     1
102
RTVSPropertyOp10
 70
     1
102
RTVSPropertyOp11
 70
     1
102
RTVSPropertyOp12
 70
     1
102
RTVSPropertyOp13
 70
     1
102
RTVSPropertyOp14
 70
     1
102
RTVSPropertyOp15
 70
     1
102
RTVSPropertyOp16
 70
     1
102
RTVSPropertyOp17
 70
     1
102
RTVSPropertyOp18
 70
     1
102
RTVSPropertyOp19
 70
     1
102
RTVSPropertyOp20
 70
     1
102
RTVSPropertyOp21
 70
     1
102
RTVSPropertyOp22
 70
     1
102
RTVSPropertyOp23
 70
     1
102
RTVSPropertyOp24
 70
     1
102
RTVSPropertyOp25
 70
     1
102
RTVSPropertyOp26
 70
     1
102
RTVSPropertyOp27
 70
     1
  0
XRECORD
  5
E4B
102
{ACAD_REACTORS
330
E4A
102
}
330
E4A
100
AcDbXrecord
280
     1
102
RTVSPropertyOp0
 70
     1
102
RTVSPropertyOp1
 70
     1
102
RTVSPropertyOp2
 70
     1
102
RTVSPropertyOp3
 70
     1
102
RTVSPropertyOp4
 70
     1
102
RTVSPropertyOp5
 70
     1
102
RTVSPropertyOp6
 70
     1
102
RTVSPropertyOp7
 70
     1
102
RTVSPropertyOp8
 70
     1
102
RTVSPropertyOp9
 70
     1
102
RTVSPropertyOp10
 70
     1
102
RTVSPropertyOp11
 70
     1
102
RTVSPropertyOp12
 70
     1
102
RTVSPropertyOp13
 70
     1
102
RTVSPropertyOp14
 70
     1
102
RTVSPropertyOp15
 70
     1
102
RTVSPropertyOp16
 70
     1
102
RTVSPropertyOp17
 70
     1
102
RTVSPropertyOp18
 70
     1
102
RTVSPropertyOp19
 70
     1
102
RTVSPropertyOp20
 70
     1
102
RTVSPropertyOp21
 70
     1
102
RTVSPropertyOp22
 70
     1
102
RTVSPropertyOp23
 70
     1
102
RTVSPropertyOp24
 70
     1
102
RTVSPropertyOp25
 70
     1
102
RTVSPropertyOp26
 70
     1
102
RTVSPropertyOp27
 70
     1
  0
XRECORD
  5
E65
102
{ACAD_REACTORS
330
E64
102
}
330
E64
100
AcDbXrecord
280
     1
102
RTVSPropertyOp0
 70
     0
102
RTVSPropertyOp1
 70
     0
102
RTVSPropertyOp2
 70
     0
102
RTVSPropertyOp3
 70
     0
102
RTVSPropertyOp4
 70
     0
102
RTVSPropertyOp5
 70
     0
102
RTVSPropertyOp6
 70
     0
102
RTVSPropertyOp7
 70
     0
102
RTVSPropertyOp8
 70
     0
102
RTVSPropertyOp9
 70
     0
102
RTVSPropertyOp10
 70
     0
102
RTVSPropertyOp11
 70
     0
102
RTVSPropertyOp12
 70
     0
102
RTVSPropertyOp13
 70
     0
102
RTVSPropertyOp14
 70
     2
102
RTVSPropertyOp15
 70
     0
102
RTVSPropertyOp16
 70
     0
102
RTVSPropertyOp17
 70
     0
102
RTVSPropertyOp18
 70
     0
102
RTVSPropertyOp19
 70
     0
102
RTVSPropertyOp20
 70
     0
102
RTVSPropertyOp21
 70
     0
102
RTVSPropertyOp22
 70
     0
102
RTVSPropertyOp23
 70
     0
102
RTVSPropertyOp24
 70
     0
102
RTVSPropertyOp25
 70
     0
102
RTVSPropertyOp26
 70
     0
102
RTVSPropertyOp27
 70
     0
  0
XRECORD
  5
E5F
102
{ACAD_REACTORS
330
E5E
102
}
330
E5E
100
AcDbXrecord
280
     1
102
RTVSPropertyOp0
 70
     1
102
RTVSPropertyOp1
 70
     1
102
RTVSPropertyOp2
 70
     1
102
RTVSPropertyOp3
 70
     1
102
RTVSPropertyOp4
 70
     1
102
RTVSPropertyOp5
 70
     1
102
RTVSPropertyOp6
 70
     1
102
RTVSPropertyOp7
 70
     1
102
RTVSPropertyOp8
 70
     1
102
RTVSPropertyOp9
 70
     1
102
RTVSPropertyOp10
 70
     1
102
RTVSPropertyOp11
 70
     1
102
RTVSPropertyOp12
 70
     1
102
RTVSPropertyOp13
 70
     1
102
RTVSPropertyOp14
 70
     1
102
RTVSPropertyOp15
 70
     1
102
RTVSPropertyOp16
 70
     1
102
RTVSPropertyOp17
 70
     1
102
RTVSPropertyOp18
 70
     1
102
RTVSPropertyOp19
 70
     1
102
RTVSPropertyOp20
 70
     1
102
RTVSPropertyOp21
 70
     1
102
RTVSPropertyOp22
 70
     1
102
RTVSPropertyOp23
 70
     1
102
RTVSPropertyOp24
 70
     1
102
RTVSPropertyOp25
 70
     1
102
RTVSPropertyOp26
 70
     1
102
RTVSPropertyOp27
 70
     1
  0
XRECORD
  5
E67
102
{ACAD_REACTORS
330
E66
102
}
330
E66
100
AcDbXrecord
280
     1
102
RTVSPropertyOp0
 70
     0
102
RTVSPropertyOp1
 70
     0
102
RTVSPropertyOp2
 70
     0
102
RTVSPropertyOp3
 70
     0
102
RTVSPropertyOp4
 70
     0
102
RTVSPropertyOp5
 70
     0
102
RTVSPropertyOp6
 70
     0
102
RTVSPropertyOp7
 70
     0
102
RTVSPropertyOp8
 70
     0
102
RTVSPropertyOp9
 70
     0
102
RTVSPropertyOp10
 70
     0
102
RTVSPropertyOp11
 70
     0
102
RTVSPropertyOp12
 70
     0
102
RTVSPropertyOp13
 70
     0
102
RTVSPropertyOp14
 70
     2
102
RTVSPropertyOp15
 70
     0
102
RTVSPropertyOp16
 70
     0
102
RTVSPropertyOp17
 70
     0
102
RTVSPropertyOp18
 70
     0
102
RTVSPropertyOp19
 70
     0
102
RTVSPropertyOp20
 70
     0
102
RTVSPropertyOp21
 70
     0
102
RTVSPropertyOp22
 70
     0
102
RTVSPropertyOp23
 70
     0
102
RTVSPropertyOp24
 70
     0
102
RTVSPropertyOp25
 70
     0
102
RTVSPropertyOp26
 70
     0
102
RTVSPropertyOp27
 70
     0
  0
XRECORD
  5
E57
102
{ACAD_REACTORS
330
E56
102
}
330
E56
100
AcDbXrecord
280
     1
102
RTVSPropertyOp0
 70
     1
102
RTVSPropertyOp1
 70
     1
102
RTVSPropertyOp2
 70
     1
102
RTVSPropertyOp3
 70
     1
102
RTVSPropertyOp4
 70
     1
102
RTVSPropertyOp5
 70
     1
102
RTVSPropertyOp6
 70
     1
102
RTVSPropertyOp7
 70
     1
102
RTVSPropertyOp8
 70
     1
102
RTVSPropertyOp9
 70
     1
102
RTVSPropertyOp10
 70
     1
102
RTVSPropertyOp11
 70
     1
102
RTVSPropertyOp12
 70
     1
102
RTVSPropertyOp13
 70
     1
102
RTVSPropertyOp14
 70
     1
102
RTVSPropertyOp15
 70
     1
102
RTVSPropertyOp16
 70
     1
102
RTVSPropertyOp17
 70
     1
102
RTVSPropertyOp18
 70
     1
102
RTVSPropertyOp19
 70
     1
102
RTVSPropertyOp20
 70
     1
102
RTVSPropertyOp21
 70
     1
102
RTVSPropertyOp22
 70
     1
102
RTVSPropertyOp23
 70
     1
102
RTVSPropertyOp24
 70
     1
102
RTVSPropertyOp25
 70
     1
102
RTVSPropertyOp26
 70
     1
102
RTVSPropertyOp27
 70
     1
  0
XRECORD
  5
E5D
102
{ACAD_REACTORS
330
E5C
102
}
330
E5C
100
AcDbXrecord
280
     1
102
RTVSPropertyOp0
 70
     1
102
RTVSPropertyOp1
 70
     1
102
RTVSPropertyOp2
 70
     1
102
RTVSPropertyOp3
 70
     1
102
RTVSPropertyOp4
 70
     1
102
RTVSPropertyOp5
 70
     1
102
RTVSPropertyOp6
 70
     1
102
RTVSPropertyOp7
 70
     1
102
RTVSPropertyOp8
 70
     1
102
RTVSPropertyOp9
 70
     1
102
RTVSPropertyOp10
 70
     1
102
RTVSPropertyOp11
 70
     1
102
RTVSPropertyOp12
 70
     1
102
RTVSPropertyOp13
 70
     1
102
RTVSPropertyOp14
 70
     1
102
RTVSPropertyOp15
 70
     1
102
RTVSPropertyOp16
 70
     1
102
RTVSPropertyOp17
 70
     1
102
RTVSPropertyOp18
 70
     1
102
RTVSPropertyOp19
 70
     1
102
RTVSPropertyOp20
 70
     1
102
RTVSPropertyOp21
 70
     1
102
RTVSPropertyOp22
 70
     1
102
RTVSPropertyOp23
 70
     1
102
RTVSPropertyOp24
 70
     1
102
RTVSPropertyOp25
 70
     1
102
RTVSPropertyOp26
 70
     1
102
RTVSPropertyOp27
 70
     1
  0
ENDSEC
  0
EOF
