  0
SECTION
  2
HEADER
  9
$ACADVER
  1
AC1015
  9
$ACADMAINTVER
 70
    20
  9
$DWGCODEPAGE
  3
ANSI_932
  9
$INSBASE
 10
0.0
 20
0.0
 30
0.0
  9
$EXTMIN
 10
-0.0000000000000044
 20
-0.0000000000000071
 30
-0.00000001
  9
$EXTMAX
 10
180.0
 20
80.0
 30
0.00000001
  9
$LIMMIN
 10
-5.027069091796875
 20
-5.027082920074462
  9
$LIMMAX
 10
291.89892578125
 20
204.9462447166443
  9
$ORTHOMODE
 70
     0
  9
$REGENMODE
 70
     1
  9
$FILLMODE
 70
     1
  9
$QTEXTMODE
 70
     0
  9
$MIRRTEXT
 70
     0
  9
$LTSCALE
 40
1.0
  9
$ATTMODE
 70
     1
  9
$TEXTSIZE
 40
2.5
  9
$TRACEWID
 40
1.0
  9
$TEXTSTYLE
  7
STANDARD
  9
$CLAYER
  8
0
  9
$CELTYPE
  6
ByLayer
  9
$CECOLOR
 62
   256
  9
$CELTSCALE
 40
1.0
  9
$DISPSILH
 70
     0
  9
$DIMSCALE
 40
1.0
  9
$DIMASZ
 40
2.5
  9
$DIMEXO
 40
0.5
  9
$DIMDLI
 40
8.0
  9
$DIMRND
 40
0.0
  9
$DIMDLE
 40
0.0
  9
$DIMEXE
 40
1.0
  9
$DIMTP
 40
0.0
  9
$DIMTM
 40
0.0
  9
$DIMTXT
 40
3.5
  9
$DIMCEN
 40
0.0
  9
$DIMTSZ
 40
0.0
  9
$DIMTOL
 70
     0
  9
$DIMLIM
 70
     0
  9
$DIMTIH
 70
     0
  9
$DIMTOH
 70
     0
  9
$DIMSE1
 70
     0
  9
$DIMSE2
 70
     0
  9
$DIMTAD
 70
     3
  9
$DIMZIN
 70
     8
  9
$DIMBLK
  1
Open
  9
$DIMASO
 70
     1
  9
$DIMSHO
 70
     1
  9
$DIMPOST
  1

  9
$DIMAPOST
  1
"
  9
$DIMALT
 70
     0
  9
$DIMALTD
 70
     2
  9
$DIMALTF
 40
0.0393701
  9
$DIMLFAC
 40
1.0
  9
$DIMTOFL
 70
     1
  9
$DIMTVP
 40
0.0
  9
$DIMTIX
 70
     0
  9
$DIMSOXD
 70
     0
  9
$DIMSAH
 70
     0
  9
$DIMBLK1
  1

  9
$DIMBLK2
  1

  9
$DIMSTYLE
  2
AM_JIS
  9
$DIMCLRD
 70
   256
  9
$DIMCLRE
 70
   256
  9
$DIMCLRT
 70
   140
  9
$DIMTFAC
 40
0.55
  9
$DIMGAP
 40
0.8
  9
$DIMJUST
 70
     0
  9
$DIMSD1
 70
     0
  9
$DIMSD2
 70
     0
  9
$DIMTOLJ
 70
     0
  9
$DIMTZIN
 70
     8
  9
$DIMALTZ
 70
     0
  9
$DIMALTTZ
 70
     0
  9
$DIMUPT
 70
     0
  9
$DIMDEC
 70
     3
  9
$DIMTDEC
 70
     3
  9
$DIMALTU
 70
     2
  9
$DIMALTTD
 70
     2
  9
$DIMTXSTY
  7
STANDARD
  9
$DIMAUNIT
 70
     0
  9
$DIMADEC
 70
     0
  9
$DIMALTRND
 40
0.0
  9
$DIMAZIN
 70
     2
  9
$DIMDSEP
 70
    46
  9
$DIMATFIT
 70
     3
  9
$DIMFRAC
 70
     0
  9
$DIMLDRBLK
  1
Open
  9
$DIMLUNIT
 70
     2
  9
$DIMLWD
 70
    -1
  9
$DIMLWE
 70
    -1
  9
$DIMTMOVE
 70
     0
  9
$LUNITS
 70
     2
  9
$LUPREC
 70
     2
  9
$SKETCHINC
 40
1.0
  9
$FILLETRAD
 40
2.5
  9
$AUNITS
 70
     0
  9
$AUPREC
 70
     0
  9
$MENU
  1
.
  9
$ELEVATION
 40
0.0
  9
$PELEVATION
 40
0.0
  9
$THICKNESS
 40
0.0
  9
$LIMCHECK
 70
     0
  9
$CHAMFERA
 40
2.5
  9
$CHAMFERB
 40
2.5
  9
$CHAMFERC
 40
20.0
  9
$CHAMFERD
 40
0.0
  9
$SKPOLY
 70
     0
  9
$TDCREATE
 40
2456512.570203993
  9
$TDUCREATE
 40
2456512.195203993
  9
$TDUPDATE
 40
2456561.428427188
  9
$TDUUPDATE
 40
2456561.053427188
  9
$TDINDWG
 40
0.0000902315
  9
$TDUSRTIMER
 40
0.0000902315
  9
$USRTIMER
 70
     1
  9
$ANGBASE
 50
0.0
  9
$ANGDIR
 70
     0
  9
$PDMODE
 70
     0
  9
$PDSIZE
 40
0.0
  9
$PLINEWID
 40
0.0
  9
$SPLFRAME
 70
     0
  9
$SPLINETYPE
 70
     6
  9
$SPLINESEGS
 70
     8
  9
$HANDSEED
  5
56D
  9
$SURFTAB1
 70
     6
  9
$SURFTAB2
 70
     6
  9
$SURFTYPE
 70
     6
  9
$SURFU
 70
     6
  9
$SURFV
 70
     6
  9
$UCSBASE
  2

  9
$UCSNAME
  2

  9
$UCSORG
 10
0.0
 20
0.0
 30
0.0
  9
$UCSXDIR
 10
1.0
 20
0.0
 30
0.0
  9
$UCSYDIR
 10
0.0
 20
1.0
 30
0.0
  9
$UCSORTHOREF
  2

  9
$UCSORTHOVIEW
 70
     0
  9
$UCSORGTOP
 10
0.0
 20
0.0
 30
0.0
  9
$UCSORGBOTTOM
 10
0.0
 20
0.0
 30
0.0
  9
$UCSORGLEFT
 10
0.0
 20
0.0
 30
0.0
  9
$UCSORGRIGHT
 10
0.0
 20
0.0
 30
0.0
  9
$UCSORGFRONT
 10
0.0
 20
0.0
 30
0.0
  9
$UCSORGBACK
 10
0.0
 20
0.0
 30
0.0
  9
$PUCSBASE
  2

  9
$PUCSNAME
  2

  9
$PUCSORG
 10
0.0
 20
0.0
 30
0.0
  9
$PUCSXDIR
 10
1.0
 20
0.0
 30
0.0
  9
$PUCSYDIR
 10
0.0
 20
1.0
 30
0.0
  9
$PUCSORTHOREF
  2

  9
$PUCSORTHOVIEW
 70
     0
  9
$PUCSORGTOP
 10
0.0
 20
0.0
 30
0.0
  9
$PUCSORGBOTTOM
 10
0.0
 20
0.0
 30
0.0
  9
$PUCSORGLEFT
 10
0.0
 20
0.0
 30
0.0
  9
$PUCSORGRIGHT
 10
0.0
 20
0.0
 30
0.0
  9
$PUCSORGFRONT
 10
0.0
 20
0.0
 30
0.0
  9
$PUCSORGBACK
 10
0.0
 20
0.0
 30
0.0
  9
$USERI1
 70
     0
  9
$USERI2
 70
     0
  9
$USERI3
 70
     0
  9
$USERI4
 70
     0
  9
$USERI5
 70
     0
  9
$USERR1
 40
0.0
  9
$USERR2
 40
0.0
  9
$USERR3
 40
0.0
  9
$USERR4
 40
0.0
  9
$USERR5
 40
0.0
  9
$WORLDVIEW
 70
     1
  9
$SHADEDGE
 70
     3
  9
$SHADEDIF
 70
    70
  9
$TILEMODE
 70
     1
  9
$MAXACTVP
 70
    64
  9
$PINSBASE
 10
0.0
 20
0.0
 30
0.0
  9
$PLIMCHECK
 70
     0
  9
$PEXTMIN
 10
1.000000000000000E+20
 20
1.000000000000000E+20
 30
1.000000000000000E+20
  9
$PEXTMAX
 10
-1.000000000000000E+20
 20
-1.000000000000000E+20
 30
-1.000000000000000E+20
  9
$PLIMMIN
 10
0.0
 20
0.0
  9
$PLIMMAX
 10
12.0
 20
9.0
  9
$UNITMODE
 70
     0
  9
$VISRETAIN
 70
     1
  9
$PLINEGEN
 70
     0
  9
$PSLTSCALE
 70
     1
  9
$TREEDEPTH
 70
  3020
  9
$CMLSTYLE
  2
Standard
  9
$CMLJUST
 70
     0
  9
$CMLSCALE
 40
20.0
  9
$PROXYGRAPHICS
 70
     1
  9
$MEASUREMENT
 70
     1
  9
$CELWEIGHT
370
    -1
  9
$ENDCAPS
280
     0
  9
$JOINSTYLE
280
     0
  9
$LWDISPLAY
290
     0
  9
$INSUNITS
 70
     4
  9
$HYPERLINKBASE
  1

  9
$STYLESHEET
  1

  9
$XEDIT
290
     1
  9
$CEPSNTYPE
380
     0
  9
$PSTYLEMODE
290
     1
  9
$FINGERPRINTGUID
  2
{3F56D228-F619-4454-BEB0-98CB5F41683A}
  9
$VERSIONGUID
  2
{8DFD4318-4D75-429A-A65B-F0092791FEBF}
  9
$EXTNAMES
290
     1
  9
$PSVPSCALE
 40
0.0
  9
$OLESTARTUP
290
     0
  0
ENDSEC
  0
SECTION
  2
CLASSES
  0
CLASS
  1
ACDBDICTIONARYWDFLT
  2
AcDbDictionaryWithDefault
  3
ObjectDBX Classes
 90
        0
280
     0
281
     0
  0
CLASS
  1
MATERIAL
  2
AcDbMaterial
  3
ObjectDBX Classes
 90
     1153
280
     0
281
     0
  0
CLASS
  1
VISUALSTYLE
  2
AcDbVisualStyle
  3
ObjectDBX Classes
 90
     4095
280
     0
281
     0
  0
CLASS
  1
SCALE
  2
AcDbScale
  3
ObjectDBX Classes
 90
     1153
280
     0
281
     0
  0
CLASS
  1
TABLESTYLE
  2
AcDbTableStyle
  3
ObjectDBX Classes
 90
     4095
280
     0
281
     0
  0
CLASS
  1
MLEADERSTYLE
  2
AcDbMLeaderStyle
  3
ACDB_MLEADERSTYLE_CLASS
 90
     4095
280
     0
281
     0
  0
CLASS
  1
DIMASSOC
  2
AcDbDimAssoc
  3
"AcDbDimAssoc|Product Desc:     AcDim ARX App For Dimension|Company:          Autodesk, Inc.|WEB Address:      www.autodesk.com"
 90
        0
280
     0
281
     0
  0
CLASS
  1
SORTENTSTABLE
  2
AcDbSortentsTable
  3
ObjectDBX Classes
 90
        0
280
     0
281
     0
  0
CLASS
  1
DICTIONARYVAR
  2
AcDbDictionaryVar
  3
ObjectDBX Classes
 90
        0
280
     0
281
     0
  0
CLASS
  1
ACME_DOCUMENT
  2
AcMeDbDoc
  3
AcMeServices
 90
     1024
280
     0
281
     0
  0
CLASS
  1
AMGSETTINGSOBJ
  2
AmgSettingsObj
  3
"AcadM|Product Description: AutoCAD Mechanical|Company: Autodesk, Inc."
 90
     1024
280
     0
281
     0
  0
CLASS
  1
AMGOBJPROPCFG
  2
AmgObjPropCfg
  3
"AmgLay|Product Description: AutoCAD Mechanical|Company: Autodesk, Inc."
 90
     1025
280
     0
281
     0
  0
CLASS
  1
ACMESCOPE
  2
AcMeScope
  3
AcMeServices
 90
     1024
280
     0
281
     0
  0
CLASS
  1
ACGREFMASTER
  2
AcGrefMaster
  3
AcAttribServices
 90
     1024
280
     0
281
     0
  0
CLASS
  1
ACMECOMMANDHISTORY
  2
AcMeCommandHistory
  3
AcMeServices
 90
     1024
280
     0
281
     0
  0
CLASS
  1
ACIMSYSVARMAN
  2
AcImSysVarManager
  3
AcMeServices
 90
     1024
280
     0
281
     0
  0
CLASS
  1
ACIMINTSYSVAR
  2
AcImIntSysVar
  3
AcMeServices
 90
     1024
280
     0
281
     0
  0
CLASS
  1
ACMEDRAWINGMAN
  2
AcMeDrawingMan
  3
AcMeServices
 90
     1024
280
     0
281
     0
  0
CLASS
  1
ACMEVIEW
  2
AcMeView
  3
AcMeServices
 90
     1024
280
     0
281
     0
  0
CLASS
  1
ACDBENTITYCACHE
  2
AcMeEntityCache
  3
AcMeServices
 90
     1024
280
     0
281
     0
  0
CLASS
  1
ACMESTATEMGR
  2
AcMeStateMgr
  3
AcMeServices
 90
     1024
280
     0
281
     0
  0
CLASS
  1
AM_DRAWING_MGR
  2
AcDmDwgMgr
  3
AcMechDwgViewMgmt
 90
     1024
280
     0
281
     0
  0
CLASS
  1
AM_DWG_DOCUMENT
  2
AcDmDwgDocument
  3
AcMechDwgViewMgmt
 90
     1024
280
     0
281
     0
  0
CLASS
  1
AM_DWG_SHEET
  2
AcDmSheet
  3
AcMechDwgViewMgmt
 90
     1024
280
     0
281
     0
  0
CLASS
  1
AM_VIEWDIMPARMAP
  2
AcDmViewDimParMap
  3
AcMechDwgViewMgmt
 90
     1024
280
     0
281
     0
  0
CLASS
  1
AMDTINTERNALREACTOR
  2
AmdtInternalReactor
  3
AcMeServices
 90
     1024
280
     0
281
     0
  0
CLASS
  1
ACIMREALSYSVAR
  2
AcImRealSysVar
  3
AcMeServices
 90
     1024
280
     0
281
     0
  0
CLASS
  1
AM_DWGMGR_NAME
  2
AcDmDwgMgrName
  3
AcMechDwgViewMgmt
 90
     1024
280
     0
281
     0
  0
CLASS
  1
ACME_DATABASE
  2
AcMeDbDatabase
  3
AcMeServices
 90
     1024
280
     0
281
     0
  0
CLASS
  1
ACRFINSADJUSTERMGR
  2
AcRfInsAdjusterMgr
  3
AcMeServices
 90
     1024
280
     0
281
     0
  0
CLASS
  1
ACGREFACADMASTER
  2
AcGrefacadMaster
  3
AcGrefServices
 90
     1024
280
     0
281
     0
  0
CLASS
  1
AMDTMENUSTATEMGR
  2
AmdtMenuStateMgr
  3
McadcomServices
 90
     1024
280
     0
281
     0
  0
CLASS
  1
AMDTMCOMMENUSTATE
  2
AmdtMcomMenuState
  3
McadcomServices
 90
     1024
280
     0
281
     0
  0
CLASS
  1
AMIMASTER
  2
AmiMaster
  3
AmiServices
 90
     1024
280
     0
281
     0
  0
CLASS
  1
MAPIAMMOUDLE
  2
MApiAmModule
  3
MApiAmServices
 90
     1024
280
     0
281
     0
  0
CLASS
  1
AMDTWELDINGLIBRARY
  2
AmdtWeldingLibrary
  3
"AcmSymBB|Product Description: AutoCAD Mechanical|Company: Autodesk, Inc."
 90
     4095
280
     0
281
     0
  0
CLASS
  1
AMDTWELDINGLIBOBJECT
  2
AmdtWeldingLibObject
  3
"AcmSymBB|Product Description: AutoCAD Mechanical|Company: Autodesk, Inc."
 90
     4095
280
     0
281
     0
  0
CLASS
  1
AMDTEDGELIBRARY
  2
AmdtEdgeLibrary
  3
"AcmSymBB|Product Description: AutoCAD Mechanical|Company: Autodesk, Inc."
 90
     4095
280
     0
281
     0
  0
CLASS
  1
AMDTEDGELIBOBJECT
  2
AmdtEdgeLibObject
  3
"AcmSymBB|Product Description: AutoCAD Mechanical|Company: Autodesk, Inc."
 90
     4095
280
     0
281
     0
  0
CLASS
  1
AMDTFCFLIBRARY
  2
AmdtFCFLibrary
  3
"AcmSymBB|Product Description: AutoCAD Mechanical|Company: Autodesk, Inc."
 90
     4095
280
     0
281
     0
  0
CLASS
  1
AMDTFCFLIBOBJECT
  2
AmdtFCFLibObject
  3
"AcmSymBB|Product Description: AutoCAD Mechanical|Company: Autodesk, Inc."
 90
     4095
280
     0
281
     0
  0
CLASS
  1
ACMSTANDARDJIS
  2
AcmStandardJIS
  3
"Amdt_StdImp|Product Description: AutoCAD Mechanical|Company: Autodesk, Inc."
 90
     1024
280
     0
281
     0
  0
CLASS
  1
ACMSURFSTANDARDJIS2003
  2
AcmSurfTextStdJIS2003
  3
"Amdt_StdImp|Product Description: AutoCAD Mechanical|Company: Autodesk, Inc."
 90
     1024
280
     0
281
     0
  0
CLASS
  1
ACMFCFSTANDARDJIS98
  2
AcmFCFStdJIS98
  3
"Amdt_StdImp|Product Description: AutoCAD Mechanical|Company: Autodesk, Inc."
 90
     1024
280
     0
281
     0
  0
CLASS
  1
ACMWELDSTANDARDJIS
  2
AcmWeldingStdJIS
  3
"Amdt_StdImp|Product Description: AutoCAD Mechanical|Company: Autodesk, Inc."
 90
     1024
280
     0
281
     0
  0
CLASS
  1
ACMIDSTANDARDJIS
  2
AcmIdStdJIS
  3
"Amdt_StdImp|Product Description: AutoCAD Mechanical|Company: Autodesk, Inc."
 90
     1024
280
     0
281
     0
  0
CLASS
  1
ACMDATUMSTANDARDJIS
  2
AcmDatumStdJIS
  3
"Amdt_StdImp|Product Description: AutoCAD Mechanical|Company: Autodesk, Inc."
 90
     1024
280
     0
281
     0
  0
CLASS
  1
ACMBOMSTANDARDJIS
  2
AcmBOMStdJIS
  3
"Amdt_StdImp|Product Description: AutoCAD Mechanical|Company: Autodesk, Inc."
 90
     1024
280
     0
281
     0
  0
CLASS
  1
ACMDETAILSTANDARDJIS
  2
AmdtDetailSymStdJIS
  3
"Amdt_StdImp|Product Description: AutoCAD Mechanical|Company: Autodesk, Inc."
 90
     1024
280
     0
281
     0
  0
CLASS
  1
ACMSECTIONSTANDARDJIS
  2
AmdtSectionSymStdJIS
  3
"Amdt_StdImp|Product Description: AutoCAD Mechanical|Company: Autodesk, Inc."
 90
     1024
280
     0
281
     0
  0
CLASS
  1
ACMCENTERLINESTANDARDJIS
  2
AmdtCenterLineStdJIS
  3
"Amdt_StdImp|Product Description: AutoCAD Mechanical|Company: Autodesk, Inc."
 90
     1024
280
     0
281
     0
  0
CLASS
  1
ACMTHREADLINESTANDARDJIS
  2
AmdtThreadLineStdJIS
  3
"Amdt_StdImp|Product Description: AutoCAD Mechanical|Company: Autodesk, Inc."
 90
     1024
280
     0
281
     0
  0
CLASS
  1
ACAMGLAYSTD
  2
AcAmgLayStd
  3
"AmgLay|Product Description: AutoCAD Mechanical|Company: Autodesk, Inc."
 90
     1024
280
     0
281
     0
  0
CLASS
  1
ACAMGDIMSTD
  2
AcAmgDimStd
  3
"AmgDim|Product Description: AutoCAD Mechanical|Company: Autodesk, Inc."
 90
     1024
280
     0
281
     0
  0
CLASS
  1
ACAMGTITLESTD
  2
AcAmgTitleStd
  3
"AmgTitle|Product Description: AutoCAD Mechanical|Company: Autodesk, Inc."
 90
     4095
280
     0
281
     0
  0
CLASS
  1
ACMNOTESTANDARDJIS
  2
AmdtNoteStdJIS
  3
"Amdt_StdImp|Product Description: AutoCAD Mechanical|Company: Autodesk, Inc."
 90
     1024
280
     0
281
     0
  0
CLASS
  1
AMDTNOTETEMPLATEDB
  2
AmdtNoteTemplateDB
  3
AcmSymBB|Product Description: AutoCAD Mechanical|Company: Autodesk, Inc.
 90
     1024
280
     0
281
     0
  0
CLASS
  1
ACAMGHOLECHARTSTDJIS
  2
AcAmgHoleChartStdJIS
  3
AmgDim|Product Description: AutoCAD Mechanical|Company: Autodesk, Inc.
 90
     1024
280
     0
281
     0
  0
CLASS
  1
ACMTAPERSTANDARDJIS
  2
AcmTaperStdJIS
  3
"Amdt_StdImp|Product Description: AutoCAD Mechanical|Company: Autodesk, Inc."
 90
     1024
280
     0
281
     0
  0
CLASS
  1
ACMANOOTATIONVIEWSTANDARDJIS
  2
AmdtAnViewStdJIS
  3
"Amdt_StdImp|Product Description: AutoCAD Mechanical|Company: Autodesk, Inc."
 90
     1024
280
     0
281
     0
  0
CLASS
  1
AMDTEDGESTANDARDJIS
  2
AmdtEdgeStdJIS
  3
"Amdt_StdImp|Product Description: AutoCAD Mechanical|Company: Autodesk, Inc."
 90
     1024
280
     0
281
     0
  0
CLASS
  1
ACIMSTRSYSVAR
  2
AcImStrSysVar
  3
AcMeServices
 90
     1024
280
     0
281
     0
  0
CLASS
  1
AMDTADMENUSTATE
  2
AmdtAdMenuState
  3
DesignerServices
 90
     1024
280
     0
281
     0
  0
CLASS
  1
ADAPPL
  2
AcAdAppl
  3
DesignerServices
 90
     1024
280
     0
281
     0
  0
CLASS
  1
DEPMGR
  2
AcAdDepMgr
  3
DesignerServices
 90
     1024
280
     0
281
     0
  0
CLASS
  1
PARAMMGR
  2
AcAdParamMgr
  3
DesignerServices
 90
     1024
280
     0
281
     0
  0
CLASS
  1
PARAMSCOPE
  2
AcAdParamScope
  3
DesignerServices
 90
     1024
280
     0
281
     0
  0
CLASS
  1
NAMEDAPPL
  2
AcAdNamedAppl
  3
DesignerServices
 90
     1024
280
     0
281
     0
  0
CLASS
  1
AMDTDMMENUSTATE
  2
AmdtDmMenuState
  3
AcMechDwgViewMgmt
 90
     1024
280
     0
281
     0
  0
CLASS
  1
AMDTAMMENUSTATE
  2
AmdtAmMenuState
  3
DesignerAssemblies
 90
     1024
280
     0
281
     0
  0
CLASS
  1
ACAMPROJECT
  2
AcAmProject
  3
DesignerAssemblies
 90
     1024
280
     0
281
     0
  0
CLASS
  1
ACAMGRCOMPDEF
  2
AcAmGrCompDef
  3
DesignerAssemblies
 90
     1024
280
     0
281
     0
  0
CLASS
  1
ACAMCOMPDEF
  2
AcAmCompDef
  3
DesignerAssemblies
 90
     1024
280
     0
281
     0
  0
CLASS
  1
ACAMCOMPDEFMGR
  2
AcAmCompDefMgr
  3
DesignerAssemblies
 90
     1024
280
     0
281
     0
  0
CLASS
  1
AMCONTEXTMGR
  2
AcAmContextMgr
  3
DesignerAssemblies
 90
     1024
280
     0
281
     0
  0
CLASS
  1
ACAMCONTEXTMODELER
  2
AcAmContextModeler
  3
DesignerAssemblies
 90
     1024
280
     0
281
     0
  0
CLASS
  1
ACMDATADICTIONARY
  2
AcmDataDictionary
  3
"AcmSymBB|Product Description: AutoCAD Mechanical|Company: Autodesk, Inc."
 90
     1024
280
     0
281
     0
  0
CLASS
  1
CATALOGSTATE
  2
AcAmCatalogState
  3
DesignerAssemblies
 90
     1024
280
     0
281
     0
  0
CLASS
  1
ACAMGRCOMPDEFSET
  2
AcAmGrCompDefSet
  3
DesignerAssemblies
 90
     1024
280
     0
281
     0
  0
CLASS
  1
AMDTBROWSERDBTAB
  2
AmdtBrowserDbTab
  3
McadcomServices
 90
     1024
280
     0
281
     0
  0
CLASS
  1
CBROWSERAPPOBJECT
  2
CBrowserAppObject
  3
McadcomServices
 90
     1024
280
     0
281
     0
  0
CLASS
  1
DM_PLACEHOLDER
  2
AcDmSelsetPlaceholder
  3
AcMechDwgViewMgmt
 90
     1024
280
     0
281
     0
  0
CLASS
  1
EXACXREFPANELOBJECT
  2
ExAcXREFPanelObject
  3
EXAC_ESW
 90
     1025
280
     0
281
     0
  0
CLASS
  1
NPOCOLLECTION
  2
AcDbImpNonPersistentObjectsCollection
  3
ObjectDBX Classes
 90
     1153
280
     0
281
     0
  0
CLASS
  1
ACAMGFILTERDAT
  2
AcAmgFilterDat
  3
"AcadM|Product Description: AutoCAD Mechanical|Company: Autodesk, Inc."
 90
     1024
280
     0
281
     0
  0
CLASS
  1
CELLSTYLEMAP
  2
AcDbCellStyleMap
  3
ObjectDBX Classes
 90
     1152
280
     0
281
     0
  0
CLASS
  1
ACDBPLACEHOLDER
  2
AcDbPlaceHolder
  3
ObjectDBX Classes
 90
        0
280
     0
281
     0
  0
CLASS
  1
LAYOUT
  2
AcDbLayout
  3
ObjectDBX Classes
 90
        0
280
     0
281
     0
  0
ENDSEC
  0
SECTION
  2
TABLES
  0
TABLE
  2
VPORT
  5
8
330
0
100
AcDbSymbolTable
 70
     1
  0
VPORT
  5
52
330
8
100
AcDbSymbolTableRecord
100
AcDbViewportTableRecord
  2
*Active
 70
     0
 10
0.0
 20
0.0
 11
1.0
 21
1.0
 12
90.00728220658301
 22
101.2512882400654
 13
0.0
 23
0.0
 14
10.0
 24
10.0
 15
10.0
 25
10.0
 16
0.0
 26
0.0
 36
1.0
 17
0.0
 27
0.0
 37
0.0
 40
217.7391051101398
 41
0.8300733496332519
 42
50.0
 43
0.0
 44
0.0
 50
0.0
 51
0.0
 71
     0
 72
  1000
 73
     1
 74
     1
 75
     0
 76
     0
 77
     0
 78
     0
281
     0
 65
     1
110
0.0
120
0.0
130
0.0
111
1.0
121
0.0
131
0.0
112
0.0
122
1.0
132
0.0
 79
     0
146
0.0
  0
ENDTAB
  0
TABLE
  2
LTYPE
  5
5
330
0
100
AcDbSymbolTable
 70
    15
  0
LTYPE
  5
56
330
5
100
AcDbSymbolTableRecord
100
AcDbLinetypeTableRecord
  2
ByBlock
 70
     0
  3

 72
    65
 73
     0
 40
0.0
  0
LTYPE
  5
57
330
5
100
AcDbSymbolTableRecord
100
AcDbLinetypeTableRecord
  2
ByLayer
 70
     0
  3

 72
    65
 73
     0
 40
0.0
  0
LTYPE
  5
58
330
5
100
AcDbSymbolTableRecord
100
AcDbLinetypeTableRecord
  2
Continuous
 70
     0
  3
Solid line
 72
    65
 73
     0
 40
0.0
  0
LTYPE
  5
93
330
5
100
AcDbSymbolTableRecord
100
AcDbLinetypeTableRecord
  2
AM_ISO02W050
 70
     0
  3
__ __ __ __ __ __ __ __ __ __ __ __ __ __ __
 72
    65
 73
     2
 40
7.5
 49
6.0
 74
     0
 49
-1.5
 74
     0
  0
LTYPE
  5
94
330
5
100
AcDbSymbolTableRecord
100
AcDbLinetypeTableRecord
  2
AM_ISO08W050
 70
     0
  3
____ . ____ . ____ . ____ . ____ . ____ . ____
 72
    65
 73
     4
 40
18.0
 49
12.0
 74
     0
 49
-1.5
 74
     0
 49
3.0
 74
     0
 49
-1.5
 74
     0
  0
LTYPE
  5
95
330
5
100
AcDbSymbolTableRecord
100
AcDbLinetypeTableRecord
  2
AM_ISO09W050
 70
     0
  3
_____ . . _____ . . _____ . . ____ .. ____
 72
    65
 73
     6
 40
22.5
 49
12.0
 74
     0
 49
-1.5
 74
     0
 49
3.0
 74
     0
 49
-1.5
 74
     0
 49
3.0
 74
     0
 49
-1.5
 74
     0
  0
LTYPE
  5
96
330
5
100
AcDbSymbolTableRecord
100
AcDbLinetypeTableRecord
  2
Amconstr
 70
     0
  3
_______________________
 72
    65
 73
     2
 40
9999.0
 49
9999.0
 74
     0
 49
0.0
 74
     0
  0
LTYPE
  5
97
330
5
100
AcDbSymbolTableRecord
100
AcDbLinetypeTableRecord
  2
AM_ISO08W050x2
 70
     0
  3
__ . __ . __ . __ . __ . __
 72
    65
 73
     4
 40
9.0
 49
6.0
 74
     0
 49
-0.75
 74
     0
 49
1.5
 74
     0
 49
-0.75
 74
     0
  0
LTYPE
  5
98
330
5
100
AcDbSymbolTableRecord
100
AcDbLinetypeTableRecord
  2
AM_ISO02W050x2
 70
     0
  3
 _ _ _ _ _ _ _ _ _ _ _ _
 72
    65
 73
     2
 40
3.75
 49
3.0
 74
     0
 49
-0.75
 74
     0
  0
LTYPE
  5
99
330
5
100
AcDbSymbolTableRecord
100
AcDbLinetypeTableRecord
  2
Amzigzag
 70
     0
  3
/\/-/\/-/\/-/\/-/\/-/\/
 72
    65
 73
     2
 40
11.0001
 49
0.0001
 74
     4
 75
   136
340
8A
 46
0.04
 50
0.0
 44
0.0
 45
0.0
 49
-11.0
 74
     0
  0
LTYPE
  5
9A
330
5
100
AcDbSymbolTableRecord
100
AcDbLinetypeTableRecord
  2
ACJISTGB
 70
     0
  3
__ . . __ . .
 72
    65
 73
     6
 40
9.0
 49
4.0
 74
     0
 49
-1.0
 74
     0
 49
1.0
 74
     0
 49
-1.0
 74
     0
 49
1.0
 74
     0
 49
-1.0
 74
     0
  0
LTYPE
  5
9B
330
5
100
AcDbSymbolTableRecord
100
AcDbLinetypeTableRecord
  2
ACJISTGL
 70
     0
  3
_ _ _ _ _
 72
    65
 73
     2
 40
3.0
 49
2.0
 74
     0
 49
-1.0
 74
     0
  0
LTYPE
  5
9C
330
5
100
AcDbSymbolTableRecord
100
AcDbLinetypeTableRecord
  2
HIDDEN
 70
     0
  3
Hidden __ __ __ __ __ __ __ __ __ __ __ __ __ _
 72
    65
 73
     2
 40
9.524999999999998
 49
6.349999999999999
 74
     0
 49
-3.174999999999999
 74
     0
  0
LTYPE
  5
9D
330
5
100
AcDbSymbolTableRecord
100
AcDbLinetypeTableRecord
  2
ACJISWELD
 70
     0
  3
_ _ _ _ _
 72
    65
 73
     2
 40
2.0
 49
2.0
 74
     0
 49
-1.0
 74
     0
  0
LTYPE
  5
9E
330
5
100
AcDbSymbolTableRecord
100
AcDbLinetypeTableRecord
  2
DASH_DOT
 70
     0
  3
Dash dot __ . __ . __ . __ . __ . __ . __ . __
 72
    65
 73
     4
 40
0.37
 49
0.24
 74
     0
 49
-0.06
 74
     0
 49
0.01
 74
     0
 49
-0.06
 74
     0
  0
LTYPE
  5
9F
330
5
100
AcDbSymbolTableRecord
100
AcDbLinetypeTableRecord
  2
PHANTOM2
 70
     0
  3
Phantom (.5x) ___ _ _ ___ _ _ ___ _ _ ___ _ _
 72
    65
 73
     6
 40
31.75
 49
15.875
 74
     0
 49
-3.174999999999999
 74
     0
 49
3.174999999999999
 74
     0
 49
-3.174999999999999
 74
     0
 49
3.174999999999999
 74
     0
 49
-3.174999999999999
 74
     0
  0
LTYPE
  5
A0
330
5
100
AcDbSymbolTableRecord
100
AcDbLinetypeTableRecord
  2
CENTER
 70
     0
  3
Center ____ _ ____ _ ____ _ ____ _ ____ _ ____
 72
    65
 73
     4
 40
50.8
 49
31.75
 74
     0
 49
-6.349999999999999
 74
     0
 49
6.349999999999999
 74
     0
 49
-6.349999999999999
 74
     0
  0
ENDTAB
  0
TABLE
  2
LAYER
  5
2
330
0
100
AcDbSymbolTable
 70
     6
  0
LAYER
  5
4F
102
{ACAD_XDICTIONARY
360
521
102
}
330
2
100
AcDbSymbolTableRecord
100
AcDbLayerTableRecord
  2
0
 70
     0
 62
     7
  6
Continuous
370
    -3
390
F
1001
AcAecLayerStandard
1000

1000

  0
LAYER
  5
70
330
2
100
AcDbSymbolTableRecord
100
AcDbLayerTableRecord
  2
Defpoints
 70
     0
 62
     7
  6
Continuous
290
     0
370
    -3
390
F
1001
AcAecLayerStandard
1000

1000

  0
LAYER
  5
C8
102
{ACAD_XDICTIONARY
360
C9
102
}
330
2
100
AcDbSymbolTableRecord
100
AcDbLayerTableRecord
  2
AM_VIEWS
 70
     0
 62
     1
  6
Continuous
290
     0
370
    25
390
F
1001
AcAecLayerStandard
1000

1000

  0
LAYER
  5
D1
102
{ACAD_XDICTIONARY
360
D2
102
}
330
2
100
AcDbSymbolTableRecord
100
AcDbLayerTableRecord
  2
AM_5
 70
     0
 62
    92
  6
Continuous
370
    13
390
F
1001
AcAecLayerStandard
1000

1000

  0
LAYER
  5
134
102
{ACAD_XDICTIONARY
360
135
102
}
330
2
100
AcDbSymbolTableRecord
100
AcDbLayerTableRecord
  2
AM_7
 70
     0
 62
   142
  6
AM_ISO08W050x2
370
    13
390
F
1001
AcAecLayerStandard
1000

1000

  0
LAYER
  5
1E7
102
{ACAD_XDICTIONARY
360
523
102
}
330
2
100
AcDbSymbolTableRecord
100
AcDbLayerTableRecord
  2
Viewport2ForCustomObjects_0
 70
     0
 62
     7
  6
Continuous
370
    -3
390
F
  0
ENDTAB
  0
TABLE
  2
STYLE
  5
3
330
0
100
AcDbSymbolTable
 70
    12
  0
STYLE
  5
50
330
3
100
AcDbSymbolTableRecord
100
AcDbTextStyleTableRecord
  2
STANDARD
 70
     0
 40
0.0
 41
1.0
 50
0.0
 71
     0
 42
2.5
  3
TAHOMA.TTF
  4

1001
ACAD
1000
Tahoma
1071
       34
  0
STYLE
  5
55
330
3
100
AcDbSymbolTableRecord
100
AcDbTextStyleTableRecord
  2
Annotative
 70
     0
 40
0.0
 41
1.0
 50
0.0
 71
     0
 42
0.2
  3
txt
  4

1001
AcadAnnotative
1000
AnnotativeData
1002
{
1070
     1
1070
     1
1002
}
  0
STYLE
  5
89
330
3
100
AcDbSymbolTableRecord
100
AcDbTextStyleTableRecord
  2
ACJISGDT
 70
     0
 40
0.0
 41
1.0
 50
0.0
 71
     0
 42
2.5
  3
amgdt.shx
  4
extfont2.shx
  0
STYLE
  5
8A
330
3
100
AcDbSymbolTableRecord
100
AcDbTextStyleTableRecord
  2

 70
     1
 40
0.0
 41
1.0
 50
0.0
 71
     0
 42
2.5
  3
genltshp.shx
  4

  0
STYLE
  5
8B
330
3
100
AcDbSymbolTableRecord
100
AcDbTextStyleTableRecord
  2
Note Text (JIS)
 70
     0
 40
0.0
 41
1.0
 50
0.0
 71
     0
 42
0.2
  3
TAHOMA.TTF
  4

1001
ACAD
1000
Tahoma
1071
      256
  0
STYLE
  5
8C
330
3
100
AcDbSymbolTableRecord
100
AcDbTextStyleTableRecord
  2
CustomTextStyle0
 70
     0
 40
3.5
 41
1.0
 50
0.0
 71
     0
 42
2.5
  3
TAHOMA.TTF
  4

1001
ACAD
1000
Tahoma
1071
      290
  0
STYLE
  5
8D
330
3
100
AcDbSymbolTableRecord
100
AcDbTextStyleTableRecord
  2
CustomTextStyle1
 70
     0
 40
3.5
 41
1.0
 50
0.0
 71
     0
 42
2.5
  3
MS PGothic.ttf
  4

1001
ACAD
1000
MS PGothic
1071
      306
  0
STYLE
  5
8E
330
3
100
AcDbSymbolTableRecord
100
AcDbTextStyleTableRecord
  2
CustomTextStyle2
 70
     0
 40
3.5
 41
1.0
 50
0.0
 71
     0
 42
2.5
  3
MS PGothic.ttf
  4

1001
ACAD
1000
MS PGothic
1071
      306
  0
STYLE
  5
8F
330
3
100
AcDbSymbolTableRecord
100
AcDbTextStyleTableRecord
  2
CustomTextStyle3
 70
     0
 40
3.5
 41
1.0
 50
0.0
 71
     0
 42
2.5
  3
MS PGothic.ttf
  4

1001
ACAD
1000
MS PGothic
1071
      306
  0
STYLE
  5
90
330
3
100
AcDbSymbolTableRecord
100
AcDbTextStyleTableRecord
  2
CustomTextStyle4
 70
     0
 40
3.5
 41
1.0
 50
0.0
 71
     0
 42
2.5
  3
TAHOMA.TTF
  4

1001
ACAD
1000
Tahoma
1071
      290
  0
STYLE
  5
91
330
3
100
AcDbSymbolTableRecord
100
AcDbTextStyleTableRecord
  2
CustomTextStyle5
 70
     0
 40
3.5
 41
1.0
 50
0.0
 71
     0
 42
2.5
  3
MS PGothic.ttf
  4

1001
ACAD
1000
MS PGothic
1071
      306
  0
STYLE
  5
92
330
3
100
AcDbSymbolTableRecord
100
AcDbTextStyleTableRecord
  2
CustomTextStyle6
 70
     0
 40
3.5
 41
1.0
 50
0.0
 71
     0
 42
2.5
  3
TAHOMA.TTF
  4

1001
ACAD
1000
Tahoma
1071
      290
  0
ENDTAB
  0
TABLE
  2
VIEW
  5
6
330
0
100
AcDbSymbolTable
 70
     0
  0
ENDTAB
  0
TABLE
  2
UCS
  5
7
330
0
100
AcDbSymbolTable
 70
     0
  0
ENDTAB
  0
TABLE
  2
APPID
  5
9
330
0
100
AcDbSymbolTable
 70
    43
  0
APPID
  5
51
330
9
100
AcDbSymbolTableRecord
100
AcDbRegAppTableRecord
  2
ACAD
 70
     0
  0
APPID
  5
59
330
9
100
AcDbSymbolTableRecord
100
AcDbRegAppTableRecord
  2
AcadAnnotative
 70
     0
  0
APPID
  5
6F
330
9
100
AcDbSymbolTableRecord
100
AcDbRegAppTableRecord
  2
ACAD_PSEXT
 70
     0
  0
APPID
  5
71
330
9
100
AcDbSymbolTableRecord
100
AcDbRegAppTableRecord
  2
ACAD_DSTYLE_DIMJOGGED_JOGANGLE_SYMBOL
 70
     0
  0
APPID
  5
72
330
9
100
AcDbSymbolTableRecord
100
AcDbRegAppTableRecord
  2
ACAD_DSTYLE_DIMJAG
 70
     0
  0
APPID
  5
73
330
9
100
AcDbSymbolTableRecord
100
AcDbRegAppTableRecord
  2
ACAD_DSTYLE_DIMBREAK
 70
     0
  0
APPID
  5
74
330
9
100
AcDbSymbolTableRecord
100
AcDbRegAppTableRecord
  2
AcAecLayerStandard
 70
     0
  0
APPID
  5
75
330
9
100
AcDbSymbolTableRecord
100
AcDbRegAppTableRecord
  2
GENIUS_GENREC_14
 70
     0
  0
APPID
  5
76
330
9
100
AcDbSymbolTableRecord
100
AcDbRegAppTableRecord
  2
GENIUS_GENODEF_13
 70
     0
  0
APPID
  5
77
330
9
100
AcDbSymbolTableRecord
100
AcDbRegAppTableRecord
  2
GENIUS_GENOBJ-N-REC_13
 70
     0
  0
APPID
  5
78
330
9
100
AcDbSymbolTableRecord
100
AcDbRegAppTableRecord
  2
ACAD_DSTYLE_DIMTALN
 70
     0
  0
APPID
  5
79
330
9
100
AcDbSymbolTableRecord
100
AcDbRegAppTableRecord
  2
GENIUS_GENOENT_13
 70
     0
  0
APPID
  5
7A
330
9
100
AcDbSymbolTableRecord
100
AcDbRegAppTableRecord
  2
GENIUS_GENOBJ-N-FITL_13
 70
     0
  0
APPID
  5
7B
330
9
100
AcDbSymbolTableRecord
100
AcDbRegAppTableRecord
  2
GENIUS_GENOLIS_13
 70
     0
  0
APPID
  5
7C
330
9
100
AcDbSymbolTableRecord
100
AcDbRegAppTableRecord
  2
GENIUS_GENFITL_13
 70
     0
  0
APPID
  5
7D
330
9
100
AcDbSymbolTableRecord
100
AcDbRegAppTableRecord
  2
GENIUS_GENOREF_13
 70
     0
  0
APPID
  5
7E
330
9
100
AcDbSymbolTableRecord
100
AcDbRegAppTableRecord
  2
GENIUS_GENOBJ-N-RSSYM_13
 70
     0
  0
APPID
  5
7F
330
9
100
AcDbSymbolTableRecord
100
AcDbRegAppTableRecord
  2
GENIUS_GENSYMENT_13
 70
     0
  0
APPID
  5
80
330
9
100
AcDbSymbolTableRecord
100
AcDbRegAppTableRecord
  2
ACAD_DSTYLE_DIMINSPECT
 70
     0
  0
APPID
  5
81
330
9
100
AcDbSymbolTableRecord
100
AcDbRegAppTableRecord
  2
GENIUS_GENSCREG_15
 70
     0
  0
APPID
  5
82
330
9
100
AcDbSymbolTableRecord
100
AcDbRegAppTableRecord
  2
GENIUS_GENOBJ-N-SDF_13
 70
     0
  0
APPID
  5
83
330
9
100
AcDbSymbolTableRecord
100
AcDbRegAppTableRecord
  2
GENIUS_GENOBJ-N-CRS_13
 70
     0
  0
APPID
  5
84
330
9
100
AcDbSymbolTableRecord
100
AcDbRegAppTableRecord
  2
AcDbDynamicBlockGUID
 70
     0
  0
APPID
  5
85
330
9
100
AcDbSymbolTableRecord
100
AcDbRegAppTableRecord
  2
GENIUS_AMGTXT_16
 70
     0
  0
APPID
  5
86
330
9
100
AcDbSymbolTableRecord
100
AcDbRegAppTableRecord
  2
GENIUS_GENOBJ-N-CEN_13
 70
     0
  0
APPID
  5
87
330
9
100
AcDbSymbolTableRecord
100
AcDbRegAppTableRecord
  2
GENIUS_GENCEN_19
 70
     0
  0
APPID
  5
88
330
9
100
AcDbSymbolTableRecord
100
AcDbRegAppTableRecord
  2
ACATTRIBSERVICES
 70
     0
  0
APPID
  5
474
330
9
100
AcDbSymbolTableRecord
100
AcDbRegAppTableRecord
  2
MCAD_NO_VIS
 70
     0
  0
APPID
  5
475
330
9
100
AcDbSymbolTableRecord
100
AcDbRegAppTableRecord
  2
ACAD_TEMP_GRAPHIC
 70
     0
  0
APPID
  5
476
330
9
100
AcDbSymbolTableRecord
100
AcDbRegAppTableRecord
  2
AD_DRAW
 70
     0
  0
APPID
  5
477
330
9
100
AcDbSymbolTableRecord
100
AcDbRegAppTableRecord
  2
DESIGNERASSEMBLIES
 70
     0
  0
APPID
  5
478
330
9
100
AcDbSymbolTableRecord
100
AcDbRegAppTableRecord
  2
ACADM_DIM_EDIT
 70
     0
  0
APPID
  5
479
330
9
100
AcDbSymbolTableRecord
100
AcDbRegAppTableRecord
  2
AMDT_DM_ADJ
 70
     0
  0
APPID
  5
47A
330
9
100
AcDbSymbolTableRecord
100
AcDbRegAppTableRecord
  2
ACAD_DSTYLE_DIMARC_LENGTH_SYMBOL
 70
     0
  0
APPID
  5
47B
330
9
100
AcDbSymbolTableRecord
100
AcDbRegAppTableRecord
  2
ACAD_MLEADERVER
 70
     0
  0
APPID
  5
47C
330
9
100
AcDbSymbolTableRecord
100
AcDbRegAppTableRecord
  2
ACAD_EXEMPT_FROM_CAD_STANDARDS
 70
     0
  0
APPID
  5
47D
330
9
100
AcDbSymbolTableRecord
100
AcDbRegAppTableRecord
  2
AcadAnnoPO
 70
     0
  0
APPID
  5
47E
330
9
100
AcDbSymbolTableRecord
100
AcDbRegAppTableRecord
  2
GENIUS_GENTRA_14
 70
     0
  0
APPID
  5
47F
330
9
100
AcDbSymbolTableRecord
100
AcDbRegAppTableRecord
  2
GENIUS_GENSCSYM_13
 70
     0
  0
APPID
  5
480
330
9
100
AcDbSymbolTableRecord
100
AcDbRegAppTableRecord
  2
ACAD_DSTYLE_DIMRADIAL_EXTENSION
 70
     0
  0
APPID
  5
56A
330
9
100
AcDbSymbolTableRecord
100
AcDbRegAppTableRecord
  2
ACAD_DSTYLE_DIM_LINETYPE
 70
     0
  0
APPID
  5
56B
330
9
100
AcDbSymbolTableRecord
100
AcDbRegAppTableRecord
  2
ACAD_DSTYLE_DIM_EXT1_LINETYPE
 70
     0
  0
APPID
  5
56C
330
9
100
AcDbSymbolTableRecord
100
AcDbRegAppTableRecord
  2
ACAD_DSTYLE_DIM_EXT2_LINETYPE
 70
     0
  0
ENDTAB
  0
TABLE
  2
DIMSTYLE
  5
A
330
0
100
AcDbSymbolTable
 70
    12
100
AcDbDimStyleTable
 71
     1
340
A2
  0
DIMSTYLE
105
53
330
A
100
AcDbSymbolTableRecord
100
AcDbDimStyleTableRecord
  2
Standard
 70
     0
340
50
  0
DIMSTYLE
105
54
330
A
100
AcDbSymbolTableRecord
100
AcDbDimStyleTableRecord
  2
Annotative
 70
     0
340
50
1001
AcadAnnotative
1000
AnnotativeData
1002
{
1070
     1
1070
     1
1002
}
  0
DIMSTYLE
105
A1
330
A
100
AcDbSymbolTableRecord
100
AcDbDimStyleTableRecord
  2
ISO-25
 70
     0
 41
2.5
 42
0.625
 43
3.75
 44
1.25
 73
     0
 74
     0
 77
     1
 78
     8
140
2.5
141
2.5
143
0.03937007874016
147
0.625
171
     3
172
     1
271
     2
272
     2
274
     3
278
    44
283
     0
284
     8
340
50
  0
DIMSTYLE
105
A2
330
A
100
AcDbSymbolTableRecord
100
AcDbDimStyleTableRecord
  2
AM_JIS
 70
     0
  4
"
 41
2.5
 42
0.5
 43
8.0
 44
1.0
 47
0.1
 48
0.1000000001
 73
     0
 74
     0
 77
     3
 78
     8
 79
     2
140
3.5
141
0.0
143
0.0393701
146
0.55
147
0.8
172
     1
176
   256
177
   256
178
   140
271
     3
272
     3
283
     0
284
     8
340
50
341
A3
342
A3
371
    -1
372
    -1
1001
ACAD_DSTYLE_DIMJOGGED_JOGANGLE_SYMBOL
1070
   384
1040
0.7853981633974483
1001
ACAD_DSTYLE_DIMBREAK
1070
   391
1040
3.75
1001
ACAD_DSTYLE_DIMJAG
1070
   388
1040
1.5
1001
ACAD_DSTYLE_DIMTALN
1070
   392
1070
     0
1001
ACAD_DSTYLE_DIMARC_LENGTH_SYMBOL
1070
   379
1070
     1
1001
ACAD_DSTYLE_DIM_LINETYPE
1070
   380
1005
56
1001
ACAD_DSTYLE_DIM_EXT1_LINETYPE
1070
   381
1005
56
1001
ACAD_DSTYLE_DIM_EXT2_LINETYPE
1070
   382
1005
56
  0
DIMSTYLE
105
A9
330
A
100
AcDbSymbolTableRecord
100
AcDbDimStyleTableRecord
  2
AM_JIS$3
 70
     0
  4
"
 41
2.5
 42
0.5
 43
8.0
 44
1.0
 47
0.1
 48
0.1000000001
 73
     0
 77
     3
 78
     8
 79
     2
140
3.5
141
0.0
143
0.0393701
146
0.55
147
0.8
176
   256
177
   256
178
   140
271
     3
272
     3
283
     0
284
     8
288
     1
289
     0
340
50
341
A3
342
A3
371
    -1
372
    -1
1001
ACAD_DSTYLE_DIMJOGGED_JOGANGLE_SYMBOL
1070
   384
1040
0.7853981633974483
1001
ACAD_DSTYLE_DIMBREAK
1070
   391
1040
3.75
1001
ACAD_DSTYLE_DIMJAG
1070
   388
1040
1.5
1001
ACAD_DSTYLE_DIMTALN
1070
   392
1070
     0
1001
ACAD_DSTYLE_DIMARC_LENGTH_SYMBOL
1070
   379
1070
     1
1001
ACAD_DSTYLE_DIM_LINETYPE
1070
   380
1005
56
1001
ACAD_DSTYLE_DIM_EXT1_LINETYPE
1070
   381
1005
56
1001
ACAD_DSTYLE_DIM_EXT2_LINETYPE
1070
   382
1005
56
  0
DIMSTYLE
105
AA
330
A
100
AcDbSymbolTableRecord
100
AcDbDimStyleTableRecord
  2
AM_JIS$4
 70
     0
  4
"
 41
2.5
 42
0.5
 43
8.0
 44
1.0
 47
0.1
 48
0.1000000001
 73
     0
 74
     0
 77
     3
 78
     8
 79
     2
140
3.5
141
0.0
143
0.0393701
146
0.55
147
0.8
172
     1
176
   256
177
   256
178
   140
271
     3
272
     3
283
     0
284
     8
340
50
341
A3
342
A3
371
    -1
372
    -1
1001
ACAD_DSTYLE_DIMJOGGED_JOGANGLE_SYMBOL
1070
   384
1040
0.7853981633974483
1001
ACAD_DSTYLE_DIMBREAK
1070
   391
1040
3.75
1001
ACAD_DSTYLE_DIMJAG
1070
   388
1040
1.5
1001
ACAD_DSTYLE_DIMTALN
1070
   392
1070
     0
1001
ACAD_DSTYLE_DIMARC_LENGTH_SYMBOL
1070
   379
1070
     1
1001
ACAD_DSTYLE_DIM_LINETYPE
1070
   380
1005
56
1001
ACAD_DSTYLE_DIM_EXT1_LINETYPE
1070
   381
1005
56
1001
ACAD_DSTYLE_DIM_EXT2_LINETYPE
1070
   382
1005
56
  0
DIMSTYLE
105
AB
330
A
100
AcDbSymbolTableRecord
100
AcDbDimStyleTableRecord
  2
AM_JIS$6
 70
     0
  4
"
 41
2.5
 42
0.5
 43
8.0
 44
1.0
 47
0.1
 48
0.1000000001
 73
     0
 74
     0
 78
     8
 79
     2
140
3.5
141
0.0
143
0.0393701
146
0.55
147
0.8
172
     1
176
   256
177
   256
178
   140
271
     3
272
     3
283
     0
284
     8
340
50
341
A3
342
A3
371
    -1
372
    -1
1001
ACAD_DSTYLE_DIMJOGGED_JOGANGLE_SYMBOL
1070
   384
1040
0.7853981633974483
1001
ACAD_DSTYLE_DIMBREAK
1070
   391
1040
3.75
1001
ACAD_DSTYLE_DIMJAG
1070
   388
1040
1.5
1001
ACAD_DSTYLE_DIMTALN
1070
   392
1070
     0
1001
ACAD_DSTYLE_DIMARC_LENGTH_SYMBOL
1070
   379
1070
     1
1001
ACAD_DSTYLE_DIM_LINETYPE
1070
   380
1005
56
1001
ACAD_DSTYLE_DIM_EXT1_LINETYPE
1070
   381
1005
56
1001
ACAD_DSTYLE_DIM_EXT2_LINETYPE
1070
   382
1005
56
  0
DIMSTYLE
105
AC
330
A
100
AcDbSymbolTableRecord
100
AcDbDimStyleTableRecord
  2
AM_JIS$7
 70
     0
  4
"
 41
2.5
 42
0.5
 43
8.0
 44
1.0
 47
0.1
 48
0.1000000001
 73
     0
 74
     0
 77
     3
 78
     8
 79
     2
140
3.5
141
0.0
143
0.0393701
146
0.55
147
0.8
172
     1
176
   256
177
   256
178
   140
271
     3
272
     3
283
     0
284
     8
340
50
341
A3
342
A3
371
    -1
372
    -1
1001
ACAD_DSTYLE_DIMJOGGED_JOGANGLE_SYMBOL
1070
   384
1040
0.7853981633974483
1001
ACAD_DSTYLE_DIMBREAK
1070
   391
1040
3.75
1001
ACAD_DSTYLE_DIMJAG
1070
   388
1040
1.5
1001
ACAD_DSTYLE_DIMTALN
1070
   392
1070
     0
1001
ACAD_DSTYLE_DIMARC_LENGTH_SYMBOL
1070
   379
1070
     1
1001
ACAD_DSTYLE_DIM_LINETYPE
1070
   380
1005
56
1001
ACAD_DSTYLE_DIM_EXT1_LINETYPE
1070
   381
1005
56
1001
ACAD_DSTYLE_DIM_EXT2_LINETYPE
1070
   382
1005
56
  0
DIMSTYLE
105
AD
330
A
100
AcDbSymbolTableRecord
100
AcDbDimStyleTableRecord
  2
AM_JIS$SF
 70
     0
  4
"
 41
2.5
 42
0.5
 43
8.0
 44
1.0
 47
0.1
 48
0.1000000001
 73
     0
 74
     0
 75
     1
 76
     1
 77
     3
 78
     8
 79
     2
140
3.5
141
0.0
143
0.0393701
146
0.55
147
0.8
172
     1
176
   256
177
   256
178
   140
271
     3
272
     3
283
     0
284
     8
340
50
341
A3
342
A3
371
    -1
372
    -1
1001
ACAD_DSTYLE_DIMJOGGED_JOGANGLE_SYMBOL
1070
   384
1040
0.7853981633974483
1001
ACAD_DSTYLE_DIMBREAK
1070
   391
1040
3.75
1001
ACAD_DSTYLE_DIMJAG
1070
   388
1040
1.5
1001
ACAD_DSTYLE_DIMTALN
1070
   392
1070
     0
1001
ACAD_DSTYLE_DIMARC_LENGTH_SYMBOL
1070
   379
1070
     1
1001
ACAD_DSTYLE_DIM_LINETYPE
1070
   380
1005
56
1001
ACAD_DSTYLE_DIM_EXT1_LINETYPE
1070
   381
1005
56
1001
ACAD_DSTYLE_DIM_EXT2_LINETYPE
1070
   382
1005
56
  0
DIMSTYLE
105
AE
330
A
100
AcDbSymbolTableRecord
100
AcDbDimStyleTableRecord
  2
AM_JIS$SH
 70
     0
  4
"
 41
2.5
 42
0.5
 43
8.0
 44
1.0
 47
0.1
 48
0.1000000001
 73
     0
 74
     0
 75
     1
 76
     1
 77
     3
 78
     8
 79
     2
140
3.5
141
0.0
143
0.0393701
144
2.0
146
0.55
147
0.8
172
     1
173
     1
176
   256
177
   256
178
   140
271
     3
272
     3
283
     0
284
     8
340
50
341
A3
342
A3
343
AF
371
    -1
372
    -1
1001
ACAD_DSTYLE_DIMJOGGED_JOGANGLE_SYMBOL
1070
   384
1040
0.7853981633974483
1001
ACAD_DSTYLE_DIMBREAK
1070
   391
1040
3.75
1001
ACAD_DSTYLE_DIMJAG
1070
   388
1040
1.5
1001
ACAD_DSTYLE_DIMTALN
1070
   392
1070
     0
1001
ACAD_DSTYLE_DIMARC_LENGTH_SYMBOL
1070
   379
1070
     1
1001
ACAD_DSTYLE_DIM_LINETYPE
1070
   380
1005
56
1001
ACAD_DSTYLE_DIM_EXT1_LINETYPE
1070
   381
1005
56
1001
ACAD_DSTYLE_DIM_EXT2_LINETYPE
1070
   382
1005
56
  0
DIMSTYLE
105
B3
102
{ACAD_REACTORS
330
147
330
156
330
167
330
177
330
188
330
197
330
1A6
330
1B7
330
1C6
330
1D5
102
}
330
A
100
AcDbSymbolTableRecord
100
AcDbDimStyleTableRecord
  2
AM_JIS$0
 70
     0
  4
"
 41
2.5
 42
0.5
 43
8.0
 44
1.0
 47
0.1
 48
0.1000000001
 73
     0
 74
     0
 77
     3
 78
     8
 79
     2
140
3.5
141
0.0
143
0.0393701
146
0.55
147
0.8
172
     1
176
   256
177
   256
178
   140
271
     3
272
     3
283
     0
284
     8
340
50
341
A3
342
A3
371
    -1
372
    -1
1001
ACAD_DSTYLE_DIMBREAK
1070
   391
1040
3.75
1001
ACAD_DSTYLE_DIMJAG
1070
   388
1040
1.5
1001
ACAD_DSTYLE_DIMTALN
1070
   392
1070
     0
1001
ACAD_DSTYLE_DIMARC_LENGTH_SYMBOL
1070
   379
1070
     1
1001
ACAD_DSTYLE_DIM_LINETYPE
1070
   380
1005
56
1001
ACAD_DSTYLE_DIM_EXT1_LINETYPE
1070
   381
1005
56
1001
ACAD_DSTYLE_DIM_EXT2_LINETYPE
1070
   382
1005
56
  0
DIMSTYLE
105
B4
330
A
100
AcDbSymbolTableRecord
100
AcDbDimStyleTableRecord
  2
AM_JIS$2
 70
     0
  4
"
 41
2.5
 42
0.5
 43
8.0
 44
1.0
 47
0.1
 48
0.1000000001
 73
     0
 74
     0
 77
     3
 78
     8
 79
     2
140
3.5
141
0.0
143
0.0393701
146
0.55
147
0.8
172
     1
176
   256
177
   256
178
   140
271
     3
272
     3
283
     0
284
     8
340
50
341
A3
342
A3
371
    -1
372
    -1
1001
ACAD_DSTYLE_DIMJOGGED_JOGANGLE_SYMBOL
1070
   384
1040
0.7853981633974483
1001
ACAD_DSTYLE_DIMBREAK
1070
   391
1040
3.75
1001
ACAD_DSTYLE_DIMJAG
1070
   388
1040
1.5
1001
ACAD_DSTYLE_DIMTALN
1070
   392
1070
     0
1001
ACAD_DSTYLE_DIMARC_LENGTH_SYMBOL
1070
   379
1070
     1
1001
ACAD_DSTYLE_DIM_LINETYPE
1070
   380
1005
56
1001
ACAD_DSTYLE_DIM_EXT1_LINETYPE
1070
   381
1005
56
1001
ACAD_DSTYLE_DIM_EXT2_LINETYPE
1070
   382
1005
56
  0
ENDTAB
  0
TABLE
  2
BLOCK_RECORD
  5
1
330
0
100
AcDbSymbolTable
 70
    29
  0
BLOCK_RECORD
  5
67
102
{ACAD_XDICTIONARY
360
3F7
102
}
330
1
100
AcDbSymbolTableRecord
100
AcDbBlockTableRecord
  2
*Model_Space
340
6A
  0
BLOCK_RECORD
  5
63
330
1
100
AcDbSymbolTableRecord
100
AcDbBlockTableRecord
  2
*Paper_Space
340
66
  0
BLOCK_RECORD
  5
6B
330
1
100
AcDbSymbolTableRecord
100
AcDbBlockTableRecord
  2
*Paper_Space0
340
6E
  0
BLOCK_RECORD
  5
A3
330
1
100
AcDbSymbolTableRecord
100
AcDbBlockTableRecord
  2
_Open
340
0
102
{BLKREFS
331
457
331
456
331
44C
331
44B
331
443
331
442
331
43A
331
439
331
42F
331
42E
331
426
331
425
331
41D
331
41C
331
412
331
411
331
408
331
407
331
3FD
331
3FC
331
2C7
331
2C6
331
2B5
331
2B4
331
1E0
331
1DF
331
1CF
331
1CE
331
1C0
331
1BF
331
1B1
331
1B0
331
1A0
331
19F
331
191
331
190
331
182
331
181
331
171
331
170
331
161
331
160
331
150
331
14F
331
E9
331
E8
331
DA
331
D9
102
}
  0
BLOCK_RECORD
  5
AF
330
1
100
AcDbSymbolTableRecord
100
AcDbBlockTableRecord
  2
GENAXEH
340
0
  0
BLOCK_RECORD
  5
1E8
330
1
100
AcDbSymbolTableRecord
100
AcDbBlockTableRecord
  2
CustomObjectsInViewport2_0
340
0
102
{BLKREFS
331
1E6
102
}
  0
BLOCK_RECORD
  5
222
330
1
100
AcDbSymbolTableRecord
100
AcDbBlockTableRecord
  2
*D18
340
0
  0
BLOCK_RECORD
  5
22E
330
1
100
AcDbSymbolTableRecord
100
AcDbBlockTableRecord
  2
*D19
340
0
  0
BLOCK_RECORD
  5
23C
330
1
100
AcDbSymbolTableRecord
100
AcDbBlockTableRecord
  2
*D20
340
0
  0
BLOCK_RECORD
  5
249
330
1
100
AcDbSymbolTableRecord
100
AcDbBlockTableRecord
  2
*D21
340
0
  0
BLOCK_RECORD
  5
257
330
1
100
AcDbSymbolTableRecord
100
AcDbBlockTableRecord
  2
*D22
340
0
  0
BLOCK_RECORD
  5
263
330
1
100
AcDbSymbolTableRecord
100
AcDbBlockTableRecord
  2
*D23
340
0
  0
BLOCK_RECORD
  5
26F
330
1
100
AcDbSymbolTableRecord
100
AcDbBlockTableRecord
  2
*D24
340
0
  0
BLOCK_RECORD
  5
27D
330
1
100
AcDbSymbolTableRecord
100
AcDbBlockTableRecord
  2
*D25
340
0
  0
BLOCK_RECORD
  5
289
330
1
100
AcDbSymbolTableRecord
100
AcDbBlockTableRecord
  2
*D26
340
0
  0
BLOCK_RECORD
  5
295
330
1
100
AcDbSymbolTableRecord
100
AcDbBlockTableRecord
  2
*D27
340
0
  0
ENDTAB
  0
ENDSEC
  0
SECTION
  2
BLOCKS
  0
BLOCK
  5
68
330
67
100
AcDbEntity
  8
0
100
AcDbBlockBegin
  2
*Model_Space
 70
     0
 10
0.0
 20
0.0
 30
0.0
  3
*Model_Space
  1

  0
ENDBLK
  5
69
330
67
100
AcDbEntity
  8
0
100
AcDbBlockEnd
  0
BLOCK
  5
64
330
63
100
AcDbEntity
 67
     1
  8
0
100
AcDbBlockBegin
  2
*Paper_Space
 70
     0
 10
0.0
 20
0.0
 30
0.0
  3
*Paper_Space
  1

  0
ENDBLK
  5
65
330
63
100
AcDbEntity
 67
     1
  8
0
100
AcDbBlockEnd
  0
BLOCK
  5
6C
330
6B
100
AcDbEntity
 67
     1
  8
0
100
AcDbBlockBegin
  2
*Paper_Space0
 70
     0
 10
0.0
 20
0.0
 30
0.0
  3
*Paper_Space0
  1

  0
ENDBLK
  5
6D
330
6B
100
AcDbEntity
 67
     1
  8
0
100
AcDbBlockEnd
  0
BLOCK
  5
4E3
330
A3
100
AcDbEntity
  8
0
100
AcDbBlockBegin
  2
_Open
 70
     0
 10
0.0
 20
0.0
 30
0.0
  3
_Open
  1

  0
LINE
  5
4E4
330
A3
100
AcDbEntity
  8
0
  6
ByBlock
 62
     0
370
    -2
100
AcDbLine
 10
-1.0
 20
0.1666666666666666
 30
0.0
 11
0.0
 21
0.0
 31
0.0
  0
LINE
  5
4E5
330
A3
100
AcDbEntity
  8
0
  6
ByBlock
 62
     0
370
    -2
100
AcDbLine
 10
-1.0
 20
-0.1666666666666666
 30
0.0
 11
0.0
 21
0.0
 31
0.0
  0
LINE
  5
4E6
330
A3
100
AcDbEntity
  8
0
  6
ByBlock
 62
     0
370
    -2
100
AcDbLine
 10
0.0
 20
0.0
 30
0.0
 11
-1.0
 21
0.0
 31
0.0
  0
ENDBLK
  5
4E7
330
A3
100
AcDbEntity
  8
0
100
AcDbBlockEnd
  0
BLOCK
  5
4F0
330
AF
100
AcDbEntity
  8
0
100
AcDbBlockBegin
  2
GENAXEH
 70
     0
 10
0.0
 20
0.0
 30
0.0
  3
GENAXEH
  1

  0
LINE
  5
4F1
330
AF
100
AcDbEntity
  8
0
100
AcDbLine
 10
-1.0
 20
0.0
 30
0.0
 11
1.0
 21
0.0
 31
0.0
  0
ENDBLK
  5
4F2
330
AF
100
AcDbEntity
  8
0
100
AcDbBlockEnd
  0
BLOCK
  5
1E9
330
1E8
100
AcDbEntity
  8
0
100
AcDbBlockBegin
  2
CustomObjectsInViewport2_0
 70
     0
 10
0.0
 20
0.0
 30
0.0
  3
CustomObjectsInViewport2_0
  1

  0
LINE
  5
1EA
330
1E8
100
AcDbEntity
  8
AM_5
100
AcDbLine
 10
166.5490847260264
 20
58.94643226522669
 30
0.0
 11
150.0322510518094
 21
58.94643226522669
 31
0.0
  0
LINE
  5
1EB
330
1E8
100
AcDbEntity
  8
AM_5
100
AcDbLine
 10
150.0322510518094
 20
58.94643226522669
 30
0.0
 11
142.3742333168802
 21
38.25650689617532
 31
0.0
  0
LINE
  5
1EC
330
1E8
100
AcDbEntity
  8
AM_5
  6
Continuous
100
AcDbLine
 10
142.3742333168802
 20
38.25650689617532
 30
0.0
 11
141.5064374803183
 21
35.91195355149626
 31
0.0
  0
LINE
  5
1ED
330
1E8
100
AcDbEntity
  8
AM_5
  6
Continuous
100
AcDbLine
 10
141.9834744417308
 20
38.401139529817
 30
0.0
 11
141.5064374803183
 21
35.91195355149626
 31
0.0
  0
LINE
  5
1EE
330
1E8
100
AcDbEntity
  8
AM_5
  6
Continuous
100
AcDbLine
 10
141.5064374803183
 20
35.91195355149626
 30
0.0
 11
142.7649921920297
 21
38.11187426253363
 31
0.0
  0
TEXT
  5
1EF
330
1E8
100
AcDbEntity
  8
AM_5
 62
   140
100
AcDbText
 10
153.1632114279008
 20
61.13393226522668
 30
0.0
 40
3.5
  1
+
  7
CustomTextStyle0
100
AcDbText
  0
TEXT
  5
1F0
330
1E8
100
AcDbEntity
  8
AM_5
 62
   140
100
AcDbText
 10
156.6655619987537
 20
61.13393226522668
 30
0.0
 40
3.5
  1
端子
  7
CustomTextStyle1
100
AcDbText
  0
LINE
  5
1F1
330
1E8
100
AcDbEntity
  8
AM_5
100
AcDbLine
 10
146.7038768147728
 20
6.520656827294715
 30
0.0
 11
123.4567177238637
 21
6.520656827294715
 31
0.0
  0
LINE
  5
1F2
330
1E8
100
AcDbEntity
  8
AM_5
100
AcDbLine
 10
123.4567177238637
 20
6.520656827294715
 30
0.0
 11
113.3706453711522
 21
29.62082329042562
 31
0.0
  0
LINE
  5
1F3
330
1E8
100
AcDbEntity
  8
AM_5
  6
Continuous
100
AcDbLine
 10
113.3706453711522
 20
29.62082329042562
 30
0.0
 11
112.3702843729088
 21
31.91195355149626
 31
0.0
  0
LINE
  5
1F4
330
1E8
100
AcDbEntity
  8
AM_5
  6
Continuous
100
AcDbLine
 10
113.7525003993897
 20
29.78755011679711
 30
0.0
 11
112.3702843729088
 21
31.91195355149626
 31
0.0
  0
LINE
  5
1F5
330
1E8
100
AcDbEntity
  8
AM_5
  6
Continuous
100
AcDbLine
 10
112.3702843729088
 20
31.91195355149626
 30
0.0
 11
112.9887903429146
 21
29.45409646405414
 31
0.0
  0
TEXT
  5
1F6
330
1E8
100
AcDbEntity
  8
AM_5
 62
   140
100
AcDbText
 10
126.6385359056818
 20
8.708156827294715
 30
0.0
 40
3.5
  1
入力端子
  7
CustomTextStyle2
100
AcDbText
  0
LINE
  5
1F7
330
1E8
100
AcDbEntity
  8
AM_5
100
AcDbLine
 10
105.4214424776935
 20
56.73167920666037
 30
0.0
 11
82.17428338678439
 21
56.73167920666037
 31
0.0
  0
LINE
  5
1F8
330
1E8
100
AcDbEntity
  8
AM_5
100
AcDbLine
 10
82.17428338678439
 20
56.73167920666037
 30
0.0
 11
88.96106381048198
 21
49.10096103025619
 31
0.0
  0
LWPOLYLINE
  5
1F9
330
1E8
100
AcDbEntity
  8
AM_5
  6
Continuous
100
AcDbPolyline
 90
        2
 70
   129
 43
0.4464285714285758
 10
90.39929510402968
 20
47.23291429980463
 42
1.0
 10
90.84572367545828
 20
47.23291429980463
 42
1.0
  0
LINE
  5
1FA
330
1E8
100
AcDbEntity
  8
AM_5
  6
Continuous
100
AcDbLine
 10
90.32582267916147
 20
47.56649407309955
 30
0.0
 11
88.96106381048198
 21
49.10096103025619
 31
0.0
  0
TEXT
  5
1FB
330
1E8
100
AcDbEntity
  8
AM_5
 62
   140
100
AcDbText
 10
85.33621520496621
 20
58.99872466120583
 30
0.0
 40
3.5
  1
定格銘板
  7
CustomTextStyle3
100
AcDbText
  0
LINE
  5
1FC
330
1E8
100
AcDbEntity
  8
AM_5
100
AcDbLine
 10
30.66783799813637
 20
67.24703199928081
 30
0.0
 11
5.85940570678769
 21
67.24703199928081
 31
0.0
  0
LINE
  5
1FD
330
1E8
100
AcDbEntity
  8
AM_5
100
AcDbLine
 10
5.85940570678769
 20
67.24703199928081
 30
0.0
 11
15.02988023926395
 21
37.42121817525126
 31
0.0
  0
LINE
  5
1FE
330
1E8
100
AcDbEntity
  8
AM_5
  6
Continuous
100
AcDbLine
 10
15.02988023926395
 20
37.42121817525126
 30
0.0
 11
15.76460455429991
 21
35.03161984480011
 31
0.0
  0
LINE
  5
1FF
330
1E8
100
AcDbEntity
  8
AM_5
  6
Continuous
100
AcDbLine
 10
14.63161386678608
 20
37.29876412764343
 30
0.0
 11
15.76460455429991
 21
35.03161984480011
 31
0.0
  0
LINE
  5
200
330
1E8
100
AcDbEntity
  8
AM_5
  6
Continuous
100
AcDbLine
 10
15.76460455429991
 20
35.03161984480011
 30
0.0
 11
15.42814661174182
 21
37.54367222285909
 31
0.0
  0
TEXT
  5
201
330
1E8
100
AcDbEntity
  8
AM_5
 62
   140
100
AcDbText
 10
9.103193483819255
 20
67.96160553856892
 30
0.0
 40
3.5
  1
2-M3
  7
CustomTextStyle4
100
AcDbText
  0
TEXT
  5
202
330
1E8
100
AcDbEntity
  8
AM_5
 62
   140
100
AcDbText
 10
9.080996615878598
 20
61.49190856887194
 30
0.0
 40
3.5
  1
有効深さ
  7
CustomTextStyle5
100
AcDbText
  0
TEXT
  5
203
330
1E8
100
AcDbEntity
  8
AM_5
 62
   140
100
AcDbText
 10
28.25145116133315
 20
61.49190856887194
 30
0.0
 40
3.5
  1
2
  7
CustomTextStyle6
100
AcDbText
  0
LINE
  5
204
330
1E8
100
AcDbEntity
  8
AM_5
100
AcDbLine
 10
9.35940570678769
 20
67.24703199928081
 30
0.0
 11
30.66783799813637
 21
67.24703199928081
 31
0.0
  0
ENDBLK
  5
205
330
1E8
100
AcDbEntity
  8
0
100
AcDbBlockEnd
  0
BLOCK
  5
223
330
222
100
AcDbEntity
  8
0
100
AcDbBlockBegin
  2
*D18
 70
     1
 10
0.0
 20
0.0
 30
0.0
  3
*D18
  1

  0
LINE
  5
3F9
330
222
100
AcDbEntity
  8
AM_5
  6
ByBlock
100
AcDbLine
 10
16.27255892394271
 20
28.91195355149625
 30
0.0
 11
16.27255892394271
 21
3.916968243367591
 31
0.0
  0
LINE
  5
3FA
330
222
100
AcDbEntity
  8
AM_5
  6
ByBlock
100
AcDbLine
 10
37.27255892394271
 20
28.91195355149626
 30
0.0
 11
37.27255892394271
 21
3.916968243367591
 31
0.0
  0
LINE
  5
3FB
330
222
100
AcDbEntity
  8
AM_5
  6
ByBlock
100
AcDbLine
 10
18.77255892394271
 20
4.916968243367591
 30
0.0
 11
34.77255892394271
 21
4.916968243367591
 31
0.0
  0
INSERT
  5
3FC
330
222
100
AcDbEntity
  8
AM_5
100
AcDbBlockReference
  2
_Open
 10
16.27255892394271
 20
4.916968243367591
 30
0.0
 41
2.5
 42
2.5
 43
2.5
 50
180.0
  0
INSERT
  5
3FD
330
222
100
AcDbEntity
  8
AM_5
100
AcDbBlockReference
  2
_Open
 10
37.27255892394271
 20
4.916968243367591
 30
0.0
 41
2.5
 42
2.5
 43
2.5
  0
MTEXT
  5
3FE
330
222
100
AcDbEntity
  8
AM_5
 62
   140
100
AcDbMText
 10
26.77255892394271
 20
7.503402091587873
 30
0.0
 40
3.5
 41
0.0
 71
     5
 72
     1
  1
21
 73
     1
 44
1.0
1001
ACAD
1000
MTEXTBEGIN
1070
    73
1070
     1
1070
    44
1040
1.0
1070
    74
1070
     0
1000
MTEXTEND
  0
POINT
  5
3FF
330
222
100
AcDbEntity
  8
Defpoints
 62
     0
100
AcDbPoint
 10
16.27255892394271
 20
29.41195355149626
 30
0.0
  0
POINT
  5
400
330
222
100
AcDbEntity
  8
Defpoints
 62
     0
100
AcDbPoint
 10
37.27255892394271
 20
29.41195355149626
 30
0.0
  0
POINT
  5
401
330
222
100
AcDbEntity
  8
Defpoints
 62
     0
100
AcDbPoint
 10
37.27255892394271
 20
4.916968243367591
 30
0.0
  0
ENDBLK
  5
224
330
222
100
AcDbEntity
  8
0
100
AcDbBlockEnd
  0
BLOCK
  5
22F
330
22E
100
AcDbEntity
  8
0
100
AcDbBlockBegin
  2
*D19
 70
     1
 10
0.0
 20
0.0
 30
0.0
  3
*D19
  1

  0
LINE
  5
402
330
22E
100
AcDbEntity
  8
AM_5
  6
ByBlock
100
AcDbLine
 10
67.17013319455154
 20
32.66195355149594
 30
0.0
 11
58.46972309136481
 21
32.66195355149594
 31
0.0
  0
LINE
  5
403
330
22E
100
AcDbEntity
  8
AM_5
  6
ByBlock
100
AcDbLine
 10
67.17013319455154
 20
35.16195355149625
 30
0.0
 11
58.46972309136481
 21
35.16195355149625
 31
0.0
  0
LINE
  5
404
330
22E
100
AcDbEntity
  8
AM_5
  6
ByBlock
100
AcDbLine
 10
59.46972309136481
 20
30.16195355149594
 30
0.0
 11
59.46972309136481
 21
27.66195355149594
 31
0.0
  0
LINE
  5
405
330
22E
100
AcDbEntity
  8
AM_5
  6
ByBlock
100
AcDbLine
 10
59.46972309136481
 20
37.66195355149625
 30
0.0
 11
59.46972309136482
 21
51.02367282617724
 31
0.0
  0
LINE
  5
406
330
22E
100
AcDbEntity
  8
AM_5
  6
ByBlock
100
AcDbLine
 10
59.46972309136481
 20
32.66195355149594
 30
0.0
 11
59.46972309136481
 21
35.16195355149625
 31
0.0
  0
INSERT
  5
407
330
22E
100
AcDbEntity
  8
AM_5
100
AcDbBlockReference
  2
_Open
 10
59.46972309136481
 20
32.66195355149594
 30
0.0
 41
2.5
 42
2.5
 43
2.5
 50
90.0
  0
INSERT
  5
408
330
22E
100
AcDbEntity
  8
AM_5
100
AcDbBlockReference
  2
_Open
 10
59.46972309136481
 20
35.16195355149625
 30
0.0
 41
2.5
 42
2.5
 43
2.5
 50
270.0
  0
MTEXT
  5
409
330
22E
100
AcDbEntity
  8
AM_5
 62
   140
100
AcDbMText
 10
56.84685539492424
 20
45.59281318883676
 30
0.0
 40
3.5
 41
0.0
 71
     5
 72
     1
  1
%%c2.5
 11
0.0000000000000001
 21
1.0
 31
0.0
 73
     1
 44
1.0
1001
ACAD
1000
MTEXTBEGIN
1070
    73
1070
     1
1070
    44
1040
1.0
1070
    74
1070
     0
1000
MTEXTEND
  0
POINT
  5
40A
330
22E
100
AcDbEntity
  8
Defpoints
 62
     0
100
AcDbPoint
 10
67.67013319455154
 20
32.66195355149594
 30
0.0
  0
POINT
  5
40B
330
22E
100
AcDbEntity
  8
Defpoints
 62
     0
100
AcDbPoint
 10
67.67013319455154
 20
35.16195355149625
 30
0.0
  0
POINT
  5
40C
330
22E
100
AcDbEntity
  8
Defpoints
 62
     0
100
AcDbPoint
 10
59.46972309136481
 20
35.16195355149625
 30
0.0
  0
ENDBLK
  5
230
330
22E
100
AcDbEntity
  8
0
100
AcDbBlockEnd
  0
BLOCK
  5
23D
330
23C
100
AcDbEntity
  8
0
100
AcDbBlockBegin
  2
*D20
 70
     1
 10
0.0
 20
0.0
 30
0.0
  3
*D20
  1

  0
LINE
  5
40D
330
23C
100
AcDbEntity
  8
AM_5
  6
ByBlock
100
AcDbLine
 10
72.76972410136483
 20
29.26195355149571
 30
0.0
 11
50.46972309136481
 21
29.26195355149572
 31
0.0
  0
LINE
  5
40E
330
23C
100
AcDbEntity
  8
AM_5
  6
ByBlock
100
AcDbLine
 10
72.76972410136483
 20
38.56195355149589
 30
0.0
 11
50.46972309136481
 21
38.56195355149589
 31
0.0
  0
LINE
  5
40F
330
23C
100
AcDbEntity
  8
AM_5
  6
ByBlock
100
AcDbLine
 10
51.46972309136482
 20
31.76195355149572
 30
0.0
 11
51.46972309136482
 21
36.06195355149589
 31
0.0
  0
LINE
  5
410
330
23C
100
AcDbEntity
  8
AM_5
  6
ByBlock
100
AcDbLine
 10
51.46972309136482
 20
38.56195355149589
 30
0.0
 11
51.46972309136483
 21
51.9025176885006
 31
0.0
  0
INSERT
  5
411
330
23C
100
AcDbEntity
  8
AM_5
100
AcDbBlockReference
  2
_Open
 10
51.46972309136482
 20
29.26195355149572
 30
0.0
 41
2.5
 42
2.5
 43
2.5
 50
270.0
  0
INSERT
  5
412
330
23C
100
AcDbEntity
  8
AM_5
100
AcDbBlockReference
  2
_Open
 10
51.46972309136482
 20
38.56195355149589
 30
0.0
 41
2.5
 42
2.5
 43
2.5
 50
90.0
  0
MTEXT
  5
413
330
23C
100
AcDbEntity
  8
AM_5
 62
   140
100
AcDbMText
 10
48.84685539492425
 20
46.48223561999826
 30
0.0
 40
3.5
 41
0.0
 71
     5
 72
     1
  1
%%c9.3
 11
0.0000000000000001
 21
1.0
 31
0.0
 73
     1
 44
1.0
1001
ACAD
1000
MTEXTBEGIN
1070
    73
1070
     1
1070
    44
1040
1.0
1070
    74
1070
     0
1000
MTEXTEND
  0
POINT
  5
414
330
23C
100
AcDbEntity
  8
Defpoints
 62
     0
100
AcDbPoint
 10
73.26972410136483
 20
29.26195355149571
 30
0.0
  0
POINT
  5
415
330
23C
100
AcDbEntity
  8
Defpoints
 62
     0
100
AcDbPoint
 10
73.26972410136483
 20
38.56195355149589
 30
0.0
  0
POINT
  5
416
330
23C
100
AcDbEntity
  8
Defpoints
 62
     0
100
AcDbPoint
 10
51.46972309136482
 20
38.56195355149589
 30
0.0
  0
ENDBLK
  5
23E
330
23C
100
AcDbEntity
  8
0
100
AcDbBlockEnd
  0
BLOCK
  5
24A
330
249
100
AcDbEntity
  8
0
100
AcDbBlockBegin
  2
*D21
 70
     1
 10
0.0
 20
0.0
 30
0.0
  3
*D21
  1

  0
LINE
  5
417
330
249
100
AcDbEntity
  8
AM_5
  6
ByBlock
100
AcDbLine
 10
76.26972410136483
 20
50.41195355149625
 30
0.0
 11
76.26972410136483
 21
58.91195355149625
 31
0.0
  0
LINE
  5
418
330
249
100
AcDbEntity
  8
AM_5
  6
ByBlock
100
AcDbLine
 10
73.26972410136483
 20
39.06195355149589
 30
0.0
 11
73.26972410136483
 21
58.91195355149625
 31
0.0
  0
LINE
  5
419
330
249
100
AcDbEntity
  8
AM_5
  6
ByBlock
100
AcDbLine
 10
78.76972410136483
 20
57.91195355149625
 30
0.0
 11
81.26972410136483
 21
57.91195355149625
 31
0.0
  0
LINE
  5
41A
330
249
100
AcDbEntity
  8
AM_5
  6
ByBlock
100
AcDbLine
 10
70.76972410136483
 20
57.91195355149625
 30
0.0
 11
68.26972410136483
 21
57.91195355149625
 31
0.0
  0
LINE
  5
41B
330
249
100
AcDbEntity
  8
AM_5
  6
ByBlock
100
AcDbLine
 10
76.26972410136483
 20
57.91195355149625
 30
0.0
 11
73.26972410136483
 21
57.91195355149625
 31
0.0
  0
INSERT
  5
41C
330
249
100
AcDbEntity
  8
AM_5
100
AcDbBlockReference
  2
_Open
 10
76.26972410136483
 20
57.91195355149625
 30
0.0
 41
2.5
 42
2.5
 43
2.5
 50
180.0
  0
INSERT
  5
41D
330
249
100
AcDbEntity
  8
AM_5
100
AcDbBlockReference
  2
_Open
 10
73.26972410136483
 20
57.91195355149625
 30
0.0
 41
2.5
 42
2.5
 43
2.5
  0
MTEXT
  5
41E
330
249
100
AcDbEntity
  8
AM_5
 62
   140
100
AcDbMText
 10
74.76972410136482
 20
60.53482124793681
 30
0.0
 40
3.5
 41
0.0
 71
     5
 72
     1
  1
3
 73
     1
 44
1.0
1001
ACAD
1000
MTEXTBEGIN
1070
    73
1070
     1
1070
    44
1040
1.0
1070
    74
1070
     0
1000
MTEXTEND
  0
POINT
  5
41F
330
249
100
AcDbEntity
  8
Defpoints
 62
     0
100
AcDbPoint
 10
76.26972410136483
 20
49.91195355149625
 30
0.0
  0
POINT
  5
420
330
249
100
AcDbEntity
  8
Defpoints
 62
     0
100
AcDbPoint
 10
73.26972410136483
 20
38.56195355149589
 30
0.0
  0
POINT
  5
421
330
249
100
AcDbEntity
  8
Defpoints
 62
     0
100
AcDbPoint
 10
73.26972410136483
 20
57.91195355149625
 30
0.0
  0
ENDBLK
  5
24B
330
249
100
AcDbEntity
  8
0
100
AcDbBlockEnd
  0
BLOCK
  5
258
330
257
100
AcDbEntity
  8
0
100
AcDbBlockBegin
  2
*D22
 70
     1
 10
0.0
 20
0.0
 30
0.0
  3
*D22
  1

  0
LINE
  5
422
330
257
100
AcDbEntity
  8
AM_5
  6
ByBlock
100
AcDbLine
 10
76.26972410136483
 20
50.41195355149625
 30
0.0
 11
76.26972410136483
 21
66.91195355149623
 31
0.0
  0
LINE
  5
423
330
257
100
AcDbEntity
  8
AM_5
  6
ByBlock
100
AcDbLine
 10
67.46972410146773
 20
34.41191343566381
 30
0.0
 11
67.46972410146773
 21
66.91195355149623
 31
0.0
  0
LINE
  5
424
330
257
100
AcDbEntity
  8
AM_5
  6
ByBlock
100
AcDbLine
 10
73.76972410136483
 20
65.91195355149622
 30
0.0
 11
69.96972410146773
 21
65.91195355149622
 31
0.0
  0
INSERT
  5
425
330
257
100
AcDbEntity
  8
AM_5
100
AcDbBlockReference
  2
_Open
 10
76.26972410136483
 20
65.91195355149622
 30
0.0
 41
2.5
 42
2.5
 43
2.5
  0
INSERT
  5
426
330
257
100
AcDbEntity
  8
AM_5
100
AcDbBlockReference
  2
_Open
 10
67.46972410146773
 20
65.91195355149622
 30
0.0
 41
2.5
 42
2.5
 43
2.5
 50
180.0
  0
MTEXT
  5
427
330
257
100
AcDbEntity
  8
AM_5
 62
   140
100
AcDbMText
 10
71.86972410141628
 20
68.54187296049556
 30
0.0
 40
3.5
 41
0.0
 71
     5
 72
     1
  1
8.8
 73
     1
 44
1.0
1001
ACAD
1000
MTEXTBEGIN
1070
    73
1070
     1
1070
    44
1040
1.0
1070
    74
1070
     0
1000
MTEXTEND
  0
POINT
  5
428
330
257
100
AcDbEntity
  8
Defpoints
 62
     0
100
AcDbPoint
 10
76.26972410136483
 20
49.91195355149625
 30
0.0
  0
POINT
  5
429
330
257
100
AcDbEntity
  8
Defpoints
 62
     0
100
AcDbPoint
 10
67.46972410146773
 20
33.91191343566382
 30
0.0
  0
POINT
  5
42A
330
257
100
AcDbEntity
  8
Defpoints
 62
     0
100
AcDbPoint
 10
67.46972410146773
 20
65.91195355149622
 30
0.0
  0
ENDBLK
  5
259
330
257
100
AcDbEntity
  8
0
100
AcDbBlockEnd
  0
BLOCK
  5
264
330
263
100
AcDbEntity
  8
0
100
AcDbBlockBegin
  2
*D23
 70
     1
 10
0.0
 20
0.0
 30
0.0
  3
*D23
  1

  0
LINE
  5
42B
330
263
100
AcDbEntity
  8
AM_5
  6
ByBlock
100
AcDbLine
 10
76.26972410136483
 20
50.41195355149625
 30
0.0
 11
76.26972410136483
 21
66.9119535514962
 31
0.0
  0
LINE
  5
42C
330
263
100
AcDbEntity
  8
AM_5
  6
ByBlock
100
AcDbLine
 10
108.2697241013648
 20
52.21195355149643
 30
0.0
 11
108.2697241013648
 21
66.9119535514962
 31
0.0
  0
LINE
  5
42D
330
263
100
AcDbEntity
  8
AM_5
  6
ByBlock
100
AcDbLine
 10
78.76972410136483
 20
65.91195355149619
 30
0.0
 11
105.7697241013648
 21
65.91195355149619
 31
0.0
  0
INSERT
  5
42E
330
263
100
AcDbEntity
  8
AM_5
100
AcDbBlockReference
  2
_Open
 10
76.26972410136483
 20
65.91195355149619
 30
0.0
 41
2.5
 42
2.5
 43
2.5
 50
180.0
  0
INSERT
  5
42F
330
263
100
AcDbEntity
  8
AM_5
100
AcDbBlockReference
  2
_Open
 10
108.2697241013648
 20
65.91195355149619
 30
0.0
 41
2.5
 42
2.5
 43
2.5
  0
MTEXT
  5
430
330
263
100
AcDbEntity
  8
AM_5
 62
   140
100
AcDbMText
 10
92.26972410136482
 20
68.53482124793676
 30
0.0
 40
3.5
 41
0.0
 71
     5
 72
     1
  1
32
 73
     1
 44
1.0
1001
ACAD
1000
MTEXTBEGIN
1070
    73
1070
     1
1070
    44
1040
1.0
1070
    74
1070
     0
1000
MTEXTEND
  0
POINT
  5
431
330
263
100
AcDbEntity
  8
Defpoints
 62
     0
100
AcDbPoint
 10
76.26972410136483
 20
49.91195355149625
 30
0.0
  0
POINT
  5
432
330
263
100
AcDbEntity
  8
Defpoints
 62
     0
100
AcDbPoint
 10
108.2697241013648
 20
51.71195355149643
 30
0.0
  0
POINT
  5
433
330
263
100
AcDbEntity
  8
Defpoints
 62
     0
100
AcDbPoint
 10
108.2697241013648
 20
65.91195355149619
 30
0.0
  0
ENDBLK
  5
265
330
263
100
AcDbEntity
  8
0
100
AcDbBlockEnd
  0
BLOCK
  5
270
330
26F
100
AcDbEntity
  8
0
100
AcDbBlockBegin
  2
*D24
 70
     1
 10
0.0
 20
0.0
 30
0.0
  3
*D24
  1

  0
LINE
  5
434
330
26F
100
AcDbEntity
  8
AM_5
  6
ByBlock
100
AcDbLine
 10
108.2697241013648
 20
52.21195355149643
 30
0.0
 11
108.2697241013648
 21
66.91195355149615
 31
0.0
  0
LINE
  5
435
330
26F
100
AcDbEntity
  8
AM_5
  6
ByBlock
100
AcDbLine
 10
111.4697241013648
 20
40.21195355149643
 30
0.0
 11
111.4697241013648
 21
66.91195355149615
 31
0.0
  0
LINE
  5
436
330
26F
100
AcDbEntity
  8
AM_5
  6
ByBlock
100
AcDbLine
 10
105.7697241013648
 20
65.91195355149615
 30
0.0
 11
103.2697241013648
 21
65.91195355149615
 31
0.0
  0
LINE
  5
437
330
26F
100
AcDbEntity
  8
AM_5
  6
ByBlock
100
AcDbLine
 10
113.9697241013648
 20
65.91195355149615
 30
0.0
 11
124.3433977078121
 21
65.91195355149615
 31
0.0
  0
LINE
  5
438
330
26F
100
AcDbEntity
  8
AM_5
  6
ByBlock
100
AcDbLine
 10
108.2697241013648
 20
65.91195355149615
 30
0.0
 11
111.4697241013648
 21
65.91195355149615
 31
0.0
  0
INSERT
  5
439
330
26F
100
AcDbEntity
  8
AM_5
100
AcDbBlockReference
  2
_Open
 10
108.2697241013648
 20
65.91195355149615
 30
0.0
 41
2.5
 42
2.5
 43
2.5
  0
INSERT
  5
43A
330
26F
100
AcDbEntity
  8
AM_5
100
AcDbBlockReference
  2
_Open
 10
111.4697241013648
 20
65.91195355149615
 30
0.0
 41
2.5
 42
2.5
 43
2.5
 50
180.0
  0
MTEXT
  5
43B
330
26F
100
AcDbEntity
  8
AM_5
 62
   140
100
AcDbMText
 10
120.4065609045884
 20
68.53482124793671
 30
0.0
 40
3.5
 41
0.0
 71
     5
 72
     1
  1
3.2
 73
     1
 44
1.0
1001
ACAD
1000
MTEXTBEGIN
1070
    73
1070
     1
1070
    44
1040
1.0
1070
    74
1070
     0
1000
MTEXTEND
  0
POINT
  5
43C
330
26F
100
AcDbEntity
  8
Defpoints
 62
     0
100
AcDbPoint
 10
108.2697241013648
 20
51.71195355149643
 30
0.0
  0
POINT
  5
43D
330
26F
100
AcDbEntity
  8
Defpoints
 62
     0
100
AcDbPoint
 10
111.4697241013648
 20
39.71195355149644
 30
0.0
  0
POINT
  5
43E
330
26F
100
AcDbEntity
  8
Defpoints
 62
     0
100
AcDbPoint
 10
111.4697241013648
 20
65.91195355149615
 30
0.0
  0
ENDBLK
  5
271
330
26F
100
AcDbEntity
  8
0
100
AcDbBlockEnd
  0
BLOCK
  5
27E
330
27D
100
AcDbEntity
  8
0
100
AcDbBlockBegin
  2
*D25
 70
     1
 10
0.0
 20
0.0
 30
0.0
  3
*D25
  1

  0
LINE
  5
43F
330
27D
100
AcDbEntity
  8
AM_5
  6
ByBlock
100
AcDbLine
 10
111.7697241013648
 20
27.91195355149608
 30
0.0
 11
122.269725101369
 21
27.91195355149607
 31
0.0
  0
LINE
  5
440
330
27D
100
AcDbEntity
  8
AM_5
  6
ByBlock
100
AcDbLine
 10
111.7697241013648
 20
39.91195355149626
 30
0.0
 11
122.269725101369
 21
39.91195355149625
 31
0.0
  0
LINE
  5
441
330
27D
100
AcDbEntity
  8
AM_5
  6
ByBlock
100
AcDbLine
 10
121.269725101369
 20
30.41195355149607
 30
0.0
 11
121.269725101369
 21
37.41195355149625
 31
0.0
  0
INSERT
  5
442
330
27D
100
AcDbEntity
  8
AM_5
100
AcDbBlockReference
  2
_Open
 10
121.269725101369
 20
27.91195355149607
 30
0.0
 41
2.5
 42
2.5
 43
2.5
 50
270.0
  0
INSERT
  5
443
330
27D
100
AcDbEntity
  8
AM_5
100
AcDbBlockReference
  2
_Open
 10
121.269725101369
 20
39.91195355149625
 30
0.0
 41
2.5
 42
2.5
 43
2.5
 50
90.0
  0
MTEXT
  5
444
330
27D
100
AcDbEntity
  8
AM_5
 62
   140
100
AcDbMText
 10
118.6832912531487
 20
33.91195355149618
 30
0.0
 40
3.5
 41
0.0
 71
     5
 72
     1
  1
%%c12
 11
0.0000000000000001
 21
1.0
 31
0.0
 73
     1
 44
1.0
1001
ACAD
1000
MTEXTBEGIN
1070
    73
1070
     1
1070
    44
1040
1.0
1070
    74
1070
     0
1000
MTEXTEND
  0
POINT
  5
445
330
27D
100
AcDbEntity
  8
Defpoints
 62
     0
100
AcDbPoint
 10
111.2697241013648
 20
27.91195355149608
 30
0.0
  0
POINT
  5
446
330
27D
100
AcDbEntity
  8
Defpoints
 62
     0
100
AcDbPoint
 10
111.2697241013648
 20
39.91195355149626
 30
0.0
  0
POINT
  5
447
330
27D
100
AcDbEntity
  8
Defpoints
 62
     0
100
AcDbPoint
 10
121.269725101369
 20
39.91195355149625
 30
0.0
  0
ENDBLK
  5
27F
330
27D
100
AcDbEntity
  8
0
100
AcDbBlockEnd
  0
BLOCK
  5
28A
330
289
100
AcDbEntity
  8
0
100
AcDbBlockBegin
  2
*D26
 70
     1
 10
0.0
 20
0.0
 30
0.0
  3
*D26
  1

  0
LINE
  5
448
330
289
100
AcDbEntity
  8
AM_5
  6
ByBlock
100
AcDbLine
 10
108.5697241013648
 20
15.91195355149607
 30
0.0
 11
130.2697251013691
 21
15.91195355149606
 31
0.0
  0
LINE
  5
449
330
289
100
AcDbEntity
  8
AM_5
  6
ByBlock
100
AcDbLine
 10
108.5697241013648
 20
51.91195355149644
 30
0.0
 11
130.2697251013691
 21
51.91195355149643
 31
0.0
  0
LINE
  5
44A
330
289
100
AcDbEntity
  8
AM_5
  6
ByBlock
100
AcDbLine
 10
129.2697251013691
 20
18.41195355149607
 30
0.0
 11
129.2697251013691
 21
49.41195355149643
 31
0.0
  0
INSERT
  5
44B
330
289
100
AcDbEntity
  8
AM_5
100
AcDbBlockReference
  2
_Open
 10
129.2697251013691
 20
15.91195355149606
 30
0.0
 41
2.5
 42
2.5
 43
2.5
 50
270.0
  0
INSERT
  5
44C
330
289
100
AcDbEntity
  8
AM_5
100
AcDbBlockReference
  2
_Open
 10
129.2697251013691
 20
51.91195355149643
 30
0.0
 41
2.5
 42
2.5
 43
2.5
 50
90.0
  0
MTEXT
  5
44D
330
289
100
AcDbEntity
  8
AM_5
 62
   140
100
AcDbMText
 10
126.6468574049285
 20
33.91195355149628
 30
0.0
 40
3.5
 41
0.0
 71
     5
 72
     1
  1
%%c36
 11
0.0000000000000001
 21
1.0
 31
0.0
 73
     1
 44
1.0
1001
ACAD
1000
MTEXTBEGIN
1070
    73
1070
     1
1070
    44
1040
1.0
1070
    74
1070
     0
1000
MTEXTEND
  0
POINT
  5
44E
330
289
100
AcDbEntity
  8
Defpoints
 62
     0
100
AcDbPoint
 10
108.0697241013648
 20
15.91195355149607
 30
0.0
  0
POINT
  5
44F
330
289
100
AcDbEntity
  8
Defpoints
 62
     0
100
AcDbPoint
 10
108.0697241013648
 20
51.91195355149644
 30
0.0
  0
POINT
  5
450
330
289
100
AcDbEntity
  8
Defpoints
 62
     0
100
AcDbPoint
 10
129.2697251013691
 20
51.91195355149643
 30
0.0
  0
ENDBLK
  5
28B
330
289
100
AcDbEntity
  8
0
100
AcDbBlockEnd
  0
BLOCK
  5
296
330
295
100
AcDbEntity
  8
0
100
AcDbBlockBegin
  2
*D27
 70
     1
 10
0.0
 20
0.0
 30
0.0
  3
*D27
  1

  0
LINE
  5
451
330
295
100
AcDbEntity
  8
AM_5
  6
ByBlock
100
AcDbLine
 10
113.269724101369
 20
31.41195355149625
 30
0.0
 11
113.269724101369
 21
7.111953551496075
 31
0.0
  0
LINE
  5
452
330
295
100
AcDbEntity
  8
AM_5
  6
ByBlock
100
AcDbLine
 10
108.2697241013648
 20
15.61195355149607
 30
0.0
 11
108.2697241013648
 21
7.111953551496075
 31
0.0
  0
LINE
  5
453
330
295
100
AcDbEntity
  8
AM_5
  6
ByBlock
100
AcDbLine
 10
115.769724101369
 20
8.111953551496075
 30
0.0
 11
118.269724101369
 21
8.111953551496075
 31
0.0
  0
LINE
  5
454
330
295
100
AcDbEntity
  8
AM_5
  6
ByBlock
100
AcDbLine
 10
105.7697241013648
 20
8.111953551496075
 30
0.0
 11
95.86381409464891
 21
8.111953551496075
 31
0.0
  0
LINE
  5
455
330
295
100
AcDbEntity
  8
AM_5
  6
ByBlock
100
AcDbLine
 10
113.269724101369
 20
8.111953551496075
 30
0.0
 11
108.2697241013648
 21
8.111953551496075
 31
0.0
  0
INSERT
  5
456
330
295
100
AcDbEntity
  8
AM_5
100
AcDbBlockReference
  2
_Open
 10
113.269724101369
 20
8.111953551496075
 30
0.0
 41
2.5
 42
2.5
 43
2.5
 50
180.0
  0
INSERT
  5
457
330
295
100
AcDbEntity
  8
AM_5
100
AcDbBlockReference
  2
_Open
 10
108.2697241013648
 20
8.111953551496075
 30
0.0
 41
2.5
 42
2.5
 43
2.5
  0
MTEXT
  5
458
330
295
100
AcDbEntity
  8
AM_5
 62
   140
100
AcDbMText
 10
99.56676909800687
 20
11.22491527077075
 30
0.0
 40
3.5
 41
0.0
 71
     5
 72
     1
  1
(5)
 73
     1
 44
1.0
1001
ACAD
1000
MTEXTBEGIN
1070
    73
1070
     1
1070
    44
1040
1.0
1070
    74
1070
     0
1000
MTEXTEND
  0
POINT
  5
459
330
295
100
AcDbEntity
  8
Defpoints
 62
     0
100
AcDbPoint
 10
113.269724101369
 20
31.91195355149626
 30
0.0
  0
POINT
  5
45A
330
295
100
AcDbEntity
  8
Defpoints
 62
     0
100
AcDbPoint
 10
108.2697241013648
 20
16.11195355149607
 30
0.0
  0
POINT
  5
45B
330
295
100
AcDbEntity
  8
Defpoints
 62
     0
100
AcDbPoint
 10
108.2697241013648
 20
8.111953551496075
 30
0.0
  0
ENDBLK
  5
297
330
295
100
AcDbEntity
  8
0
100
AcDbBlockEnd
  0
ENDSEC
  0
SECTION
  2
ENTITIES
  0
LWPOLYLINE
  5
C7
330
67
100
AcDbEntity
  8
AM_VIEWS
  6
Continuous
100
AcDbPolyline
 90
        4
 70
     1
 43
0.0
 10
0.0
 20
0.0
 10
180.0
 20
0.0
 10
180.0
 20
80.0
 10
0.0
 20
80.0
  0
CIRCLE
  5
EF
330
67
100
AcDbEntity
  8
0
370
    30
100
AcDbCircle
 10
37.27255892394271
 20
33.91195355149625
 30
0.0
 40
1.2295
  0
CIRCLE
  5
F0
330
67
100
AcDbEntity
  8
0
370
    30
100
AcDbCircle
 10
16.27255892394271
 20
33.91195355149625
 30
0.0
 40
1.2295
  0
CIRCLE
  5
F1
330
67
100
AcDbEntity
  8
0
370
     0
100
AcDbCircle
 10
37.27255892394271
 20
33.91195355149625
 30
0.0
 40
1.5
  0
CIRCLE
  5
F2
330
67
100
AcDbEntity
  8
0
370
     0
100
AcDbCircle
 10
16.27255892394271
 20
33.91195355149625
 30
0.0
 40
1.5
  0
CIRCLE
  5
F3
330
67
100
AcDbEntity
  8
0
370
    30
100
AcDbCircle
 10
26.77255892394271
 20
33.91195355149625
 30
0.0
 40
1.25
  0
CIRCLE
  5
F4
330
67
100
AcDbEntity
  8
0
370
    30
100
AcDbCircle
 10
26.77255892394271
 20
33.91195355149625
 30
0.0
 40
4.65
  0
CIRCLE
  5
F5
330
67
100
AcDbEntity
  8
0
370
    30
100
AcDbCircle
 10
26.77255892394271
 20
33.91195355149625
 30
0.0
 40
18.0
  0
LINE
  5
F6
330
67
100
AcDbEntity
  8
0
370
    30
100
AcDbLine
 10
110.069724101369
 20
34.66195355149626
 30
0.0
 11
112.069724101369
 21
34.66195355149626
 31
0.0
  0
LINE
  5
F7
330
67
100
AcDbEntity
  8
0
370
    30
100
AcDbLine
 10
110.069724101369
 20
33.16195355149626
 30
0.0
 11
110.069724101369
 21
34.66195355149626
 31
0.0
  0
LINE
  5
F8
330
67
100
AcDbEntity
  8
0
370
    30
100
AcDbLine
 10
112.069724101369
 20
33.16195355149626
 30
0.0
 11
110.069724101369
 21
33.16195355149626
 31
0.0
  0
LINE
  5
F9
330
67
100
AcDbEntity
  8
0
370
    30
100
AcDbLine
 10
112.069724101369
 20
34.66195355149626
 30
0.0
 11
112.069724101369
 21
33.16195355149626
 31
0.0
  0
LINE
  5
FA
330
67
100
AcDbEntity
  8
0
370
    30
100
AcDbLine
 10
108.269724101369
 20
35.91195355149626
 30
0.0
 11
113.269724101369
 21
35.91195355149626
 31
0.0
  0
LINE
  5
FB
330
67
100
AcDbEntity
  8
0
370
    30
100
AcDbLine
 10
108.269724101369
 20
31.91195355149626
 30
0.0
 11
113.269724101369
 21
31.91195355149626
 31
0.0
  0
LINE
  5
FC
102
{ACAD_REACTORS
330
1D7
102
}
330
67
100
AcDbEntity
  8
0
370
    30
100
AcDbLine
 10
113.269724101369
 20
31.91195355149626
 30
0.0
 11
113.269724101369
 21
35.91195355149626
 31
0.0
  0
LINE
  5
FD
330
67
100
AcDbEntity
  8
0
370
    30
100
AcDbLine
 10
111.4697241013663
 20
31.91195355149626
 30
0.0
 11
111.4697241013648
 21
28.11195355149607
 31
0.0
  0
LINE
  5
FE
330
67
100
AcDbEntity
  8
0
370
    30
100
AcDbLine
 10
111.4697241013666
 20
34.66195355149626
 30
0.0
 11
111.4697241013666
 21
33.16195355149626
 31
0.0
  0
LINE
  5
FF
330
67
100
AcDbEntity
  8
0
370
    30
100
AcDbLine
 10
111.4697241013648
 20
39.71195355149644
 30
0.0
 11
111.4697241013663
 21
35.91195355149626
 31
0.0
  0
LINE
  5
100
102
{ACAD_REACTORS
330
199
330
1A8
330
1D7
102
}
330
67
100
AcDbEntity
  8
0
370
    30
100
AcDbLine
 10
108.2697241013648
 20
51.71195355149643
 30
0.0
 11
108.2697241013648
 21
16.11195355149607
 31
0.0
  0
ARC
  5
101
102
{ACAD_REACTORS
330
1A8
102
}
330
67
100
AcDbEntity
  8
0
370
    30
100
AcDbCircle
 10
111.2697241013648
 20
39.71195355149644
 30
0.0
 40
0.2
100
AcDbArc
 50
0.0
 51
90.0
  0
ARC
  5
102
102
{ACAD_REACTORS
330
1B9
102
}
330
67
100
AcDbEntity
  8
0
370
    30
100
AcDbCircle
 10
111.2697241013648
 20
28.11195355149607
 30
0.0
 40
0.2
100
AcDbArc
 50
270.0
 51
0.0
  0
ARC
  5
103
102
{ACAD_REACTORS
330
1C8
102
}
330
67
100
AcDbEntity
  8
0
370
    30
100
AcDbCircle
 10
108.0697241013648
 20
51.71195355149643
 30
0.0
 40
0.2
100
AcDbArc
 50
0.0
 51
90.0
  0
ARC
  5
104
102
{ACAD_REACTORS
330
1C8
102
}
330
67
100
AcDbEntity
  8
0
370
    30
100
AcDbCircle
 10
108.0697241013648
 20
16.11195355149607
 30
0.0
 40
0.2
100
AcDbArc
 50
270.0
 51
0.0
  0
LINE
  5
105
330
67
100
AcDbEntity
  8
0
370
    30
100
AcDbLine
 10
105.4697241013648
 20
15.91195355149625
 30
0.0
 11
105.4697241013648
 21
51.91195355149625
 31
0.0
  0
LINE
  5
106
330
67
100
AcDbEntity
  8
0
370
    30
100
AcDbLine
 10
105.2697241013649
 20
51.91195355149625
 30
0.0
 11
105.2697241013649
 21
15.91195355149625
 31
0.0
  0
LINE
  5
107
330
67
100
AcDbEntity
  8
0
370
    30
100
AcDbLine
 10
67.67005306297216
 20
32.66195355149625
 30
0.0
 11
67.67005306297216
 21
35.16195355149625
 31
0.0
  0
LINE
  5
108
330
67
100
AcDbEntity
  8
0
370
    30
100
AcDbLine
 10
105.4697241013648
 20
16.11195355149607
 30
0.0
 11
105.2697241013649
 21
16.11195355149607
 31
0.0
  0
LINE
  5
109
330
67
100
AcDbEntity
  8
0
370
    30
100
AcDbLine
 10
105.4697241013648
 20
51.71195355149643
 30
0.0
 11
105.2697241013649
 21
51.71195355149643
 31
0.0
  0
LINE
  5
10A
330
67
100
AcDbEntity
  8
0
370
    30
100
AcDbLine
 10
73.26972410136483
 20
29.26195355149571
 30
0.0
 11
73.26972410136483
 21
38.56195355149589
 31
0.0
  0
LINE
  5
10B
102
{ACAD_REACTORS
330
169
102
}
330
67
100
AcDbEntity
  8
0
370
    30
100
AcDbLine
 10
76.26972410136483
 20
29.26195355149571
 30
0.0
 11
73.26972410136483
 21
29.26195355149571
 31
0.0
  0
LINE
  5
10C
102
{ACAD_REACTORS
330
169
330
179
102
}
330
67
100
AcDbEntity
  8
0
370
    30
100
AcDbLine
 10
76.26972410136483
 20
38.56195355149589
 30
0.0
 11
73.26972410136483
 21
38.56195355149589
 31
0.0
  0
LINE
  5
10D
330
67
100
AcDbEntity
  8
0
370
    30
100
AcDbLine
 10
76.26972410136483
 20
17.91195355149625
 30
0.0
 11
76.26972410136483
 21
49.91195355149625
 31
0.0
  0
ARC
  5
10E
102
{ACAD_REACTORS
330
179
330
18A
330
199
102
}
330
67
100
AcDbEntity
  8
0
370
    30
100
AcDbCircle
 10
78.26972410136483
 20
49.91195355149625
 30
0.0
 40
2.0
100
AcDbArc
 50
90.0
 51
180.0
  0
ARC
  5
10F
330
67
100
AcDbEntity
  8
0
370
    30
100
AcDbCircle
 10
78.26972410136483
 20
17.91195355149625
 30
0.0
 40
2.0
100
AcDbArc
 50
180.0
 51
270.0
  0
LINE
  5
110
102
{ACAD_REACTORS
330
1B9
102
}
330
67
100
AcDbEntity
  8
0
370
    30
100
AcDbLine
 10
108.2697241013648
 20
39.91195355149626
 30
0.0
 11
111.2697241013648
 21
39.91195355149626
 31
0.0
  0
LINE
  5
111
330
67
100
AcDbEntity
  8
0
370
    30
100
AcDbLine
 10
108.2697241013648
 20
27.91195355149625
 30
0.0
 11
111.2697241013648
 21
27.91195355149625
 31
0.0
  0
LINE
  5
112
330
67
100
AcDbEntity
  8
0
370
    30
100
AcDbLine
 10
105.4697241013648
 20
51.91195355149625
 30
0.0
 11
108.0697241013648
 21
51.91195355149625
 31
0.0
  0
LINE
  5
113
330
67
100
AcDbEntity
  8
0
370
    30
100
AcDbLine
 10
105.4697241013648
 20
15.91195355149625
 30
0.0
 11
108.0697241013648
 21
15.91195355149625
 31
0.0
  0
LINE
  5
114
330
67
100
AcDbEntity
  8
0
370
    30
100
AcDbLine
 10
78.26972410136483
 20
51.91195355149625
 30
0.0
 11
105.2697241013649
 21
51.91195355149625
 31
0.0
  0
LINE
  5
115
330
67
100
AcDbEntity
  8
0
370
    30
100
AcDbLine
 10
78.26972410136483
 20
15.91195355149625
 30
0.0
 11
105.2697241013649
 21
15.91195355149625
 31
0.0
  0
LINE
  5
116
330
67
100
AcDbEntity
  8
0
370
    30
100
AcDbLine
 10
73.26972410136483
 20
32.66195355149625
 30
0.0
 11
67.67005306297216
 21
32.66195355149625
 31
0.0
  0
LINE
  5
117
102
{ACAD_REACTORS
330
158
102
}
330
67
100
AcDbEntity
  8
0
370
    30
100
AcDbLine
 10
73.26972410136483
 20
35.16195355149625
 30
0.0
 11
67.67005306297216
 21
35.16195355149625
 31
0.0
  0
LINE
  5
118
330
67
100
AcDbEntity
  8
0
370
    30
100
AcDbLine
 10
141.3064374803183
 20
35.91195355149626
 30
0.0
 11
141.7064374803183
 21
35.91195355149626
 31
0.0
  0
LINE
  5
119
330
67
100
AcDbEntity
  8
0
370
    30
100
AcDbLine
 10
141.7064374803183
 20
35.91195355149626
 30
0.0
 11
141.7064374803183
 21
31.91195355149626
 31
0.0
  0
LINE
  5
11A
330
67
100
AcDbEntity
  8
0
370
    30
100
AcDbLine
 10
141.7064374803183
 20
31.91195355149626
 30
0.0
 11
141.3064374803183
 21
31.91195355149626
 31
0.0
  0
LINE
  5
11B
330
67
100
AcDbEntity
  8
0
370
    30
100
AcDbLine
 10
141.3064374803183
 20
31.91195355149626
 30
0.0
 11
141.3064374803183
 21
35.91195355149626
 31
0.0
  0
LINE
  5
11C
330
67
100
AcDbEntity
  8
0
370
    30
100
AcDbLine
 10
168.7064374803183
 20
35.91195355149626
 30
0.0
 11
169.1064374803184
 21
35.91195355149626
 31
0.0
  0
LINE
  5
11D
330
67
100
AcDbEntity
  8
0
370
    30
100
AcDbLine
 10
169.1064374803184
 20
35.91195355149626
 30
0.0
 11
169.1064374803184
 21
31.91195355149626
 31
0.0
  0
LINE
  5
11E
330
67
100
AcDbEntity
  8
0
370
    30
100
AcDbLine
 10
169.1064374803184
 20
31.91195355149626
 30
0.0
 11
168.7064374803183
 21
31.91195355149626
 31
0.0
  0
LINE
  5
11F
330
67
100
AcDbEntity
  8
0
370
    30
100
AcDbLine
 10
168.7064374803183
 20
31.91195355149626
 30
0.0
 11
168.7064374803183
 21
35.91195355149626
 31
0.0
  0
CIRCLE
  5
120
330
67
100
AcDbEntity
  8
0
370
    30
100
AcDbCircle
 10
155.2064374803171
 20
33.91195355149625
 30
0.0
 40
6.0
  0
CIRCLE
  5
121
330
67
100
AcDbEntity
  8
0
370
    30
100
AcDbCircle
 10
155.2064374803152
 20
33.91195355149625
 30
0.0
 40
18.0
  0
CIRCLE
  5
122
330
67
100
AcDbEntity
  8
0
370
    30
100
AcDbCircle
 10
155.2064374803172
 20
33.91195355149625
 30
0.0
 40
2.25
  0
LINE
  5
123
330
67
100
AcDbEntity
  8
0
370
    30
100
AcDbLine
 10
143.9564374803152
 20
30.41195355149716
 30
0.0
 11
140.4564374803152
 21
30.41195355149625
 31
0.0
  0
LINE
  5
124
330
67
100
AcDbEntity
  8
0
370
    30
100
AcDbLine
 10
143.9564374803152
 20
37.41195355149717
 30
0.0
 11
140.4564374803152
 21
37.41195355149625
 31
0.0
  0
LINE
  5
125
330
67
100
AcDbEntity
  8
0
370
    30
100
AcDbLine
 10
146.4564374803152
 20
27.91195355149625
 30
0.0
 11
142.4564374803152
 21
27.91195355149625
 31
0.0
  0
LINE
  5
126
330
67
100
AcDbEntity
  8
0
370
    30
100
AcDbLine
 10
143.9564374803152
 20
37.41195355149717
 30
0.0
 11
143.9564374803152
 21
30.41195355149625
 31
0.0
  0
LINE
  5
127
330
67
100
AcDbEntity
  8
0
370
    30
100
AcDbLine
 10
140.4564374803152
 20
37.41195355149625
 30
0.0
 11
140.4564374803152
 21
30.41195355149625
 31
0.0
  0
LINE
  5
128
330
67
100
AcDbEntity
  8
0
370
    30
100
AcDbLine
 10
144.4564374803152
 20
29.91195355149626
 30
0.0
 11
144.4564374803152
 21
25.91195355149626
 31
0.0
  0
ELLIPSE
  5
129
102
{ACAD_REACTORS
330
158
330
18A
102
}
330
67
100
AcDbEntity
  8
0
370
    30
100
AcDbEllipse
 10
67.67005306297233
 20
33.91195350149587
 30
0.0
 11
0.0000000000002132
 21
-1.250000049999925
 31
0.0
210
0.0
220
0.0
230
1.0
 40
0.1602631628754852
 41
3.141592653589792
 42
6.283585307162067
  0
LINE
  5
12A
330
67
100
AcDbEntity
  8
0
370
    30
100
AcDbLine
 10
84.26972410136476
 20
51.91195355149625
 30
0.0
 11
84.26972410136476
 21
39.41195355149626
 31
0.0
  0
LINE
  5
12B
330
67
100
AcDbEntity
  8
0
370
    30
100
AcDbLine
 10
99.26972410136494
 20
51.91195355149625
 30
0.0
 11
99.26972410136494
 21
39.41195355149626
 31
0.0
  0
LINE
  5
12C
330
67
100
AcDbEntity
  8
0
370
    30
100
AcDbLine
 10
84.26972410136476
 20
39.41195355149626
 30
0.0
 11
99.26972410136494
 21
39.41195355149626
 31
0.0
  0
CIRCLE
  5
12D
330
67
100
AcDbEntity
  8
0
370
    30
100
AcDbCircle
 10
144.4564374803152
 20
27.91195355149625
 30
0.0
 40
2.0
  0
LINE
  5
12E
330
67
100
AcDbEntity
  8
0
370
    30
100
AcDbLine
 10
166.4564374803152
 20
30.41195355149716
 30
0.0
 11
169.9564374803152
 21
30.41195355149625
 31
0.0
  0
LINE
  5
12F
330
67
100
AcDbEntity
  8
0
370
    30
100
AcDbLine
 10
166.4564374803152
 20
37.41195355149717
 30
0.0
 11
169.9564374803152
 21
37.41195355149625
 31
0.0
  0
LINE
  5
130
330
67
100
AcDbEntity
  8
0
370
    30
100
AcDbLine
 10
166.4564374803152
 20
37.41195355149717
 30
0.0
 11
166.4564374803152
 21
30.41195355149625
 31
0.0
  0
LINE
  5
131
330
67
100
AcDbEntity
  8
0
370
    30
100
AcDbLine
 10
169.9564374803152
 20
37.41195355149625
 30
0.0
 11
169.9564374803152
 21
30.41195355149625
 31
0.0
  0
CIRCLE
  5
132
330
67
100
AcDbEntity
  8
0
370
    30
100
AcDbCircle
 10
155.2064374803172
 20
33.91195355149625
 30
0.0
 40
1.25
  0
LINE
  5
133
330
67
100
AcDbEntity
  8
AM_7
100
AcDbLine
 10
64.67005306297216
 20
33.91195355149625
 30
0.0
 11
116.269724101369
 21
33.91195355149625
 31
0.0
1001
GENIUS_GENODEF_13
1002
{
1000
HIER
1070
     0
1002
}
1002
{
1000
MANEDIT
1070
     0
1002
}
1002
{
1000
NOSEL
1070
     0
1002
}
1002
{
1000
BEHIND
1070
     0
1002
}
1002
{
1000
OTHER
1070
     0
1002
}
1002
{
1000
REACTOR
1002
}
1001
GENIUS_GENOBJ-N-CEN_13
1002
{
1000
OWNER
1000
GEN
1002
}
1001
GENIUS_GENCEN_19
1002
{
1040
3.0
1002
}
  0
LINE
  5
137
330
67
100
AcDbEntity
  8
AM_7
100
AcDbLine
 10
26.77255892394271
 20
33.91195355149625
 30
0.0
 11
47.77255892394271
 21
33.91195355149625
 31
0.0
1001
GENIUS_GENOREF_13
1005
209
  0
LINE
  5
138
330
67
100
AcDbEntity
  8
AM_7
100
AcDbLine
 10
26.77255892394271
 20
33.91195355149625
 30
0.0
 11
26.77255892394271
 21
54.91195355149625
 31
0.0
1001
GENIUS_GENOREF_13
1005
209
  0
LINE
  5
139
330
67
100
AcDbEntity
  8
AM_7
100
AcDbLine
 10
26.77255892394271
 20
33.91195355149625
 30
0.0
 11
5.77255892394271
 21
33.91195355149625
 31
0.0
1001
GENIUS_GENOREF_13
1005
209
  0
LINE
  5
13A
330
67
100
AcDbEntity
  8
AM_7
100
AcDbLine
 10
26.77255892394271
 20
33.91195355149625
 30
0.0
 11
26.77255892394271
 21
12.91195355149625
 31
0.0
1001
GENIUS_GENOREF_13
1005
209
  0
LINE
  5
13B
330
67
100
AcDbEntity
  8
AM_7
  6
AM_ISO08W050x2
100
AcDbLine
 10
37.27255892394271
 20
33.91195355149625
 30
0.0
 11
41.77255892394271
 21
33.91195355149625
 31
0.0
1001
GENIUS_GENOREF_13
1005
208
  0
LINE
  5
13C
330
67
100
AcDbEntity
  8
AM_7
  6
AM_ISO08W050x2
100
AcDbLine
 10
37.27255892394271
 20
33.91195355149625
 30
0.0
 11
37.27255892394271
 21
38.41195355149626
 31
0.0
1001
GENIUS_GENOREF_13
1005
208
  0
LINE
  5
13D
330
67
100
AcDbEntity
  8
AM_7
  6
AM_ISO08W050x2
100
AcDbLine
 10
37.27255892394271
 20
33.91195355149625
 30
0.0
 11
32.77255892394271
 21
33.91195355149625
 31
0.0
1001
GENIUS_GENOREF_13
1005
208
  0
LINE
  5
13E
102
{ACAD_REACTORS
330
149
102
}
330
67
100
AcDbEntity
  8
AM_7
  6
AM_ISO08W050x2
100
AcDbLine
 10
37.27255892394271
 20
33.91195355149625
 30
0.0
 11
37.27255892394271
 21
29.41195355149626
 31
0.0
1001
GENIUS_GENOREF_13
1005
208
  0
LINE
  5
13F
330
67
100
AcDbEntity
  8
AM_7
  6
AM_ISO08W050x2
100
AcDbLine
 10
16.27255892394271
 20
33.91195355149625
 30
0.0
 11
20.77255892394271
 21
33.91195355149625
 31
0.0
1001
GENIUS_GENOREF_13
1005
207
  0
LINE
  5
140
330
67
100
AcDbEntity
  8
AM_7
  6
AM_ISO08W050x2
100
AcDbLine
 10
16.27255892394271
 20
33.91195355149625
 30
0.0
 11
16.27255892394271
 21
38.41195355149626
 31
0.0
1001
GENIUS_GENOREF_13
1005
207
  0
LINE
  5
141
330
67
100
AcDbEntity
  8
AM_7
  6
AM_ISO08W050x2
100
AcDbLine
 10
16.27255892394271
 20
33.91195355149625
 30
0.0
 11
11.77255892394271
 21
33.91195355149625
 31
0.0
1001
GENIUS_GENOREF_13
1005
207
  0
LINE
  5
142
102
{ACAD_REACTORS
330
149
102
}
330
67
100
AcDbEntity
  8
AM_7
  6
AM_ISO08W050x2
100
AcDbLine
 10
16.27255892394271
 20
33.91195355149625
 30
0.0
 11
16.27255892394271
 21
29.41195355149626
 31
0.0
1001
GENIUS_GENOREF_13
1005
207
  0
LINE
  5
143
330
67
100
AcDbEntity
  8
AM_7
100
AcDbLine
 10
155.2064374803172
 20
33.91195355149625
 30
0.0
 11
176.2064374803172
 21
33.91195355149625
 31
0.0
1001
GENIUS_GENOREF_13
1005
206
  0
LINE
  5
144
330
67
100
AcDbEntity
  8
AM_7
100
AcDbLine
 10
155.2064374803172
 20
33.91195355149625
 30
0.0
 11
155.2064374803172
 21
54.91195355149625
 31
0.0
1001
GENIUS_GENOREF_13
1005
206
  0
LINE
  5
145
330
67
100
AcDbEntity
  8
AM_7
100
AcDbLine
 10
155.2064374803172
 20
33.91195355149625
 30
0.0
 11
134.2064374803172
 21
33.91195355149625
 31
0.0
1001
GENIUS_GENOREF_13
1005
206
  0
LINE
  5
146
330
67
100
AcDbEntity
  8
AM_7
100
AcDbLine
 10
155.2064374803172
 20
33.91195355149625
 30
0.0
 11
155.2064374803172
 21
12.91195355149625
 31
0.0
1001
GENIUS_GENOREF_13
1005
206
  0
DIMENSION
  5
147
102
{ACAD_XDICTIONARY
360
148
102
}
102
{ACAD_REACTORS
330
149
102
}
330
67
100
AcDbEntity
  8
AM_5
100
AcDbDimension
  2
*D18
 10
37.27255892394271
 20
4.916968243367591
 30
0.0
 11
26.77255892394271
 21
7.503402091587873
 31
0.0
 70
    32
 71
     5
 42
21.0
  3
AM_JIS$0
100
AcDbAlignedDimension
 13
16.27255892394271
 23
29.41195355149626
 33
0.0
 14
37.27255892394271
 24
29.41195355149626
 34
0.0
 50
0.0000000000001132
100
AcDbRotatedDimension
1001
ACAD_DSTYLE_DIMINSPECT
1070
   396
1000
100%
1070
   395
1000

1070
   394
1070
    33
1070
   393
1070
     0
1001
ACAD
1000
DSTYLE
1002
{
1070
   144
1040
1.0
1070
    40
1040
1.0
1002
}
  0
DIMENSION
  5
156
102
{ACAD_XDICTIONARY
360
157
102
}
102
{ACAD_REACTORS
330
158
102
}
330
67
100
AcDbEntity
  8
AM_5
100
AcDbDimension
  2
*D19
 10
59.46972309136481
 20
35.16195355149625
 30
0.0
 11
56.84685539492424
 21
45.59281318883676
 31
0.0
 70
    32
  1
%%c<>
 71
     5
 42
2.500000000000312
  3
AM_JIS$0
100
AcDbAlignedDimension
 13
67.67013319455154
 23
32.66195355149594
 33
0.0
 14
67.67013319455154
 24
35.16195355149625
 34
0.0
 50
90.00000000000003
100
AcDbRotatedDimension
1001
ACAD_DSTYLE_DIMINSPECT
1070
   396
1000
100%
1070
   395
1000

1070
   394
1070
    33
1070
   393
1070
     0
1001
ACAD
1000
DSTYLE
1002
{
1070
   144
1040
1.0
1070
    40
1040
1.0
1002
}
  0
DIMENSION
  5
167
102
{ACAD_XDICTIONARY
360
168
102
}
102
{ACAD_REACTORS
330
169
102
}
330
67
100
AcDbEntity
  8
AM_5
100
AcDbDimension
  2
*D20
 10
51.46972309136482
 20
38.56195355149589
 30
0.0
 11
48.84685539492425
 21
46.48223561999826
 31
0.0
 70
    32
  1
%%c<>
 71
     5
 42
9.300000000000178
  3
AM_JIS$0
100
AcDbAlignedDimension
 13
73.26972410136483
 23
29.26195355149571
 33
0.0
 14
73.26972410136483
 24
38.56195355149589
 34
0.0
 50
90.00000000000003
100
AcDbRotatedDimension
1001
ACAD_DSTYLE_DIMINSPECT
1070
   396
1000
100%
1070
   395
1000

1070
   394
1070
    33
1070
   393
1070
     0
1001
ACAD
1000
DSTYLE
1002
{
1070
   144
1040
1.0
1070
    40
1040
1.0
1002
}
  0
DIMENSION
  5
177
102
{ACAD_XDICTIONARY
360
178
102
}
102
{ACAD_REACTORS
330
179
102
}
330
67
100
AcDbEntity
  8
AM_5
100
AcDbDimension
  2
*D21
 10
73.26972410136483
 20
57.91195355149625
 30
0.0
 11
74.76972410136482
 21
57.91195355149625
 31
0.0
 70
   160
 71
     5
 42
3.0
  3
AM_JIS$0
100
AcDbAlignedDimension
 13
76.26972410136483
 23
49.91195355149625
 33
0.0
 14
73.26972410136483
 24
38.56195355149589
 34
0.0
100
AcDbRotatedDimension
1001
ACAD_DSTYLE_DIMINSPECT
1070
   396
1000
100%
1070
   395
1000

1070
   394
1070
    33
1070
   393
1070
     0
1001
ACAD
1000
DSTYLE
1002
{
1070
   144
1040
1.0
1070
    40
1040
1.0
1002
}
  0
DIMENSION
  5
188
102
{ACAD_XDICTIONARY
360
189
102
}
102
{ACAD_REACTORS
330
18A
102
}
330
67
100
AcDbEntity
  8
AM_5
100
AcDbDimension
  2
*D22
 10
67.46972410146773
 20
65.91195355149622
 30
0.0
 11
71.86972410141628
 21
68.54187296049556
 31
0.0
 70
    32
 71
     5
 42
8.799999999897096
  3
AM_JIS$0
100
AcDbAlignedDimension
 13
76.26972410136483
 23
49.91195355149625
 33
0.0
 14
67.46972410146773
 24
33.91191343566382
 34
0.0
100
AcDbRotatedDimension
1001
ACAD_DSTYLE_DIMINSPECT
1070
   396
1000
100%
1070
   395
1000

1070
   394
1070
    33
1070
   393
1070
     0
1001
ACAD
1000
DSTYLE
1002
{
1070
   144
1040
1.0
1070
    40
1040
1.0
1002
}
  0
DIMENSION
  5
197
102
{ACAD_XDICTIONARY
360
198
102
}
102
{ACAD_REACTORS
330
199
102
}
330
67
100
AcDbEntity
  8
AM_5
100
AcDbDimension
  2
*D23
 10
108.2697241013648
 20
65.91195355149619
 30
0.0
 11
92.26972410136482
 21
68.53482124793676
 31
0.0
 70
    32
 71
     5
 42
32.0
  3
AM_JIS$0
100
AcDbAlignedDimension
 13
76.26972410136483
 23
49.91195355149625
 33
0.0
 14
108.2697241013648
 24
51.71195355149643
 34
0.0
100
AcDbRotatedDimension
1001
ACAD_DSTYLE_DIMINSPECT
1070
   396
1000
100%
1070
   395
1000

1070
   394
1070
    33
1070
   393
1070
     0
1001
ACAD
1000
DSTYLE
1002
{
1070
   144
1040
1.0
1070
    40
1040
1.0
1002
}
  0
DIMENSION
  5
1A6
102
{ACAD_XDICTIONARY
360
1A7
102
}
102
{ACAD_REACTORS
330
1A8
102
}
330
67
100
AcDbEntity
  8
AM_5
100
AcDbDimension
  2
*D24
 10
111.4697241013648
 20
65.91195355149615
 30
0.0
 11
120.4065609045884
 21
68.53482124793671
 31
0.0
 70
    32
 71
     5
 42
3.200000000000002
  3
AM_JIS$0
100
AcDbAlignedDimension
 13
108.2697241013648
 23
51.71195355149643
 33
0.0
 14
111.4697241013648
 24
39.71195355149644
 34
0.0
100
AcDbRotatedDimension
1001
ACAD_DSTYLE_DIMINSPECT
1070
   396
1000
100%
1070
   395
1000

1070
   394
1070
    33
1070
   393
1070
     0
1001
ACAD
1000
DSTYLE
1002
{
1070
   144
1040
1.0
1070
    40
1040
1.0
1002
}
  0
DIMENSION
  5
1B7
102
{ACAD_XDICTIONARY
360
1B8
102
}
102
{ACAD_REACTORS
330
1B9
102
}
330
67
100
AcDbEntity
  8
AM_5
100
AcDbDimension
  2
*D25
 10
121.269725101369
 20
39.91195355149625
 30
0.0
 11
118.6832912531487
 21
33.91195355149618
 31
0.0
 70
    32
  1
%%c<>
 71
     5
 42
12.00000000000018
  3
AM_JIS$0
100
AcDbAlignedDimension
 13
111.2697241013648
 23
27.91195355149608
 33
0.0
 14
111.2697241013648
 24
39.91195355149626
 34
0.0
 50
90.00000000000003
100
AcDbRotatedDimension
1001
ACAD_DSTYLE_DIMINSPECT
1070
   396
1000
100%
1070
   395
1000

1070
   394
1070
    33
1070
   393
1070
     0
1001
ACAD
1000
DSTYLE
1002
{
1070
   144
1040
1.0
1070
    40
1040
1.0
1002
}
  0
DIMENSION
  5
1C6
102
{ACAD_XDICTIONARY
360
1C7
102
}
102
{ACAD_REACTORS
330
1C8
102
}
330
67
100
AcDbEntity
  8
AM_5
100
AcDbDimension
  2
*D26
 10
129.2697251013691
 20
51.91195355149643
 30
0.0
 11
126.6468574049285
 21
33.91195355149628
 31
0.0
 70
    32
  1
%%c<>
 71
     5
 42
36.00000000000036
  3
AM_JIS$0
100
AcDbAlignedDimension
 13
108.0697241013648
 23
15.91195355149607
 33
0.0
 14
108.0697241013648
 24
51.91195355149644
 34
0.0
 50
90.00000000000003
100
AcDbRotatedDimension
1001
ACAD_DSTYLE_DIMINSPECT
1070
   396
1000
100%
1070
   395
1000

1070
   394
1070
    33
1070
   393
1070
     0
1001
ACAD
1000
DSTYLE
1002
{
1070
   144
1040
1.0
1070
    40
1040
1.0
1002
}
  0
DIMENSION
  5
1D5
102
{ACAD_XDICTIONARY
360
1D6
102
}
102
{ACAD_REACTORS
330
1D7
102
}
330
67
100
AcDbEntity
  8
AM_5
100
AcDbDimension
  2
*D27
 10
108.2697241013648
 20
8.111953551496075
 30
0.0
 11
99.56676909800687
 21
11.22491527077075
 31
0.0
 70
    32
  1
(<>)
 71
     5
 42
5.000000000004206
  3
AM_JIS$0
100
AcDbAlignedDimension
 13
113.269724101369
 23
31.91195355149626
 33
0.0
 14
108.2697241013648
 24
16.11195355149607
 34
0.0
 50
0.0000000000001132
100
AcDbRotatedDimension
1001
ACAD_DSTYLE_DIMINSPECT
1070
   396
1000
100%
1070
   395
1000

1070
   394
1070
    33
1070
   393
1070
     0
1001
ACAD
1000
DSTYLE
1002
{
1070
   144
1040
1.0
1070
    40
1040
1.0
1002
}
  0
INSERT
  5
1E6
330
67
100
AcDbEntity
  8
Viewport2ForCustomObjects_0
100
AcDbBlockReference
  2
CustomObjectsInViewport2_0
 10
0.0
 20
0.0
 30
0.0
  0
POINT
  5
206
330
67
100
AcDbEntity
  8
0
 60
     1
100
AcDbPoint
 10
0.0
 20
0.0
 30
0.0
1001
GENIUS_GENOENT_13
1002
{
1000
MYREF
1005
206
1002
}
1002
{
1000
GRP
1005
0
1002
}
1001
GENIUS_GENOBJ-N-CRS_13
1002
{
1000
OWNER
1000
GEN
1002
}
1001
GENIUS_GENODEF_13
1002
{
1000
HIER
1070
    10
1002
}
1002
{
1000
MANEDIT
1070
     0
1002
}
1002
{
1000
NOSEL
1070
     0
1002
}
1002
{
1000
BEHIND
1070
     0
1002
}
1002
{
1000
OTHER
1070
     0
1002
}
1002
{
1000
REACTOR
1002
}
1001
GENIUS_GENOLIS_13
1002
{
1000
ENT
1005
146
1005
145
1005
144
1005
143
1002
}
  0
POINT
  5
207
330
67
100
AcDbEntity
  8
0
 60
     1
100
AcDbPoint
 10
0.0
 20
0.0
 30
0.0
1001
GENIUS_GENOLIS_13
1002
{
1000
ENT
1005
142
1005
141
1005
140
1005
13F
1002
}
1001
GENIUS_GENODEF_13
1002
{
1000
HIER
1070
    10
1002
}
1002
{
1000
MANEDIT
1070
     0
1002
}
1002
{
1000
NOSEL
1070
     0
1002
}
1002
{
1000
BEHIND
1070
     0
1002
}
1002
{
1000
OTHER
1070
     0
1002
}
1002
{
1000
REACTOR
1002
}
1001
GENIUS_GENOBJ-N-CRS_13
1002
{
1000
OWNER
1000
GEN
1002
}
1001
GENIUS_GENOENT_13
1002
{
1000
MYREF
1005
207
1002
}
1002
{
1000
GRP
1005
0
1002
}
  0
POINT
  5
208
330
67
100
AcDbEntity
  8
0
 60
     1
100
AcDbPoint
 10
0.0
 20
0.0
 30
0.0
1001
GENIUS_GENOLIS_13
1002
{
1000
ENT
1005
13E
1005
13D
1005
13C
1005
13B
1002
}
1001
GENIUS_GENODEF_13
1002
{
1000
HIER
1070
    10
1002
}
1002
{
1000
MANEDIT
1070
     0
1002
}
1002
{
1000
NOSEL
1070
     0
1002
}
1002
{
1000
BEHIND
1070
     0
1002
}
1002
{
1000
OTHER
1070
     0
1002
}
1002
{
1000
REACTOR
1002
}
1001
GENIUS_GENOENT_13
1002
{
1000
MYREF
1005
208
1002
}
1002
{
1000
GRP
1005
0
1002
}
1001
GENIUS_GENOBJ-N-CRS_13
1002
{
1000
OWNER
1000
GEN
1002
}
  0
POINT
  5
209
330
67
100
AcDbEntity
  8
0
 60
     1
100
AcDbPoint
 10
0.0
 20
0.0
 30
0.0
1001
GENIUS_GENOENT_13
1002
{
1000
MYREF
1005
209
1002
}
1002
{
1000
GRP
1005
0
1002
}
1001
GENIUS_GENODEF_13
1002
{
1000
HIER
1070
    10
1002
}
1002
{
1000
MANEDIT
1070
     0
1002
}
1002
{
1000
NOSEL
1070
     0
1002
}
1002
{
1000
BEHIND
1070
     0
1002
}
1002
{
1000
OTHER
1070
     0
1002
}
1002
{
1000
REACTOR
1002
}
1001
GENIUS_GENOBJ-N-CRS_13
1002
{
1000
OWNER
1000
GEN
1002
}
1001
GENIUS_GENOLIS_13
1002
{
1000
ENT
1005
13A
1005
139
1005
138
1005
137
1002
}
  0
LWPOLYLINE
  5
2A3
330
67
100
AcDbEntity
  8
AM_VIEWS
100
AcDbPolyline
 90
        2
 70
     0
 43
0.0
 10
180.0
 20
-0.0000000000000071
 10
180.0
 20
80.0
1001
GENIUS_GENSCREG_15
1040
1.0
1040
1.0
1011
0.0
1021
0.0
1031
0.0
1011
180.0
1021
80.0
1031
0.0
1070
     2
1001
GENIUS_GENODEF_13
1002
{
1000
HIER
1070
     0
1002
}
1002
{
1000
MANEDIT
1070
     0
1002
}
1002
{
1000
NOSEL
1070
     0
1002
}
1002
{
1000
BEHIND
1070
     0
1002
}
1002
{
1000
OTHER
1070
     0
1002
}
1002
{
1000
REACTOR
1002
}
1001
GENIUS_GENOBJ-N-SDF_13
1002
{
1000
OWNER
1000
GEN
1002
}
  0
LWPOLYLINE
  5
2A4
330
67
100
AcDbEntity
  8
AM_VIEWS
100
AcDbPolyline
 90
        2
 70
     0
 43
0.0
 10
180.0
 20
80.0
 10
-0.0000000000000044
 20
80.0
1001
GENIUS_GENSCREG_15
1040
1.0
1040
1.0
1011
0.0
1021
0.0
1031
0.0
1011
180.0
1021
80.0
1031
0.0
1070
     2
1001
GENIUS_GENODEF_13
1002
{
1000
HIER
1070
     0
1002
}
1002
{
1000
MANEDIT
1070
     0
1002
}
1002
{
1000
NOSEL
1070
     0
1002
}
1002
{
1000
BEHIND
1070
     0
1002
}
1002
{
1000
OTHER
1070
     0
1002
}
1002
{
1000
REACTOR
1002
}
1001
GENIUS_GENOBJ-N-SDF_13
1002
{
1000
OWNER
1000
GEN
1002
}
  0
LWPOLYLINE
  5
2A5
330
67
100
AcDbEntity
  8
AM_VIEWS
100
AcDbPolyline
 90
        3
 70
     0
 43
0.0
 10
-0.0000000000000044
 20
80.0
 10
0.0
 20
0.0
 10
180.0
 20
-0.0000000000000071
1001
GENIUS_GENSCREG_15
1040
1.0
1040
1.0
1011
0.0
1021
0.0
1031
0.0
1011
180.0
1021
80.0
1031
0.0
1070
     2
1001
GENIUS_GENODEF_13
1002
{
1000
HIER
1070
     0
1002
}
1002
{
1000
MANEDIT
1070
     0
1002
}
1002
{
1000
NOSEL
1070
     0
1002
}
1002
{
1000
BEHIND
1070
     0
1002
}
1002
{
1000
OTHER
1070
     0
1002
}
1002
{
1000
REACTOR
1002
}
1001
GENIUS_GENOBJ-N-SDF_13
1002
{
1000
OWNER
1000
GEN
1002
}
  0
LWPOLYLINE
  5
2A6
330
67
100
AcDbEntity
  8
AM_VIEWS
100
AcDbPolyline
 90
        2
 70
     0
 43
0.0
 10
0.0
 20
0.0
 10
62.5
 20
0.0
1001
GENIUS_GENSCREG_15
1040
1.0
1040
1.0
1011
0.0
1021
-45.0
1031
0.0
1011
62.5
1021
0.0
1031
0.0
1070
     2
1001
GENIUS_GENOBJ-N-SDF_13
1002
{
1000
OWNER
1000
GEN
1002
}
1001
GENIUS_GENODEF_13
1002
{
1000
HIER
1070
     0
1002
}
1002
{
1000
MANEDIT
1070
     0
1002
}
1002
{
1000
NOSEL
1070
     0
1002
}
1002
{
1000
BEHIND
1070
     0
1002
}
1002
{
1000
OTHER
1070
     0
1002
}
1002
{
1000
REACTOR
1002
}
  0
LWPOLYLINE
  5
2A7
330
67
100
AcDbEntity
  8
AM_VIEWS
100
AcDbPolyline
 90
        2
 70
     0
 43
0.0
 10
73.7313392340485
 20
-0.0000000000000069
 10
161.7661319176011
 20
-0.0000000000000069
1001
GENIUS_GENSCREG_15
1040
1.0
1040
1.0
1011
73.7313392340485
1021
-48.8577448430018
1031
0.0
1011
161.7661319176011
1021
-0.0000000000000069
1031
0.0
1070
     2
1001
GENIUS_GENODEF_13
1002
{
1000
HIER
1070
     0
1002
}
1002
{
1000
MANEDIT
1070
     0
1002
}
1002
{
1000
NOSEL
1070
     0
1002
}
1002
{
1000
BEHIND
1070
     0
1002
}
1002
{
1000
OTHER
1070
     0
1002
}
1002
{
1000
REACTOR
1002
}
1001
GENIUS_GENOBJ-N-SDF_13
1002
{
1000
OWNER
1000
GEN
1002
}
  0
ENDSEC
  0
SECTION
  2
OBJECTS
  0
DICTIONARY
  5
C
330
0
100
AcDbDictionary
281
     1
  3
ACAD_2007HEADERVARS_RT
350
535
  3
ACAD_COLOR
350
5E
  3
ACAD_GROUP
350
D
  3
ACAD_LAYOUT
350
5D
  3
ACAD_MATERIAL
350
10
  3
ACAD_MLEADERSTYLE
350
61
  3
ACAD_MLINESTYLE
350
5A
  3
ACAD_PLOTSETTINGS
350
5C
  3
ACAD_PLOTSTYLENAME
350
E
  3
ACAD_SCALELIST
350
3D
  3
ACAD_TABLESTYLE
350
5F
  3
ACAD_VISUALSTYLE
350
29
  3
ACDB_RECOMPOSE_DATA
350
533
  3
AcDbVariableDictionary
350
45C
  3
AcmDictionary
350
4BA
  3
AMG
350
472
  3
AMGSNAPSETTINGS
350
525
  3
DWGPROPS
350
534
  0
DICTIONARY
  5
521
330
4F
100
AcDbDictionary
280
     1
281
     1
  3
ADSK_XREC_LAYER_RECONCILED
360
522
  0
DICTIONARY
  5
C9
330
C8
100
AcDbDictionary
280
     1
281
     1
  3
ADSK_XREC_LAYER_RECONCILED
360
CA
  0
DICTIONARY
  5
D2
330
D1
100
AcDbDictionary
280
     1
281
     1
  3
ADSK_XREC_LAYER_RECONCILED
360
D3
  0
DICTIONARY
  5
135
330
134
100
AcDbDictionary
280
     1
281
     1
  3
ADSK_XREC_LAYER_RECONCILED
360
136
  0
DICTIONARY
  5
523
330
1E7
100
AcDbDictionary
280
     1
281
     1
  3
ADSK_XREC_LAYER_RECONCILED
360
524
  0
DICTIONARY
  5
3F7
330
67
100
AcDbDictionary
280
     1
281
     1
  3
ACAD_SORTENTS
360
3F8
  0
DICTIONARY
  5
148
330
147
100
AcDbDictionary
280
     1
281
     1
  3
ACAD_DIMASSOC
360
149
  0
DICTIONARY
  5
157
330
156
100
AcDbDictionary
280
     1
281
     1
  3
ACAD_DIMASSOC
360
158
  0
DICTIONARY
  5
168
330
167
100
AcDbDictionary
280
     1
281
     1
  3
ACAD_DIMASSOC
360
169
  0
DICTIONARY
  5
178
330
177
100
AcDbDictionary
280
     1
281
     1
  3
ACAD_DIMASSOC
360
179
  0
DICTIONARY
  5
189
330
188
100
AcDbDictionary
280
     1
281
     1
  3
ACAD_DIMASSOC
360
18A
  0
DICTIONARY
  5
198
330
197
100
AcDbDictionary
280
     1
281
     1
  3
ACAD_DIMASSOC
360
199
  0
DICTIONARY
  5
1A7
330
1A6
100
AcDbDictionary
280
     1
281
     1
  3
ACAD_DIMASSOC
360
1A8
  0
DICTIONARY
  5
1B8
330
1B7
100
AcDbDictionary
280
     1
281
     1
  3
ACAD_DIMASSOC
360
1B9
  0
DICTIONARY
  5
1C7
330
1C6
100
AcDbDictionary
280
     1
281
     1
  3
ACAD_DIMASSOC
360
1C8
  0
DICTIONARY
  5
1D6
330
1D5
100
AcDbDictionary
280
     1
281
     1
  3
ACAD_DIMASSOC
360
1D7
  0
DICTIONARY
  5
535
102
{ACAD_REACTORS
330
C
102
}
330
C
100
AcDbDictionary
281
     1
  3
DIMARCSYM
350
536
  3
DIMLTEX1
350
538
  3
DIMLTEX2
350
539
  3
DIMLTYPE
350
537
  0
DICTIONARY
  5
5E
102
{ACAD_REACTORS
330
C
102
}
330
C
100
AcDbDictionary
281
     1
  0
DICTIONARY
  5
D
102
{ACAD_REACTORS
330
C
102
}
330
C
100
AcDbDictionary
281
     1
  0
DICTIONARY
  5
5D
102
{ACAD_REACTORS
330
C
102
}
330
C
100
AcDbDictionary
281
     1
  3
Model
350
6A
  3
レイアウト1
350
66
  3
レイアウト2
350
6E
  0
DICTIONARY
  5
10
102
{ACAD_REACTORS
330
C
102
}
330
C
100
AcDbDictionary
281
     1
  3
ByBlock
350
19
  3
ByLayer
350
11
  3
Global
350
21
  0
DICTIONARY
  5
61
102
{ACAD_REACTORS
330
C
102
}
330
C
100
AcDbDictionary
281
     1
  3
Standard
350
62
  0
DICTIONARY
  5
5A
102
{ACAD_REACTORS
330
C
102
}
330
C
100
AcDbDictionary
281
     1
  3
Standard
350
5B
  0
DICTIONARY
  5
5C
102
{ACAD_REACTORS
330
C
102
}
330
C
100
AcDbDictionary
281
     1
  0
ACDBDICTIONARYWDFLT
  5
E
102
{ACAD_REACTORS
330
C
102
}
330
C
100
AcDbDictionary
281
     1
  3
Normal
350
F
100
AcDbDictionaryWithDefault
340
F
  0
DICTIONARY
  5
3D
102
{ACAD_REACTORS
330
C
102
}
330
C
100
AcDbDictionary
281
     1
  3
*A1
350
B5
  3
*A10
350
C6
  3
*A11
350
B6
  3
*A12
350
B7
  3
*A13
350
B8
  3
*A14
350
B9
  3
*A15
350
BA
  3
*A16
350
BB
  3
*A17
350
BC
  3
*A18
350
BD
  3
*A2
350
BE
  3
*A3
350
BF
  3
*A4
350
C0
  3
*A5
350
C1
  3
*A6
350
C2
  3
*A7
350
C3
  3
*A8
350
C4
  3
*A9
350
C5
  3
A0
350
3E
  3
A1
350
3F
  3
A2
350
40
  3
A3
350
41
  3
A4
350
42
  3
A5
350
43
  3
A6
350
44
  3
A7
350
45
  3
A8
350
46
  3
A9
350
47
  3
B0
350
48
  3
B1
350
49
  3
B2
350
4A
  3
B3
350
4B
  3
B4
350
4C
  3
B5
350
4D
  3
B6
350
4E
  0
DICTIONARY
  5
5F
102
{ACAD_REACTORS
330
C
102
}
330
C
100
AcDbDictionary
281
     1
  3
Standard
350
60
  0
DICTIONARY
  5
29
102
{ACAD_REACTORS
330
C
102
}
330
C
100
AcDbDictionary
281
     1
  3
2dWireframe
350
2F
  3
3D Hidden
350
31
  3
3dWireframe
350
30
  3
Basic
350
2E
  3
Brighten
350
35
  3
ColorChange
350
39
  3
Conceptual
350
32
  3
Dim
350
34
  3
EdgeColorOff
350
3C
  3
Facepattern
350
38
  3
Flat
350
2A
  3
FlatWithEdges
350
2B
  3
Gouraud
350
2C
  3
GouraudWithEdges
350
2D
  3
JitterOff
350
3A
  3
Linepattern
350
37
  3
OverhangOff
350
3B
  3
Realistic
350
33
  3
Thicken
350
36
  0
XRECORD
  5
533
102
{ACAD_REACTORS
330
C
102
}
330
C
100
AcDbXrecord
280
     1
 90
        1
330
60
  0
DICTIONARY
  5
45C
102
{ACAD_REACTORS
330
C
102
}
330
C
100
AcDbDictionary
281
     1
  3
ANNOALLVISIBLE
350
460
  3
CANNOSCALE
350
461
  3
CMLEADERSTYLE
350
45E
  3
CTABLESTYLE
350
45D
  3
DIMASSOC
350
530
  3
HIDETEXT
350
52E
  3
INDEXCTL
350
52D
  3
LAYEREVAL
350
463
  3
LAYERNOTIFY
350
464
  3
LIGHTINGUNITS
350
462
  3
MSLTSCALE
350
45F
  3
SORTENTS
350
52C
  3
XCLIPFRAME
350
52F
  0
DICTIONARY
  5
4BA
102
{ACAD_REACTORS
330
C
102
}
330
C
100
AcDbDictionary
281
     1
  3
AcmStdDictionary
350
4C7
  0
DICTIONARY
  5
472
102
{ACAD_REACTORS
330
C
102
}
330
C
100
AcDbDictionary
281
     1
  0
DICTIONARY
  5
525
102
{ACAD_REACTORS
330
C
102
}
330
C
100
AcDbDictionary
281
     1
  0
XRECORD
  5
534
102
{ACAD_REACTORS
330
C
102
}
330
C
100
AcDbXrecord
280
     1
  1
DWGPROPS COOKIE
  2

  3

  4

  6

  7

  8
SSEGAWA
  9

300
AmdtFileType=84
301
=
302
=
303
=
304
=
305
=
306
=
307
=
308
=
309
=
 40
0.0000898726851852
 41
2456512.570203993
 42
2456561.428427188
  1

 90
        1
  0
XRECORD
  5
522
102
{ACAD_REACTORS
330
521
102
}
330
521
100
AcDbXrecord
280
     1
290
     1
  0
XRECORD
  5
CA
102
{ACAD_REACTORS
330
C9
102
}
330
C9
100
AcDbXrecord
280
     1
290
     1
  0
XRECORD
  5
D3
102
{ACAD_REACTORS
330
D2
102
}
330
D2
100
AcDbXrecord
280
     1
290
     1
  0
XRECORD
  5
136
102
{ACAD_REACTORS
330
135
102
}
330
135
100
AcDbXrecord
280
     1
290
     1
  0
XRECORD
  5
524
102
{ACAD_REACTORS
330
523
102
}
330
523
100
AcDbXrecord
280
     1
290
     1
  0
SORTENTSTABLE
  5
3F8
102
{ACAD_REACTORS
330
3F7
102
}
330
3F7
100
AcDbSortentsTable
330
67
  0
DIMASSOC
  5
149
102
{ACAD_REACTORS
330
148
102
}
330
148
100
AcDbDimAssoc
330
147
 90
        3
 70
     0
 71
     0
  1
AcDbOsnapPointRef
 72
     1
331
142
 73
     0
 91
        0
 40
0.0
 10
0.0
 20
0.0
 30
2.000000000000000E+50
 75
     0
  1
AcDbOsnapPointRef
 72
     8
331
13E
 73
     0
 91
        0
 40
0.9999999999999992
 10
0.0
 20
0.0
 30
0.0
 75
     1
  1
AcDbOsnapPointRef
 72
     1
331
142
 73
     0
 91
        0
 40
0.0
 10
0.0
 20
0.0
 30
2.000000000000000E+50
 75
     0
  0
DIMASSOC
  5
158
102
{ACAD_REACTORS
330
157
102
}
330
157
100
AcDbDimAssoc
330
156
 90
        3
 70
     0
 71
     0
  1
AcDbOsnapPointRef
 72
     1
331
129
 73
     0
 91
        0
 40
0.0
 10
3.141592653589792
 20
6.283585307162067
 30
2.000000000000000E+50
 75
     0
  1
AcDbOsnapPointRef
 72
     8
331
117
 73
     0
 91
        0
 40
0.9999856899487788
 10
0.0
 20
0.0
 30
0.0
 75
     1
  1
AcDbOsnapPointRef
 72
     1
331
129
 73
     0
 91
        0
 40
0.0
 10
3.141592653589792
 20
6.283585307162067
 30
2.000000000000000E+50
 75
     0
  0
DIMASSOC
  5
169
102
{ACAD_REACTORS
330
168
102
}
330
168
100
AcDbDimAssoc
330
167
 90
        3
 70
     0
 71
     0
  1
AcDbOsnapPointRef
 72
     1
331
10B
 73
     0
 91
        0
 40
0.0
 10
0.0
 20
0.0
 30
2.000000000000000E+50
 75
     0
  1
AcDbOsnapPointRef
 72
     1
331
10C
 73
     0
 91
        0
 40
0.0
 10
0.0
 20
0.0
 30
2.000000000000000E+50
 75
     0
  0
DIMASSOC
  5
179
102
{ACAD_REACTORS
330
178
102
}
330
178
100
AcDbDimAssoc
330
177
 90
        3
 70
     0
 71
     0
  1
AcDbOsnapPointRef
 72
     1
331
10E
 73
     0
 91
        0
 40
0.0
 10
0.0
 20
0.0
 30
2.000000000000000E+50
 75
     0
  1
AcDbOsnapPointRef
 72
     1
331
10C
 73
     0
 91
        0
 40
0.0
 10
0.0
 20
0.0
 30
2.000000000000000E+50
 75
     0
  0
DIMASSOC
  5
18A
102
{ACAD_REACTORS
330
189
102
}
330
189
100
AcDbDimAssoc
330
188
 90
        3
 70
     0
 71
     0
  1
AcDbOsnapPointRef
 72
     1
331
10E
 73
     0
 91
        0
 40
0.0
 10
0.0
 20
0.0
 30
2.000000000000000E+50
 75
     0
  1
AcDbOsnapPointRef
 72
     2
331
129
 73
     0
 91
        0
 40
4.712421033049033
 10
3.141592653589792
 20
6.283585307162067
 30
2.000000000000000E+50
 75
     0
  0
DIMASSOC
  5
199
102
{ACAD_REACTORS
330
198
102
}
330
198
100
AcDbDimAssoc
330
197
 90
        3
 70
     0
 71
     0
  1
AcDbOsnapPointRef
 72
     1
331
10E
 73
     0
 91
        0
 40
0.0
 10
0.0
 20
0.0
 30
2.000000000000000E+50
 75
     0
  1
AcDbOsnapPointRef
 72
    13
331
100
 73
     0
 91
        0
 40
0.0
 10
0.0
 20
0.0
 30
2.000000000000000E+50
 75
     0
  0
DIMASSOC
  5
1A8
102
{ACAD_REACTORS
330
1A7
102
}
330
1A7
100
AcDbDimAssoc
330
1A6
 90
        3
 70
     0
 71
     0
  1
AcDbOsnapPointRef
 72
    13
331
100
 73
     0
 91
        0
 40
0.0
 10
0.0
 20
0.0
 30
2.000000000000000E+50
 75
     0
  1
AcDbOsnapPointRef
 72
    13
331
101
 73
     0
 91
        0
 40
0.0
 10
0.0
 20
0.0
 30
2.000000000000000E+50
 75
     0
  0
DIMASSOC
  5
1B9
102
{ACAD_REACTORS
330
1B8
102
}
330
1B8
100
AcDbDimAssoc
330
1B7
 90
        3
 70
     0
 71
     0
  1
AcDbOsnapPointRef
 72
    13
331
102
 73
     0
 91
        0
 40
0.0
 10
0.0
 20
0.0
 30
2.000000000000000E+50
 75
     0
  1
AcDbOsnapPointRef
 72
     1
331
110
 73
     0
 91
        0
 40
0.0
 10
0.0
 20
0.0
 30
2.000000000000000E+50
 75
     0
  0
DIMASSOC
  5
1C8
102
{ACAD_REACTORS
330
1C7
102
}
330
1C7
100
AcDbDimAssoc
330
1C6
 90
        3
 70
     0
 71
     0
  1
AcDbOsnapPointRef
 72
    13
331
104
 73
     0
 91
        0
 40
0.0
 10
0.0
 20
0.0
 30
2.000000000000000E+50
 75
     0
  1
AcDbOsnapPointRef
 72
     1
331
103
 73
     0
 91
        0
 40
0.0
 10
0.0
 20
0.0
 30
2.000000000000000E+50
 75
     0
  0
DIMASSOC
  5
1D7
102
{ACAD_REACTORS
330
1D6
102
}
330
1D6
100
AcDbDimAssoc
330
1D5
 90
        3
 70
     0
 71
     0
  1
AcDbOsnapPointRef
 72
    13
331
FC
 73
     0
 91
        0
 40
0.0
 10
0.0
 20
0.0
 30
2.000000000000000E+50
 75
     0
  1
AcDbOsnapPointRef
 72
     1
331
100
 73
     0
 91
        0
 40
0.0
 10
0.0
 20
0.0
 30
2.000000000000000E+50
 75
     0
  0
XRECORD
  5
536
102
{ACAD_REACTORS
330
535
102
}
330
535
100
AcDbXrecord
280
     1
 70
     1
  0
XRECORD
  5
538
102
{ACAD_REACTORS
330
535
102
}
330
535
100
AcDbXrecord
280
     1
340
56
  0
XRECORD
  5
539
102
{ACAD_REACTORS
330
535
102
}
330
535
100
AcDbXrecord
280
     1
340
56
  0
XRECORD
  5
537
102
{ACAD_REACTORS
330
535
102
}
330
535
100
AcDbXrecord
280
     1
340
56
  0
LAYOUT
  5
6A
102
{ACAD_XDICTIONARY
360
566
102
}
102
{ACAD_REACTORS
330
5D
102
}
330
5D
100
AcDbPlotSettings
  1

  2
KONICA MINOLTA 350_250_200 PCL.pc3
  4
A4
  6

 40
5.027082920074462
 41
5.027085781097412
 42
5.027069091796875
 43
5.027069091796875
 44
209.9733276367187
 45
296.9259948730469
 46
0.0
 47
0.0
 48
0.0
 49
0.0
140
0.0
141
0.0
142
1.0
143
0.6300354483201431
 70
 11952
 72
     1
 73
     1
 74
     0
  7

 75
     0
147
1.587212279350772
148
0.3624319558772271
149
7.618264315004516
100
AcDbLayout
  1
Model
 70
     1
 71
     0
 10
0.0
 20
0.0
 11
12.0
 21
9.0
 12
0.0
 22
0.0
 32
0.0
 14
0.0
 24
0.0
 34
0.0
 15
0.0
 25
0.0
 35
0.0
146
0.0
 13
0.0
 23
0.0
 33
0.0
 16
1.0
 26
0.0
 36
0.0
 17
0.0
 27
1.0
 37
0.0
 76
     0
330
67
331
52
1001
ACAD_PSEXT
1000
KONICA MINOLTA 350_250_200 PCL.pc3
1000
KONICA MINOLTA 350/250/200 PCL
1000
IP_192.168.3.100
1000

1070
     0
  0
LAYOUT
  5
66
102
{ACAD_XDICTIONARY
360
564
102
}
102
{ACAD_REACTORS
330
5D
102
}
330
5D
100
AcDbPlotSettings
  1

  2
KONICA MINOLTA 350/250/200 PCL
  4

  6

 40
0.0
 41
0.0
 42
0.0
 43
0.0
 44
0.0
 45
0.0
 46
0.0
 47
0.0
 48
0.0
 49
0.0
140
0.0
141
0.0
142
1.0
143
1.0
 70
   688
 72
     0
 73
     0
 74
     5
  7

 75
    16
147
1.0
148
0.0
149
0.0
100
AcDbLayout
  1
レイアウト1
 70
     1
 71
     1
 10
0.0
 20
0.0
 11
12.0
 21
9.0
 12
0.0
 22
0.0
 32
0.0
 14
1.000000000000000E+20
 24
1.000000000000000E+20
 34
1.000000000000000E+20
 15
-1.000000000000000E+20
 25
-1.000000000000000E+20
 35
-1.000000000000000E+20
146
0.0
 13
0.0
 23
0.0
 33
0.0
 16
1.0
 26
0.0
 36
0.0
 17
0.0
 27
1.0
 37
0.0
 76
     0
330
63
  0
LAYOUT
  5
6E
102
{ACAD_XDICTIONARY
360
568
102
}
102
{ACAD_REACTORS
330
5D
102
}
330
5D
100
AcDbPlotSettings
  1

  2
KONICA MINOLTA 350/250/200 PCL
  4

  6

 40
0.0
 41
0.0
 42
0.0
 43
0.0
 44
0.0
 45
0.0
 46
0.0
 47
0.0
 48
0.0
 49
0.0
140
0.0
141
0.0
142
1.0
143
1.0
 70
   688
 72
     0
 73
     0
 74
     5
  7

 75
    16
147
1.0
148
0.0
149
0.0
100
AcDbLayout
  1
レイアウト2
 70
     1
 71
     2
 10
0.0
 20
0.0
 11
12.0
 21
9.0
 12
0.0
 22
0.0
 32
0.0
 14
0.0
 24
0.0
 34
0.0
 15
0.0
 25
0.0
 35
0.0
146
0.0
 13
0.0
 23
0.0
 33
0.0
 16
1.0
 26
0.0
 36
0.0
 17
0.0
 27
1.0
 37
0.0
 76
     0
330
6B
  0
MATERIAL
  5
19
102
{ACAD_XDICTIONARY
360
1A
102
}
102
{ACAD_REACTORS
330
10
102
}
330
10
100
AcDbMaterial
  1
ByBlock
 72
     0
 43
0.0208333333333333
 43
0.0
 43
0.0
 43
0.0
 43
0.0
 43
0.0208333333333333
 43
0.0
 43
0.0
 43
0.0
 43
0.0
 43
1.0
 43
0.0
 43
0.0
 43
0.0
 43
0.0
 43
1.0
 77
     0
 47
0.0208333333333333
 47
0.0
 47
0.0
 47
0.0
 47
0.0
 47
0.0208333333333333
 47
0.0
 47
0.0
 47
0.0
 47
0.0
 47
1.0
 47
0.0
 47
0.0
 47
0.0
 47
0.0
 47
1.0
171
     0
 49
0.0208333333333333
 49
0.0
 49
0.0
 49
0.0
 49
0.0
 49
0.0208333333333333
 49
0.0
 49
0.0
 49
0.0
 49
0.0
 49
1.0
 49
0.0
 49
0.0
 49
0.0
 49
0.0
 49
1.0
175
     0
142
0.0208333333333333
142
0.0
142
0.0
142
0.0
142
0.0
142
0.0208333333333333
142
0.0
142
0.0
142
0.0
142
0.0
142
1.0
142
0.0
142
0.0
142
0.0
142
0.0
142
1.0
179
     0
144
0.0208333333333333
144
0.0
144
0.0
144
0.0
144
0.0
144
0.0208333333333333
144
0.0
144
0.0
144
0.0
144
0.0
144
1.0
144
0.0
144
0.0
144
0.0
144
0.0
144
1.0
147
0.0208333333333333
147
0.0
147
0.0
147
0.0
147
0.0
147
0.0208333333333333
147
0.0
147
0.0
147
0.0
147
0.0
147
1.0
147
0.0
147
0.0
147
0.0
147
0.0
147
1.0
  0
MATERIAL
  5
11
102
{ACAD_XDICTIONARY
360
12
102
}
102
{ACAD_REACTORS
330
10
102
}
330
10
100
AcDbMaterial
  1
ByLayer
 72
     0
 43
0.0208333333333333
 43
0.0
 43
0.0
 43
0.0
 43
0.0
 43
0.0208333333333333
 43
0.0
 43
0.0
 43
0.0
 43
0.0
 43
1.0
 43
0.0
 43
0.0
 43
0.0
 43
0.0
 43
1.0
 77
     0
 47
0.0208333333333333
 47
0.0
 47
0.0
 47
0.0
 47
0.0
 47
0.0208333333333333
 47
0.0
 47
0.0
 47
0.0
 47
0.0
 47
1.0
 47
0.0
 47
0.0
 47
0.0
 47
0.0
 47
1.0
171
     0
 49
0.0208333333333333
 49
0.0
 49
0.0
 49
0.0
 49
0.0
 49
0.0208333333333333
 49
0.0
 49
0.0
 49
0.0
 49
0.0
 49
1.0
 49
0.0
 49
0.0
 49
0.0
 49
0.0
 49
1.0
175
     0
142
0.0208333333333333
142
0.0
142
0.0
142
0.0
142
0.0
142
0.0208333333333333
142
0.0
142
0.0
142
0.0
142
0.0
142
1.0
142
0.0
142
0.0
142
0.0
142
0.0
142
1.0
179
     0
144
0.0208333333333333
144
0.0
144
0.0
144
0.0
144
0.0
144
0.0208333333333333
144
0.0
144
0.0
144
0.0
144
0.0
144
1.0
144
0.0
144
0.0
144
0.0
144
0.0
144
1.0
147
0.0208333333333333
147
0.0
147
0.0
147
0.0
147
0.0
147
0.0208333333333333
147
0.0
147
0.0
147
0.0
147
0.0
147
1.0
147
0.0
147
0.0
147
0.0
147
0.0
147
1.0
  0
MATERIAL
  5
21
102
{ACAD_XDICTIONARY
360
22
102
}
102
{ACAD_REACTORS
330
10
102
}
330
10
100
AcDbMaterial
  1
Global
 72
     0
 43
0.0208333333333333
 43
0.0
 43
0.0
 43
0.0
 43
0.0
 43
0.0208333333333333
 43
0.0
 43
0.0
 43
0.0
 43
0.0
 43
1.0
 43
0.0
 43
0.0
 43
0.0
 43
0.0
 43
1.0
 77
     0
 47
0.0208333333333333
 47
0.0
 47
0.0
 47
0.0
 47
0.0
 47
0.0208333333333333
 47
0.0
 47
0.0
 47
0.0
 47
0.0
 47
1.0
 47
0.0
 47
0.0
 47
0.0
 47
0.0
 47
1.0
171
     0
 49
0.0208333333333333
 49
0.0
 49
0.0
 49
0.0
 49
0.0
 49
0.0208333333333333
 49
0.0
 49
0.0
 49
0.0
 49
0.0
 49
1.0
 49
0.0
 49
0.0
 49
0.0
 49
0.0
 49
1.0
175
     0
142
0.0208333333333333
142
0.0
142
0.0
142
0.0
142
0.0
142
0.0208333333333333
142
0.0
142
0.0
142
0.0
142
0.0
142
1.0
142
0.0
142
0.0
142
0.0
142
0.0
142
1.0
179
     0
144
0.0208333333333333
144
0.0
144
0.0
144
0.0
144
0.0
144
0.0208333333333333
144
0.0
144
0.0
144
0.0
144
0.0
144
1.0
144
0.0
144
0.0
144
0.0
144
0.0
144
1.0
147
0.0208333333333333
147
0.0
147
0.0
147
0.0
147
0.0
147
0.0208333333333333
147
0.0
147
0.0
147
0.0
147
0.0
147
1.0
147
0.0
147
0.0
147
0.0
147
0.0
147
1.0
  0
MLEADERSTYLE
  5
62
102
{ACAD_REACTORS
330
61
102
}
330
61
100
AcDbMLeaderStyle
170
     2
171
     1
172
     0
 90
        2
 40
0.0
 41
0.0
173
     1
 91
-1056964608
340
56
 92
       -2
290
     1
 42
0.09
291
     1
 43
0.36
  3
Standard
 44
0.18
300

342
50
174
     1
178
     6
175
     1
176
     0
 93
-1056964608
 45
0.18
292
     0
297
     0
 46
0.18
 94
-1056964608
 47
1.0
 49
1.0
140
1.0
293
     1
141
0.0
294
     1
177
     0
142
1.0
295
     0
296
     0
143
0.125
1001
ACAD_MLEADERVER
1070
     2
  0
MLINESTYLE
  5
5B
102
{ACAD_REACTORS
330
5A
102
}
330
5A
100
AcDbMlineStyle
  2
STANDARD
 70
     0
  3

 62
   256
 51
90.0
 52
90.0
 71
     2
 49
0.5
 62
   256
  6
BYLAYER
 49
-0.5
 62
   256
  6
BYLAYER
  0
ACDBPLACEHOLDER
  5
F
102
{ACAD_REACTORS
330
E
102
}
330
E
  0
SCALE
  5
B5
102
{ACAD_REACTORS
330
3D
102
}
330
3D
100
AcDbScale
 70
     0
300
1.5:1
140
1.5
141
1.0
290
     0
  0
SCALE
  5
C6
102
{ACAD_REACTORS
330
3D
102
}
330
3D
100
AcDbScale
 70
     0
300
1'-0" = 1'-0"
140
12.0
141
12.0
290
     0
  0
SCALE
  5
B6
102
{ACAD_REACTORS
330
3D
102
}
330
3D
100
AcDbScale
 70
     0
300
1.25:1
140
1.25
141
1.0
290
     0
  0
SCALE
  5
B7
102
{ACAD_REACTORS
330
3D
102
}
330
3D
100
AcDbScale
 70
     0
300
1/128" = 1'-0"
140
0.0078125
141
12.0
290
     0
  0
SCALE
  5
B8
102
{ACAD_REACTORS
330
3D
102
}
330
3D
100
AcDbScale
 70
     0
300
1/64" = 1'-0"
140
0.015625
141
12.0
290
     0
  0
SCALE
  5
B9
102
{ACAD_REACTORS
330
3D
102
}
330
3D
100
AcDbScale
 70
     0
300
1/32" = 1'-0"
140
0.03125
141
12.0
290
     0
  0
SCALE
  5
BA
102
{ACAD_REACTORS
330
3D
102
}
330
3D
100
AcDbScale
 70
     0
300
1/16" = 1'-0"
140
0.0625
141
12.0
290
     0
  0
SCALE
  5
BB
102
{ACAD_REACTORS
330
3D
102
}
330
3D
100
AcDbScale
 70
     0
300
3/32" = 1'-0"
140
0.09375
141
12.0
290
     0
  0
SCALE
  5
BC
102
{ACAD_REACTORS
330
3D
102
}
330
3D
100
AcDbScale
 70
     0
300
1/8" = 1'-0"
140
0.125
141
12.0
290
     0
  0
SCALE
  5
BD
102
{ACAD_REACTORS
330
3D
102
}
330
3D
100
AcDbScale
 70
     0
300
3/16" = 1'-0"
140
0.1875
141
12.0
290
     0
  0
SCALE
  5
BE
102
{ACAD_REACTORS
330
3D
102
}
330
3D
100
AcDbScale
 70
     0
300
1/4" = 1'-0"
140
0.25
141
12.0
290
     0
  0
SCALE
  5
BF
102
{ACAD_REACTORS
330
3D
102
}
330
3D
100
AcDbScale
 70
     0
300
3/8" = 1'-0"
140
0.375
141
12.0
290
     0
  0
SCALE
  5
C0
102
{ACAD_REACTORS
330
3D
102
}
330
3D
100
AcDbScale
 70
     0
300
1/2" = 1'-0"
140
0.5
141
12.0
290
     0
  0
SCALE
  5
C1
102
{ACAD_REACTORS
330
3D
102
}
330
3D
100
AcDbScale
 70
     0
300
3/4" = 1'-0"
140
0.75
141
12.0
290
     0
  0
SCALE
  5
C2
102
{ACAD_REACTORS
330
3D
102
}
330
3D
100
AcDbScale
 70
     0
300
1" = 1'-0"
140
1.0
141
12.0
290
     0
  0
SCALE
  5
C3
102
{ACAD_REACTORS
330
3D
102
}
330
3D
100
AcDbScale
 70
     0
300
1-1/2" = 1'-0"
140
1.5
141
12.0
290
     0
  0
SCALE
  5
C4
102
{ACAD_REACTORS
330
3D
102
}
330
3D
100
AcDbScale
 70
     0
300
3" = 1'-0"
140
3.0
141
12.0
290
     0
  0
SCALE
  5
C5
102
{ACAD_REACTORS
330
3D
102
}
330
3D
100
AcDbScale
 70
     0
300
6" = 1'-0"
140
6.0
141
12.0
290
     0
  0
SCALE
  5
3E
102
{ACAD_REACTORS
330
3D
102
}
330
3D
100
AcDbScale
 70
     0
300
1:1
140
1.0
141
1.0
290
     1
  0
SCALE
  5
3F
102
{ACAD_REACTORS
330
3D
102
}
330
3D
100
AcDbScale
 70
     0
300
1:2
140
1.0
141
2.0
290
     0
  0
SCALE
  5
40
102
{ACAD_REACTORS
330
3D
102
}
330
3D
100
AcDbScale
 70
     0
300
1:4
140
1.0
141
4.0
290
     0
  0
SCALE
  5
41
102
{ACAD_REACTORS
330
3D
102
}
330
3D
100
AcDbScale
 70
     0
300
1:5
140
1.0
141
5.0
290
     0
  0
SCALE
  5
42
102
{ACAD_REACTORS
330
3D
102
}
330
3D
100
AcDbScale
 70
     0
300
1:8
140
1.0
141
8.0
290
     0
  0
SCALE
  5
43
102
{ACAD_REACTORS
330
3D
102
}
330
3D
100
AcDbScale
 70
     0
300
1:10
140
1.0
141
10.0
290
     0
  0
SCALE
  5
44
102
{ACAD_REACTORS
330
3D
102
}
330
3D
100
AcDbScale
 70
     0
300
1:16
140
1.0
141
16.0
290
     0
  0
SCALE
  5
45
102
{ACAD_REACTORS
330
3D
102
}
330
3D
100
AcDbScale
 70
     0
300
1:20
140
1.0
141
20.0
290
     0
  0
SCALE
  5
46
102
{ACAD_REACTORS
330
3D
102
}
330
3D
100
AcDbScale
 70
     0
300
1:30
140
1.0
141
30.0
290
     0
  0
SCALE
  5
47
102
{ACAD_REACTORS
330
3D
102
}
330
3D
100
AcDbScale
 70
     0
300
1:40
140
1.0
141
40.0
290
     0
  0
SCALE
  5
48
102
{ACAD_REACTORS
330
3D
102
}
330
3D
100
AcDbScale
 70
     0
300
1:50
140
1.0
141
50.0
290
     0
  0
SCALE
  5
49
102
{ACAD_REACTORS
330
3D
102
}
330
3D
100
AcDbScale
 70
     0
300
1:100
140
1.0
141
100.0
290
     0
  0
SCALE
  5
4A
102
{ACAD_REACTORS
330
3D
102
}
330
3D
100
AcDbScale
 70
     0
300
2:1
140
2.0
141
1.0
290
     0
  0
SCALE
  5
4B
102
{ACAD_REACTORS
330
3D
102
}
330
3D
100
AcDbScale
 70
     0
300
4:1
140
4.0
141
1.0
290
     0
  0
SCALE
  5
4C
102
{ACAD_REACTORS
330
3D
102
}
330
3D
100
AcDbScale
 70
     0
300
8:1
140
8.0
141
1.0
290
     0
  0
SCALE
  5
4D
102
{ACAD_REACTORS
330
3D
102
}
330
3D
100
AcDbScale
 70
     0
300
10:1
140
10.0
141
1.0
290
     0
  0
SCALE
  5
4E
102
{ACAD_REACTORS
330
3D
102
}
330
3D
100
AcDbScale
 70
     0
300
100:1
140
100.0
141
1.0
290
     0
  0
TABLESTYLE
  5
60
102
{ACAD_XDICTIONARY
360
531
102
}
102
{ACAD_REACTORS
330
5F
102
}
330
5F
100
AcDbTableStyle
  3
Standard
 70
     0
 71
     3
 40
1.5
 41
1.5
280
     0
281
     0
  7
STANDARD
140
4.5
170
     2
 62
     0
 63
     7
283
     0
274
    -2
284
     1
 64
     0
275
    -2
285
     1
 65
     0
276
    -2
286
     1
 66
     0
277
    -2
287
     1
 67
     0
278
    -2
288
     1
 68
     0
279
    -2
289
     1
 69
     0
  7
STANDARD
140
6.0
170
     5
 62
     0
 63
     7
283
     0
274
    -2
284
     1
 64
     0
275
    -2
285
     1
 65
     0
276
    -2
286
     1
 66
     0
277
    -2
287
     1
 67
     0
278
    -2
288
     1
 68
     0
279
    -2
289
     1
 69
     0
  7
STANDARD
140
4.5
170
     5
 62
     0
 63
     7
283
     0
274
    -2
284
     1
 64
     0
275
    -2
285
     1
 65
     0
276
    -2
286
     1
 66
     0
277
    -2
287
     1
 67
     0
278
    -2
288
     1
 68
     0
279
    -2
289
     1
 69
     0
  0
VISUALSTYLE
  5
2F
102
{ACAD_XDICTIONARY
360
547
102
}
102
{ACAD_REACTORS
330
29
102
}
330
29
100
AcDbVisualStyle
  2
2dWireframe
 70
     4
 71
     0
 72
     2
 73
     0
 90
        0
 40
-0.6
 41
-30.0
 62
     5
 63
     7
 74
     1
 91
        4
 64
     7
 65
   257
 75
     1
175
     1
 42
1.0
 92
        0
 66
   257
 43
1.0
 76
     1
 77
     6
 78
     2
 67
     7
 79
     5
170
     0
171
     0
290
     0
174
     0
 93
        1
 44
0.0
173
     0
291
     0
 45
0.0
1001
ACAD
1000
AcDbSavedByObjectVersion
1070
     0
  0
VISUALSTYLE
  5
31
102
{ACAD_XDICTIONARY
360
54B
102
}
102
{ACAD_REACTORS
330
29
102
}
330
29
100
AcDbVisualStyle
  2
3D Hidden
 70
     6
 71
     1
 72
     2
 73
     2
 90
        0
 40
-0.6
 41
-30.0
 62
     5
 63
     7
 74
     2
 91
        2
 64
     7
 65
   257
 75
     2
175
     1
 42
179.0
 92
        0
 66
   257
 43
1.0
 76
     1
 77
     6
 78
     2
 67
     7
 79
     3
170
     0
171
     0
290
     0
174
     0
 93
        1
 44
0.0
173
     0
291
     0
 45
0.0
1001
ACAD
1000
AcDbSavedByObjectVersion
1070
     0
  0
VISUALSTYLE
  5
30
102
{ACAD_XDICTIONARY
360
549
102
}
102
{ACAD_REACTORS
330
29
102
}
330
29
100
AcDbVisualStyle
  2
3dWireframe
 70
     5
 71
     0
 72
     2
 73
     0
 90
        0
 40
-0.6
 41
-30.0
 62
     5
 63
     7
 74
     1
 91
        4
 64
     7
 65
   257
 75
     1
175
     1
 42
1.0
 92
        0
 66
   257
 43
1.0
 76
     1
 77
     6
 78
     2
 67
     7
 79
     5
170
     0
171
     0
290
     0
174
     0
 93
        1
 44
0.0
173
     0
291
     0
 45
0.0
1001
ACAD
1000
AcDbSavedByObjectVersion
1070
     0
  0
VISUALSTYLE
  5
2E
102
{ACAD_XDICTIONARY
360
545
102
}
102
{ACAD_REACTORS
330
29
102
}
330
29
100
AcDbVisualStyle
  2
Basic
 70
     7
 71
     1
 72
     0
 73
     1
 90
        0
 40
-0.6
 41
-30.0
 62
     5
 63
     7
 74
     0
 91
        4
 64
     7
 65
   257
 75
     1
175
     1
 42
1.0
 92
        8
 66
     7
 43
1.0
 76
     1
 77
     6
 78
     2
 67
     7
 79
     5
170
     0
171
     0
290
     0
174
     0
 93
        1
 44
0.0
173
     0
291
     1
 45
0.0
1001
ACAD
1000
AcDbSavedByObjectVersion
1070
     0
  0
VISUALSTYLE
  5
35
102
{ACAD_XDICTIONARY
360
553
102
}
102
{ACAD_REACTORS
330
29
102
}
330
29
100
AcDbVisualStyle
  2
Brighten
 70
    12
 71
     2
 72
     2
 73
     0
 90
        0
 40
-0.6
 41
-30.0
 62
     5
 63
     7
 74
     1
 91
        4
 64
     7
 65
   257
 75
     1
175
     1
 42
1.0
 92
        8
 66
     7
 43
1.0
 76
     1
 77
     6
 78
     2
 67
     7
 79
     5
170
     0
171
     0
290
     0
174
     0
 93
        1
 44
50.0
173
     0
291
     1
 45
0.0
1001
ACAD
1000
AcDbSavedByObjectVersion
1070
     0
  0
VISUALSTYLE
  5
39
102
{ACAD_XDICTIONARY
360
55B
102
}
102
{ACAD_REACTORS
330
29
102
}
330
29
100
AcDbVisualStyle
  2
ColorChange
 70
    16
 71
     2
 72
     2
 73
     3
 90
        0
 40
-0.6
 41
-30.0
 62
     5
 63
     8
 74
     1
 91
        4
 64
     7
 65
   257
 75
     1
175
     1
 42
1.0
 92
        8
 66
     8
 43
1.0
 76
     1
 77
     6
 78
     2
 67
     7
 79
     5
170
     0
171
     0
290
     0
174
     0
 93
        1
 44
0.0
173
     0
291
     1
 45
0.0
1001
ACAD
1000
AcDbSavedByObjectVersion
1070
     0
  0
VISUALSTYLE
  5
32
102
{ACAD_XDICTIONARY
360
54D
102
}
102
{ACAD_REACTORS
330
29
102
}
330
29
100
AcDbVisualStyle
  2
Conceptual
 70
     9
 71
     3
 72
     2
 73
     0
 90
        0
 40
-0.6
 41
-30.0
 62
     5
 63
     7
 74
     2
 91
        2
 64
     7
 65
   257
 75
     1
175
     1
 42
179.0
 92
        8
 66
     7
 43
1.0
 76
     1
 77
     6
 78
     2
 67
     7
 79
     3
170
     0
171
     0
290
     0
174
     0
 93
        1
 44
0.0
173
     0
291
     0
 45
0.0
1001
ACAD
1000
AcDbSavedByObjectVersion
1070
     0
  0
VISUALSTYLE
  5
34
102
{ACAD_XDICTIONARY
360
551
102
}
102
{ACAD_REACTORS
330
29
102
}
330
29
100
AcDbVisualStyle
  2
Dim
 70
    11
 71
     2
 72
     2
 73
     0
 90
        0
 40
-0.6
 41
-30.0
 62
     5
 63
     7
 74
     1
 91
        4
 64
     7
 65
   257
 75
     1
175
     1
 42
1.0
 92
        8
 66
     7
 43
1.0
 76
     1
 77
     6
 78
     2
 67
     7
 79
     5
170
     0
171
     0
290
     0
174
     0
 93
        1
 44
-50.0
173
     0
291
     1
 45
0.0
1001
ACAD
1000
AcDbSavedByObjectVersion
1070
     0
  0
VISUALSTYLE
  5
3C
102
{ACAD_XDICTIONARY
360
561
102
}
102
{ACAD_REACTORS
330
29
102
}
330
29
100
AcDbVisualStyle
  2
EdgeColorOff
 70
    22
 71
     2
 72
     2
 73
     0
 90
        0
 40
-0.6
 41
-30.0
 62
     5
 63
     7
 74
     1
 91
        4
 64
     7
 65
   257
 75
     1
175
     1
 42
1.0
 92
        8
 66
     7
 43
1.0
 76
     1
 77
     6
 78
     2
 67
     7
 79
     5
170
     0
171
     0
290
     0
174
     0
 93
        1
 44
0.0
173
     0
291
     1
 45
0.0
1001
ACAD
1000
AcDbSavedByObjectVersion
1070
     0
  0
VISUALSTYLE
  5
38
102
{ACAD_XDICTIONARY
360
559
102
}
102
{ACAD_REACTORS
330
29
102
}
330
29
100
AcDbVisualStyle
  2
Facepattern
 70
    15
 71
     2
 72
     2
 73
     0
 90
        0
 40
-0.6
 41
-30.0
 62
     5
 63
     7
 74
     1
 91
        4
 64
     7
 65
   257
 75
     1
175
     1
 42
1.0
 92
        8
 66
     7
 43
1.0
 76
     1
 77
     6
 78
     2
 67
     7
 79
     5
170
     0
171
     0
290
     0
174
     0
 93
        1
 44
0.0
173
     0
291
     1
 45
0.0
1001
ACAD
1000
AcDbSavedByObjectVersion
1070
     0
  0
VISUALSTYLE
  5
2A
102
{ACAD_XDICTIONARY
360
53D
102
}
102
{ACAD_REACTORS
330
29
102
}
330
29
100
AcDbVisualStyle
  2
Flat
 70
     0
 71
     2
 72
     1
 73
     1
 90
        2
 40
-0.6
 41
30.0
 62
     5
 63
     7
 74
     0
 91
        4
 64
     7
 65
   257
 75
     1
175
     1
 42
1.0
 92
        8
 66
     7
 43
1.0
 76
     1
 77
     6
 78
     2
 67
     7
 79
     5
170
     0
171
     0
290
     0
174
     0
 93
       13
 44
0.0
173
     0
291
     1
 45
0.0
1001
ACAD
1000
AcDbSavedByObjectVersion
1070
     0
  0
VISUALSTYLE
  5
2B
102
{ACAD_XDICTIONARY
360
53F
102
}
102
{ACAD_REACTORS
330
29
102
}
330
29
100
AcDbVisualStyle
  2
FlatWithEdges
 70
     1
 71
     2
 72
     1
 73
     1
 90
        2
 40
-0.6
 41
30.0
 62
     5
 63
     7
 74
     1
 91
        4
 64
     7
 65
   257
 75
     1
175
     1
 42
1.0
 92
        0
 66
   257
 43
1.0
 76
     1
 77
     6
 78
     2
 67
     7
 79
     5
170
     0
171
     0
290
     0
174
     0
 93
       13
 44
0.0
173
     0
291
     1
 45
0.0
1001
ACAD
1000
AcDbSavedByObjectVersion
1070
     0
  0
VISUALSTYLE
  5
2C
102
{ACAD_XDICTIONARY
360
541
102
}
102
{ACAD_REACTORS
330
29
102
}
330
29
100
AcDbVisualStyle
  2
Gouraud
 70
     2
 71
     2
 72
     2
 73
     1
 90
        2
 40
-0.6
 41
30.0
 62
     5
 63
     7
 74
     0
 91
        4
 64
     7
 65
   257
 75
     1
175
     1
 42
1.0
 92
        0
 66
     7
 43
1.0
 76
     1
 77
     6
 78
     2
 67
     7
 79
     5
170
     0
171
     0
290
     0
174
     0
 93
       13
 44
0.0
173
     0
291
     1
 45
0.0
1001
ACAD
1000
AcDbSavedByObjectVersion
1070
     0
  0
VISUALSTYLE
  5
2D
102
{ACAD_XDICTIONARY
360
543
102
}
102
{ACAD_REACTORS
330
29
102
}
330
29
100
AcDbVisualStyle
  2
GouraudWithEdges
 70
     3
 71
     2
 72
     2
 73
     1
 90
        2
 40
-0.6
 41
30.0
 62
     5
 63
     7
 74
     1
 91
        4
 64
     7
 65
   257
 75
     1
175
     1
 42
1.0
 92
        0
 66
   257
 43
1.0
 76
     1
 77
     6
 78
     2
 67
     7
 79
     5
170
     0
171
     0
290
     0
174
     0
 93
       13
 44
0.0
173
     0
291
     1
 45
0.0
1001
ACAD
1000
AcDbSavedByObjectVersion
1070
     0
  0
VISUALSTYLE
  5
3A
102
{ACAD_XDICTIONARY
360
55D
102
}
102
{ACAD_REACTORS
330
29
102
}
330
29
100
AcDbVisualStyle
  2
JitterOff
 70
    20
 71
     2
 72
     2
 73
     0
 90
        0
 40
-0.6
 41
-30.0
 62
     5
 63
     7
 74
     1
 91
        4
 64
     7
 65
   257
 75
     1
175
     1
 42
1.0
 92
       10
 66
     7
 43
1.0
 76
     1
 77
     6
 78
     2
 67
     7
 79
     5
170
     0
171
     0
290
     0
174
     0
 93
        1
 44
0.0
173
     0
291
     1
 45
0.0
1001
ACAD
1000
AcDbSavedByObjectVersion
1070
     0
  0
VISUALSTYLE
  5
37
102
{ACAD_XDICTIONARY
360
557
102
}
102
{ACAD_REACTORS
330
29
102
}
330
29
100
AcDbVisualStyle
  2
Linepattern
 70
    14
 71
     2
 72
     2
 73
     0
 90
        0
 40
-0.6
 41
-30.0
 62
     5
 63
     7
 74
     1
 91
        4
 64
     7
 65
   257
 75
     7
175
     7
 42
1.0
 92
        8
 66
     7
 43
1.0
 76
     1
 77
     6
 78
     2
 67
     7
 79
     5
170
     0
171
     0
290
     0
174
     0
 93
        1
 44
0.0
173
     0
291
     1
 45
0.0
1001
ACAD
1000
AcDbSavedByObjectVersion
1070
     0
  0
VISUALSTYLE
  5
3B
102
{ACAD_XDICTIONARY
360
55F
102
}
102
{ACAD_REACTORS
330
29
102
}
330
29
100
AcDbVisualStyle
  2
OverhangOff
 70
    21
 71
     2
 72
     2
 73
     0
 90
        0
 40
-0.6
 41
-30.0
 62
     5
 63
     7
 74
     1
 91
        4
 64
     7
 65
   257
 75
     1
175
     1
 42
1.0
 92
        9
 66
     7
 43
1.0
 76
     1
 77
     6
 78
     2
 67
     7
 79
     5
170
     0
171
     0
290
     0
174
     0
 93
        1
 44
0.0
173
     0
291
     1
 45
0.0
1001
ACAD
1000
AcDbSavedByObjectVersion
1070
     0
  0
VISUALSTYLE
  5
33
102
{ACAD_XDICTIONARY
360
54F
102
}
102
{ACAD_REACTORS
330
29
102
}
330
29
100
AcDbVisualStyle
  2
Realistic
 70
     8
 71
     2
 72
     2
 73
     0
 90
        0
 40
-0.6
 41
-30.0
 62
     5
 63
     7
 74
     1
 91
        0
 64
     7
 65
   257
 75
     1
175
     1
 42
1.0
 92
        8
 66
     8
 43
1.0
 76
     1
 77
     6
 78
     2
 67
     7
 79
     5
170
     0
171
     0
290
     0
174
     0
 93
       13
 44
0.0
173
     0
291
     0
 45
0.0
1001
ACAD
1000
AcDbSavedByObjectVersion
1070
     0
  0
VISUALSTYLE
  5
36
102
{ACAD_XDICTIONARY
360
555
102
}
102
{ACAD_REACTORS
330
29
102
}
330
29
100
AcDbVisualStyle
  2
Thicken
 70
    13
 71
     2
 72
     2
 73
     0
 90
        0
 40
-0.6
 41
-30.0
 62
     5
 63
     7
 74
     1
 91
        4
 64
     7
 65
   257
 75
     1
175
     1
 42
1.0
 92
       12
 66
     7
 43
1.0
 76
     1
 77
     6
 78
     2
 67
     7
 79
     5
170
     0
171
     0
290
     0
174
     0
 93
        1
 44
0.0
173
     0
291
     1
 45
0.0
1001
ACAD
1000
AcDbSavedByObjectVersion
1070
     0
  0
DICTIONARYVAR
  5
460
102
{ACAD_REACTORS
330
45C
102
}
330
45C
100
DictionaryVariables
280
     0
  1
1
  0
DICTIONARYVAR
  5
461
102
{ACAD_REACTORS
330
45C
102
}
330
45C
100
DictionaryVariables
280
     0
  1
1:1
  0
DICTIONARYVAR
  5
45E
102
{ACAD_REACTORS
330
45C
102
}
330
45C
100
DictionaryVariables
280
     0
  1
STANDARD
  0
DICTIONARYVAR
  5
45D
102
{ACAD_REACTORS
330
45C
102
}
330
45C
100
DictionaryVariables
280
     0
  1
STANDARD
  0
DICTIONARYVAR
  5
530
102
{ACAD_REACTORS
330
45C
102
}
330
45C
100
DictionaryVariables
280
     0
  1
2
  0
DICTIONARYVAR
  5
52E
102
{ACAD_REACTORS
330
45C
102
}
330
45C
100
DictionaryVariables
280
     0
  1
1
  0
DICTIONARYVAR
  5
52D
102
{ACAD_REACTORS
330
45C
102
}
330
45C
100
DictionaryVariables
280
     0
  1
0
  0
DICTIONARYVAR
  5
463
102
{ACAD_REACTORS
330
45C
102
}
330
45C
100
DictionaryVariables
280
     0
  1
1
  0
DICTIONARYVAR
  5
464
102
{ACAD_REACTORS
330
45C
102
}
330
45C
100
DictionaryVariables
280
     0
  1
15
  0
DICTIONARYVAR
  5
462
102
{ACAD_REACTORS
330
45C
102
}
330
45C
100
DictionaryVariables
280
     0
  1
0
  0
DICTIONARYVAR
  5
45F
102
{ACAD_REACTORS
330
45C
102
}
330
45C
100
DictionaryVariables
280
     0
  1
0
  0
DICTIONARYVAR
  5
52C
102
{ACAD_REACTORS
330
45C
102
}
330
45C
100
DictionaryVariables
280
     0
  1
127
  0
DICTIONARYVAR
  5
52F
102
{ACAD_REACTORS
330
45C
102
}
330
45C
100
DictionaryVariables
280
     0
  1
0
  0
DICTIONARY
  5
4C7
102
{ACAD_REACTORS
330
4BA
102
}
330
4BA
100
AcDbDictionary
281
     1
  0
DICTIONARY
  5
566
330
6A
100
AcDbDictionary
280
     1
281
     1
  3
ACAD_XREC_ROUNDTRIP
360
567
  0
DICTIONARY
  5
564
330
66
100
AcDbDictionary
280
     1
281
     1
  3
ACAD_XREC_ROUNDTRIP
360
565
  0
DICTIONARY
  5
568
330
6E
100
AcDbDictionary
280
     1
281
     1
  3
ACAD_XREC_ROUNDTRIP
360
569
  0
DICTIONARY
  5
1A
330
19
100
AcDbDictionary
280
     1
281
     1
  3
ACAD_XREC_ROUNDTRIP
360
53B
  3
BUMPTILE
360
1C
  3
DIFFUSETILE
360
1B
  3
OPACITYTILE
360
1F
  3
REFLECTIONTILE
360
1E
  3
REFRACTIONTILE
360
20
  3
SPECULARTILE
360
1D
  0
DICTIONARY
  5
12
330
11
100
AcDbDictionary
280
     1
281
     1
  3
ACAD_XREC_ROUNDTRIP
360
53A
  3
BUMPTILE
360
14
  3
DIFFUSETILE
360
13
  3
OPACITYTILE
360
17
  3
REFLECTIONTILE
360
16
  3
REFRACTIONTILE
360
18
  3
SPECULARTILE
360
15
  0
DICTIONARY
  5
22
330
21
100
AcDbDictionary
280
     1
281
     1
  3
ACAD_XREC_ROUNDTRIP
360
53C
  3
BUMPTILE
360
24
  3
DIFFUSETILE
360
23
  3
OPACITYTILE
360
27
  3
REFLECTIONTILE
360
26
  3
REFRACTIONTILE
360
28
  3
SPECULARTILE
360
25
  0
DICTIONARY
  5
531
330
60
100
AcDbDictionary
280
     1
281
     1
  3
ACAD_ROUNDTRIP_2008_TABLESTYLE_CELLSTYLEMAP
360
532
  3
ACAD_XREC_ROUNDTRIP
360
563
  0
DICTIONARY
  5
547
330
2F
100
AcDbDictionary
280
     1
281
     1
  3
ACAD_XREC_ROUNDTRIP
360
548
  0
DICTIONARY
  5
54B
330
31
100
AcDbDictionary
280
     1
281
     1
  3
ACAD_XREC_ROUNDTRIP
360
54C
  0
DICTIONARY
  5
549
330
30
100
AcDbDictionary
280
     1
281
     1
  3
ACAD_XREC_ROUNDTRIP
360
54A
  0
DICTIONARY
  5
545
330
2E
100
AcDbDictionary
280
     1
281
     1
  3
ACAD_XREC_ROUNDTRIP
360
546
  0
DICTIONARY
  5
553
330
35
100
AcDbDictionary
280
     1
281
     1
  3
ACAD_XREC_ROUNDTRIP
360
554
  0
DICTIONARY
  5
55B
330
39
100
AcDbDictionary
280
     1
281
     1
  3
ACAD_XREC_ROUNDTRIP
360
55C
  0
DICTIONARY
  5
54D
330
32
100
AcDbDictionary
280
     1
281
     1
  3
ACAD_XREC_ROUNDTRIP
360
54E
  0
DICTIONARY
  5
551
330
34
100
AcDbDictionary
280
     1
281
     1
  3
ACAD_XREC_ROUNDTRIP
360
552
  0
DICTIONARY
  5
561
330
3C
100
AcDbDictionary
280
     1
281
     1
  3
ACAD_XREC_ROUNDTRIP
360
562
  0
DICTIONARY
  5
559
330
38
100
AcDbDictionary
280
     1
281
     1
  3
ACAD_XREC_ROUNDTRIP
360
55A
  0
DICTIONARY
  5
53D
330
2A
100
AcDbDictionary
280
     1
281
     1
  3
ACAD_XREC_ROUNDTRIP
360
53E
  0
DICTIONARY
  5
53F
330
2B
100
AcDbDictionary
280
     1
281
     1
  3
ACAD_XREC_ROUNDTRIP
360
540
  0
DICTIONARY
  5
541
330
2C
100
AcDbDictionary
280
     1
281
     1
  3
ACAD_XREC_ROUNDTRIP
360
542
  0
DICTIONARY
  5
543
330
2D
100
AcDbDictionary
280
     1
281
     1
  3
ACAD_XREC_ROUNDTRIP
360
544
  0
DICTIONARY
  5
55D
330
3A
100
AcDbDictionary
280
     1
281
     1
  3
ACAD_XREC_ROUNDTRIP
360
55E
  0
DICTIONARY
  5
557
330
37
100
AcDbDictionary
280
     1
281
     1
  3
ACAD_XREC_ROUNDTRIP
360
558
  0
DICTIONARY
  5
55F
330
3B
100
AcDbDictionary
280
     1
281
     1
  3
ACAD_XREC_ROUNDTRIP
360
560
  0
DICTIONARY
  5
54F
330
33
100
AcDbDictionary
280
     1
281
     1
  3
ACAD_XREC_ROUNDTRIP
360
550
  0
DICTIONARY
  5
555
330
36
100
AcDbDictionary
280
     1
281
     1
  3
ACAD_XREC_ROUNDTRIP
360
556
  0
XRECORD
  5
567
102
{ACAD_REACTORS
330
566
102
}
330
566
100
AcDbXrecord
280
     1
102
SHADEPLOT
 70
     0
102
SHADEPLOTRESLEVEL
 70
     2
102
SHADEPLOTCUSTOMDPI
 70
   300
  0
XRECORD
  5
565
102
{ACAD_REACTORS
330
564
102
}
330
564
100
AcDbXrecord
280
     1
102
SHADEPLOT
 70
     0
102
SHADEPLOTRESLEVEL
 70
     2
102
SHADEPLOTCUSTOMDPI
 70
   300
  0
XRECORD
  5
569
102
{ACAD_REACTORS
330
568
102
}
330
568
100
AcDbXrecord
280
     1
102
SHADEPLOT
 70
     0
102
SHADEPLOTRESLEVEL
 70
     2
102
SHADEPLOTCUSTOMDPI
 70
   300
  0
XRECORD
  5
53B
102
{ACAD_REACTORS
330
1A
102
}
330
1A
100
AcDbXrecord
280
     1
102
MATERIAL
148
0.0
149
0.0
149
0.0
 93
        0
 94
      127
282
     0
 72
     0
 77
     0
171
     0
175
     0
179
     0
273
     0
  0
XRECORD
  5
1C
102
{ACAD_REACTORS
330
1A
102
}
330
1A
100
AcDbXrecord
280
     1
270
     1
271
     1
  0
XRECORD
  5
1B
102
{ACAD_REACTORS
330
1A
102
}
330
1A
100
AcDbXrecord
280
     1
270
     1
271
     1
  0
XRECORD
  5
1F
102
{ACAD_REACTORS
330
1A
102
}
330
1A
100
AcDbXrecord
280
     1
270
     1
271
     1
  0
XRECORD
  5
1E
102
{ACAD_REACTORS
330
1A
102
}
330
1A
100
AcDbXrecord
280
     1
270
     1
271
     1
  0
XRECORD
  5
20
102
{ACAD_REACTORS
330
1A
102
}
330
1A
100
AcDbXrecord
280
     1
270
     1
271
     1
  0
XRECORD
  5
1D
102
{ACAD_REACTORS
330
1A
102
}
330
1A
100
AcDbXrecord
280
     1
270
     1
271
     1
  0
XRECORD
  5
53A
102
{ACAD_REACTORS
330
12
102
}
330
12
100
AcDbXrecord
280
     1
102
MATERIAL
148
0.0
149
0.0
149
0.0
 93
        0
 94
      127
282
     0
 72
     0
 77
     0
171
     0
175
     0
179
     0
273
     0
  0
XRECORD
  5
14
102
{ACAD_REACTORS
330
12
102
}
330
12
100
AcDbXrecord
280
     1
270
     1
271
     1
  0
XRECORD
  5
13
102
{ACAD_REACTORS
330
12
102
}
330
12
100
AcDbXrecord
280
     1
270
     1
271
     1
  0
XRECORD
  5
17
102
{ACAD_REACTORS
330
12
102
}
330
12
100
AcDbXrecord
280
     1
270
     1
271
     1
  0
XRECORD
  5
16
102
{ACAD_REACTORS
330
12
102
}
330
12
100
AcDbXrecord
280
     1
270
     1
271
     1
  0
XRECORD
  5
18
102
{ACAD_REACTORS
330
12
102
}
330
12
100
AcDbXrecord
280
     1
270
     1
271
     1
  0
XRECORD
  5
15
102
{ACAD_REACTORS
330
12
102
}
330
12
100
AcDbXrecord
280
     1
270
     1
271
     1
  0
XRECORD
  5
53C
102
{ACAD_REACTORS
330
22
102
}
330
22
100
AcDbXrecord
280
     1
102
MATERIAL
148
0.0
149
0.0
149
0.0
 93
        0
 94
      127
282
     0
 72
     0
 77
     0
171
     0
175
     0
179
     0
273
     0
  0
XRECORD
  5
24
102
{ACAD_REACTORS
330
22
102
}
330
22
100
AcDbXrecord
280
     1
270
     1
271
     1
  0
XRECORD
  5
23
102
{ACAD_REACTORS
330
22
102
}
330
22
100
AcDbXrecord
280
     1
270
     1
271
     1
  0
XRECORD
  5
27
102
{ACAD_REACTORS
330
22
102
}
330
22
100
AcDbXrecord
280
     1
270
     1
271
     1
  0
XRECORD
  5
26
102
{ACAD_REACTORS
330
22
102
}
330
22
100
AcDbXrecord
280
     1
270
     1
271
     1
  0
XRECORD
  5
28
102
{ACAD_REACTORS
330
22
102
}
330
22
100
AcDbXrecord
280
     1
270
     1
271
     1
  0
XRECORD
  5
25
102
{ACAD_REACTORS
330
22
102
}
330
22
100
AcDbXrecord
280
     1
270
     1
271
     1
  0
CELLSTYLEMAP
  5
532
102
{ACAD_REACTORS
330
531
102
}
330
531
100
AcDbCellStyleMap
 90
        3
300
CELLSTYLE
  1
TABLEFORMAT_BEGIN
 90
        5
170
     1
 91
        0
 92
    32768
 62
   257
 93
        1
300
CONTENTFORMAT
  1
CONTENTFORMAT_BEGIN
 90
        0
 91
        0
 92
      512
 93
        0
300

 40
0.0
140
1.0
 94
        5
 62
     0
340
50
144
6.0
309
CONTENTFORMAT_END
171
     1
301
MARGIN
  1
CELLMARGIN_BEGIN
 40
1.5
 40
1.5
 40
1.5
 40
1.5
 40
0.18
 40
0.18
309
CELLMARGIN_END
 94
        6
 95
        1
302
GRIDFORMAT
  1
GRIDFORMAT_BEGIN
 90
        0
 91
        1
 62
     0
 92
       -2
340
0
 93
        0
 40
0.045
309
GRIDFORMAT_END
 95
        2
302
GRIDFORMAT
  1
GRIDFORMAT_BEGIN
 90
        0
 91
        1
 62
     0
 92
       -2
340
0
 93
        0
 40
0.045
309
GRIDFORMAT_END
 95
        4
302
GRIDFORMAT
  1
GRIDFORMAT_BEGIN
 90
        0
 91
        1
 62
     0
 92
       -2
340
0
 93
        0
 40
0.045
309
GRIDFORMAT_END
 95
        8
302
GRIDFORMAT
  1
GRIDFORMAT_BEGIN
 90
        0
 91
        1
 62
     0
 92
       -2
340
0
 93
        0
 40
0.045
309
GRIDFORMAT_END
 95
       16
302
GRIDFORMAT
  1
GRIDFORMAT_BEGIN
 90
        0
 91
        1
 62
     0
 92
       -2
340
0
 93
        0
 40
0.045
309
GRIDFORMAT_END
 95
       32
302
GRIDFORMAT
  1
GRIDFORMAT_BEGIN
 90
        0
 91
        1
 62
     0
 92
       -2
340
0
 93
        0
 40
0.045
309
GRIDFORMAT_END
309
TABLEFORMAT_END
  1
CELLSTYLE_BEGIN
 90
        1
 91
        1
300
_TITLE
309
CELLSTYLE_END
300
CELLSTYLE
  1
TABLEFORMAT_BEGIN
 90
        5
170
     1
 91
        0
 92
        0
 62
   257
 93
        1
300
CONTENTFORMAT
  1
CONTENTFORMAT_BEGIN
 90
        0
 91
        0
 92
      512
 93
        0
300

 40
0.0
140
1.0
 94
        5
 62
     0
340
50
144
4.5
309
CONTENTFORMAT_END
171
     1
301
MARGIN
  1
CELLMARGIN_BEGIN
 40
1.5
 40
1.5
 40
1.5
 40
1.5
 40
0.18
 40
0.18
309
CELLMARGIN_END
 94
        6
 95
        1
302
GRIDFORMAT
  1
GRIDFORMAT_BEGIN
 90
        0
 91
        1
 62
     0
 92
       -2
340
0
 93
        0
 40
0.045
309
GRIDFORMAT_END
 95
        2
302
GRIDFORMAT
  1
GRIDFORMAT_BEGIN
 90
        0
 91
        1
 62
     0
 92
       -2
340
0
 93
        0
 40
0.045
309
GRIDFORMAT_END
 95
        4
302
GRIDFORMAT
  1
GRIDFORMAT_BEGIN
 90
        0
 91
        1
 62
     0
 92
       -2
340
0
 93
        0
 40
0.045
309
GRIDFORMAT_END
 95
        8
302
GRIDFORMAT
  1
GRIDFORMAT_BEGIN
 90
        0
 91
        1
 62
     0
 92
       -2
340
0
 93
        0
 40
0.045
309
GRIDFORMAT_END
 95
       16
302
GRIDFORMAT
  1
GRIDFORMAT_BEGIN
 90
        0
 91
        1
 62
     0
 92
       -2
340
0
 93
        0
 40
0.045
309
GRIDFORMAT_END
 95
       32
302
GRIDFORMAT
  1
GRIDFORMAT_BEGIN
 90
        0
 91
        1
 62
     0
 92
       -2
340
0
 93
        0
 40
0.045
309
GRIDFORMAT_END
309
TABLEFORMAT_END
  1
CELLSTYLE_BEGIN
 90
        2
 91
        1
300
_HEADER
309
CELLSTYLE_END
300
CELLSTYLE
  1
TABLEFORMAT_BEGIN
 90
        5
170
     1
 91
        0
 92
        0
 62
   257
 93
        1
300
CONTENTFORMAT
  1
CONTENTFORMAT_BEGIN
 90
        0
 91
        0
 92
      512
 93
        0
300

 40
0.0
140
1.0
 94
        2
 62
     0
340
50
144
4.5
309
CONTENTFORMAT_END
171
     1
301
MARGIN
  1
CELLMARGIN_BEGIN
 40
1.5
 40
1.5
 40
1.5
 40
1.5
 40
0.18
 40
0.18
309
CELLMARGIN_END
 94
        6
 95
        1
302
GRIDFORMAT
  1
GRIDFORMAT_BEGIN
 90
        0
 91
        1
 62
     0
 92
       -2
340
0
 93
        0
 40
0.045
309
GRIDFORMAT_END
 95
        2
302
GRIDFORMAT
  1
GRIDFORMAT_BEGIN
 90
        0
 91
        1
 62
     0
 92
       -2
340
0
 93
        0
 40
0.045
309
GRIDFORMAT_END
 95
        4
302
GRIDFORMAT
  1
GRIDFORMAT_BEGIN
 90
        0
 91
        1
 62
     0
 92
       -2
340
0
 93
        0
 40
0.045
309
GRIDFORMAT_END
 95
        8
302
GRIDFORMAT
  1
GRIDFORMAT_BEGIN
 90
        0
 91
        1
 62
     0
 92
       -2
340
0
 93
        0
 40
0.045
309
GRIDFORMAT_END
 95
       16
302
GRIDFORMAT
  1
GRIDFORMAT_BEGIN
 90
        0
 91
        1
 62
     0
 92
       -2
340
0
 93
        0
 40
0.045
309
GRIDFORMAT_END
 95
       32
302
GRIDFORMAT
  1
GRIDFORMAT_BEGIN
 90
        0
 91
        1
 62
     0
 92
       -2
340
0
 93
        0
 40
0.045
309
GRIDFORMAT_END
309
TABLEFORMAT_END
  1
CELLSTYLE_BEGIN
 90
        3
 91
        2
300
_DATA
309
CELLSTYLE_END
  0
XRECORD
  5
563
102
{ACAD_REACTORS
330
531
102
}
330
531
100
AcDbXrecord
280
     1
102
ACAD_ROUNDTRIP_PRE2007_TABLESTYLE
 90
      512
 91
        0
  1

 92
      512
 93
        0
  2

 94
      512
 95
        0
  3

  0
XRECORD
  5
548
102
{ACAD_REACTORS
330
547
102
}
330
547
100
AcDbXrecord
280
     1
102
RTVSPropertyOp0
 70
     1
102
RTVSPropertyOp1
 70
     1
102
RTVSPropertyOp2
 70
     1
102
RTVSPropertyOp3
 70
     1
102
RTVSPropertyOp4
 70
     1
102
RTVSPropertyOp5
 70
     1
102
RTVSPropertyOp6
 70
     1
102
RTVSPropertyOp7
 70
     1
102
RTVSPropertyOp8
 70
     1
102
RTVSPropertyOp9
 70
     1
102
RTVSPropertyOp10
 70
     1
102
RTVSPropertyOp11
 70
     1
102
RTVSPropertyOp12
 70
     1
102
RTVSPropertyOp13
 70
     1
102
RTVSPropertyOp14
 70
     1
102
RTVSPropertyOp15
 70
     1
102
RTVSPropertyOp16
 70
     1
102
RTVSPropertyOp17
 70
     1
102
RTVSPropertyOp18
 70
     1
102
RTVSPropertyOp19
 70
     1
102
RTVSPropertyOp20
 70
     1
102
RTVSPropertyOp21
 70
     1
102
RTVSPropertyOp22
 70
     1
102
RTVSPropertyOp23
 70
     1
102
RTVSPropertyOp24
 70
     1
102
RTVSPropertyOp25
 70
     1
102
RTVSPropertyOp26
 70
     1
102
RTVSPropertyOp27
 70
     1
  0
XRECORD
  5
54C
102
{ACAD_REACTORS
330
54B
102
}
330
54B
100
AcDbXrecord
280
     1
102
RTVSPropertyOp0
 70
     1
102
RTVSPropertyOp1
 70
     1
102
RTVSPropertyOp2
 70
     1
102
RTVSPropertyOp3
 70
     1
102
RTVSPropertyOp4
 70
     1
102
RTVSPropertyOp5
 70
     1
102
RTVSPropertyOp6
 70
     1
102
RTVSPropertyOp7
 70
     1
102
RTVSPropertyOp8
 70
     1
102
RTVSPropertyOp9
 70
     1
102
RTVSPropertyOp10
 70
     1
102
RTVSPropertyOp11
 70
     1
102
RTVSPropertyOp12
 70
     1
102
RTVSPropertyOp13
 70
     1
102
RTVSPropertyOp14
 70
     1
102
RTVSPropertyOp15
 70
     1
102
RTVSPropertyOp16
 70
     1
102
RTVSPropertyOp17
 70
     1
102
RTVSPropertyOp18
 70
     1
102
RTVSPropertyOp19
 70
     1
102
RTVSPropertyOp20
 70
     1
102
RTVSPropertyOp21
 70
     1
102
RTVSPropertyOp22
 70
     1
102
RTVSPropertyOp23
 70
     1
102
RTVSPropertyOp24
 70
     1
102
RTVSPropertyOp25
 70
     1
102
RTVSPropertyOp26
 70
     1
102
RTVSPropertyOp27
 70
     1
  0
XRECORD
  5
54A
102
{ACAD_REACTORS
330
549
102
}
330
549
100
AcDbXrecord
280
     1
102
RTVSPropertyOp0
 70
     1
102
RTVSPropertyOp1
 70
     1
102
RTVSPropertyOp2
 70
     1
102
RTVSPropertyOp3
 70
     1
102
RTVSPropertyOp4
 70
     1
102
RTVSPropertyOp5
 70
     1
102
RTVSPropertyOp6
 70
     1
102
RTVSPropertyOp7
 70
     1
102
RTVSPropertyOp8
 70
     1
102
RTVSPropertyOp9
 70
     1
102
RTVSPropertyOp10
 70
     1
102
RTVSPropertyOp11
 70
     1
102
RTVSPropertyOp12
 70
     1
102
RTVSPropertyOp13
 70
     1
102
RTVSPropertyOp14
 70
     1
102
RTVSPropertyOp15
 70
     1
102
RTVSPropertyOp16
 70
     1
102
RTVSPropertyOp17
 70
     1
102
RTVSPropertyOp18
 70
     1
102
RTVSPropertyOp19
 70
     1
102
RTVSPropertyOp20
 70
     1
102
RTVSPropertyOp21
 70
     1
102
RTVSPropertyOp22
 70
     1
102
RTVSPropertyOp23
 70
     1
102
RTVSPropertyOp24
 70
     1
102
RTVSPropertyOp25
 70
     1
102
RTVSPropertyOp26
 70
     1
102
RTVSPropertyOp27
 70
     1
  0
XRECORD
  5
546
102
{ACAD_REACTORS
330
545
102
}
330
545
100
AcDbXrecord
280
     1
102
RTVSPropertyOp0
 70
     1
102
RTVSPropertyOp1
 70
     1
102
RTVSPropertyOp2
 70
     1
102
RTVSPropertyOp3
 70
     1
102
RTVSPropertyOp4
 70
     1
102
RTVSPropertyOp5
 70
     1
102
RTVSPropertyOp6
 70
     1
102
RTVSPropertyOp7
 70
     1
102
RTVSPropertyOp8
 70
     1
102
RTVSPropertyOp9
 70
     1
102
RTVSPropertyOp10
 70
     1
102
RTVSPropertyOp11
 70
     1
102
RTVSPropertyOp12
 70
     1
102
RTVSPropertyOp13
 70
     1
102
RTVSPropertyOp14
 70
     1
102
RTVSPropertyOp15
 70
     1
102
RTVSPropertyOp16
 70
     1
102
RTVSPropertyOp17
 70
     1
102
RTVSPropertyOp18
 70
     1
102
RTVSPropertyOp19
 70
     1
102
RTVSPropertyOp20
 70
     1
102
RTVSPropertyOp21
 70
     1
102
RTVSPropertyOp22
 70
     1
102
RTVSPropertyOp23
 70
     1
102
RTVSPropertyOp24
 70
     1
102
RTVSPropertyOp25
 70
     1
102
RTVSPropertyOp26
 70
     1
102
RTVSPropertyOp27
 70
     1
  0
XRECORD
  5
554
102
{ACAD_REACTORS
330
553
102
}
330
553
100
AcDbXrecord
280
     1
102
RTVSPropertyOp0
 70
     1
102
RTVSPropertyOp1
 70
     1
102
RTVSPropertyOp2
 70
     1
102
RTVSPropertyOp3
 70
     1
102
RTVSPropertyOp4
 70
     1
102
RTVSPropertyOp5
 70
     1
102
RTVSPropertyOp6
 70
     1
102
RTVSPropertyOp7
 70
     1
102
RTVSPropertyOp8
 70
     1
102
RTVSPropertyOp9
 70
     1
102
RTVSPropertyOp10
 70
     1
102
RTVSPropertyOp11
 70
     1
102
RTVSPropertyOp12
 70
     1
102
RTVSPropertyOp13
 70
     1
102
RTVSPropertyOp14
 70
     1
102
RTVSPropertyOp15
 70
     1
102
RTVSPropertyOp16
 70
     1
102
RTVSPropertyOp17
 70
     1
102
RTVSPropertyOp18
 70
     1
102
RTVSPropertyOp19
 70
     1
102
RTVSPropertyOp20
 70
     1
102
RTVSPropertyOp21
 70
     1
102
RTVSPropertyOp22
 70
     1
102
RTVSPropertyOp23
 70
     1
102
RTVSPropertyOp24
 70
     1
102
RTVSPropertyOp25
 70
     1
102
RTVSPropertyOp26
 70
     1
102
RTVSPropertyOp27
 70
     1
  0
XRECORD
  5
55C
102
{ACAD_REACTORS
330
55B
102
}
330
55B
100
AcDbXrecord
280
     1
102
RTVSPropertyOp0
 70
     1
102
RTVSPropertyOp1
 70
     1
102
RTVSPropertyOp2
 70
     1
102
RTVSPropertyOp3
 70
     1
102
RTVSPropertyOp4
 70
     1
102
RTVSPropertyOp5
 70
     1
102
RTVSPropertyOp6
 70
     1
102
RTVSPropertyOp7
 70
     1
102
RTVSPropertyOp8
 70
     1
102
RTVSPropertyOp9
 70
     1
102
RTVSPropertyOp10
 70
     1
102
RTVSPropertyOp11
 70
     1
102
RTVSPropertyOp12
 70
     1
102
RTVSPropertyOp13
 70
     1
102
RTVSPropertyOp14
 70
     1
102
RTVSPropertyOp15
 70
     1
102
RTVSPropertyOp16
 70
     1
102
RTVSPropertyOp17
 70
     1
102
RTVSPropertyOp18
 70
     1
102
RTVSPropertyOp19
 70
     1
102
RTVSPropertyOp20
 70
     1
102
RTVSPropertyOp21
 70
     1
102
RTVSPropertyOp22
 70
     1
102
RTVSPropertyOp23
 70
     1
102
RTVSPropertyOp24
 70
     1
102
RTVSPropertyOp25
 70
     1
102
RTVSPropertyOp26
 70
     1
102
RTVSPropertyOp27
 70
     1
  0
XRECORD
  5
54E
102
{ACAD_REACTORS
330
54D
102
}
330
54D
100
AcDbXrecord
280
     1
102
RTVSPropertyOp0
 70
     1
102
RTVSPropertyOp1
 70
     1
102
RTVSPropertyOp2
 70
     1
102
RTVSPropertyOp3
 70
     1
102
RTVSPropertyOp4
 70
     1
102
RTVSPropertyOp5
 70
     1
102
RTVSPropertyOp6
 70
     1
102
RTVSPropertyOp7
 70
     1
102
RTVSPropertyOp8
 70
     1
102
RTVSPropertyOp9
 70
     1
102
RTVSPropertyOp10
 70
     1
102
RTVSPropertyOp11
 70
     1
102
RTVSPropertyOp12
 70
     1
102
RTVSPropertyOp13
 70
     1
102
RTVSPropertyOp14
 70
     1
102
RTVSPropertyOp15
 70
     1
102
RTVSPropertyOp16
 70
     1
102
RTVSPropertyOp17
 70
     1
102
RTVSPropertyOp18
 70
     1
102
RTVSPropertyOp19
 70
     1
102
RTVSPropertyOp20
 70
     1
102
RTVSPropertyOp21
 70
     1
102
RTVSPropertyOp22
 70
     1
102
RTVSPropertyOp23
 70
     1
102
RTVSPropertyOp24
 70
     1
102
RTVSPropertyOp25
 70
     1
102
RTVSPropertyOp26
 70
     1
102
RTVSPropertyOp27
 70
     1
  0
XRECORD
  5
552
102
{ACAD_REACTORS
330
551
102
}
330
551
100
AcDbXrecord
280
     1
102
RTVSPropertyOp0
 70
     1
102
RTVSPropertyOp1
 70
     1
102
RTVSPropertyOp2
 70
     1
102
RTVSPropertyOp3
 70
     1
102
RTVSPropertyOp4
 70
     1
102
RTVSPropertyOp5
 70
     1
102
RTVSPropertyOp6
 70
     1
102
RTVSPropertyOp7
 70
     1
102
RTVSPropertyOp8
 70
     1
102
RTVSPropertyOp9
 70
     1
102
RTVSPropertyOp10
 70
     1
102
RTVSPropertyOp11
 70
     1
102
RTVSPropertyOp12
 70
     1
102
RTVSPropertyOp13
 70
     1
102
RTVSPropertyOp14
 70
     1
102
RTVSPropertyOp15
 70
     1
102
RTVSPropertyOp16
 70
     1
102
RTVSPropertyOp17
 70
     1
102
RTVSPropertyOp18
 70
     1
102
RTVSPropertyOp19
 70
     1
102
RTVSPropertyOp20
 70
     1
102
RTVSPropertyOp21
 70
     1
102
RTVSPropertyOp22
 70
     1
102
RTVSPropertyOp23
 70
     1
102
RTVSPropertyOp24
 70
     1
102
RTVSPropertyOp25
 70
     1
102
RTVSPropertyOp26
 70
     1
102
RTVSPropertyOp27
 70
     1
  0
XRECORD
  5
562
102
{ACAD_REACTORS
330
561
102
}
330
561
100
AcDbXrecord
280
     1
102
RTVSPropertyOp0
 70
     0
102
RTVSPropertyOp1
 70
     0
102
RTVSPropertyOp2
 70
     0
102
RTVSPropertyOp3
 70
     0
102
RTVSPropertyOp4
 70
     0
102
RTVSPropertyOp5
 70
     0
102
RTVSPropertyOp6
 70
     0
102
RTVSPropertyOp7
 70
     0
102
RTVSPropertyOp8
 70
     0
102
RTVSPropertyOp9
 70
     0
102
RTVSPropertyOp10
 70
     0
102
RTVSPropertyOp11
 70
     0
102
RTVSPropertyOp12
 70
     0
102
RTVSPropertyOp13
 70
     0
102
RTVSPropertyOp14
 70
     2
102
RTVSPropertyOp15
 70
     0
102
RTVSPropertyOp16
 70
     0
102
RTVSPropertyOp17
 70
     0
102
RTVSPropertyOp18
 70
     0
102
RTVSPropertyOp19
 70
     0
102
RTVSPropertyOp20
 70
     0
102
RTVSPropertyOp21
 70
     0
102
RTVSPropertyOp22
 70
     0
102
RTVSPropertyOp23
 70
     0
102
RTVSPropertyOp24
 70
     0
102
RTVSPropertyOp25
 70
     0
102
RTVSPropertyOp26
 70
     0
102
RTVSPropertyOp27
 70
     0
  0
XRECORD
  5
55A
102
{ACAD_REACTORS
330
559
102
}
330
559
100
AcDbXrecord
280
     1
102
RTVSPropertyOp0
 70
     1
102
RTVSPropertyOp1
 70
     1
102
RTVSPropertyOp2
 70
     1
102
RTVSPropertyOp3
 70
     1
102
RTVSPropertyOp4
 70
     1
102
RTVSPropertyOp5
 70
     1
102
RTVSPropertyOp6
 70
     1
102
RTVSPropertyOp7
 70
     1
102
RTVSPropertyOp8
 70
     1
102
RTVSPropertyOp9
 70
     1
102
RTVSPropertyOp10
 70
     1
102
RTVSPropertyOp11
 70
     1
102
RTVSPropertyOp12
 70
     1
102
RTVSPropertyOp13
 70
     1
102
RTVSPropertyOp14
 70
     1
102
RTVSPropertyOp15
 70
     1
102
RTVSPropertyOp16
 70
     1
102
RTVSPropertyOp17
 70
     1
102
RTVSPropertyOp18
 70
     1
102
RTVSPropertyOp19
 70
     1
102
RTVSPropertyOp20
 70
     1
102
RTVSPropertyOp21
 70
     1
102
RTVSPropertyOp22
 70
     1
102
RTVSPropertyOp23
 70
     1
102
RTVSPropertyOp24
 70
     1
102
RTVSPropertyOp25
 70
     1
102
RTVSPropertyOp26
 70
     1
102
RTVSPropertyOp27
 70
     1
  0
XRECORD
  5
53E
102
{ACAD_REACTORS
330
53D
102
}
330
53D
100
AcDbXrecord
280
     1
102
RTVSPropertyOp0
 70
     1
102
RTVSPropertyOp1
 70
     1
102
RTVSPropertyOp2
 70
     1
102
RTVSPropertyOp3
 70
     1
102
RTVSPropertyOp4
 70
     1
102
RTVSPropertyOp5
 70
     1
102
RTVSPropertyOp6
 70
     1
102
RTVSPropertyOp7
 70
     1
102
RTVSPropertyOp8
 70
     1
102
RTVSPropertyOp9
 70
     1
102
RTVSPropertyOp10
 70
     1
102
RTVSPropertyOp11
 70
     1
102
RTVSPropertyOp12
 70
     1
102
RTVSPropertyOp13
 70
     1
102
RTVSPropertyOp14
 70
     1
102
RTVSPropertyOp15
 70
     1
102
RTVSPropertyOp16
 70
     1
102
RTVSPropertyOp17
 70
     1
102
RTVSPropertyOp18
 70
     1
102
RTVSPropertyOp19
 70
     1
102
RTVSPropertyOp20
 70
     1
102
RTVSPropertyOp21
 70
     1
102
RTVSPropertyOp22
 70
     1
102
RTVSPropertyOp23
 70
     1
102
RTVSPropertyOp24
 70
     1
102
RTVSPropertyOp25
 70
     1
102
RTVSPropertyOp26
 70
     1
102
RTVSPropertyOp27
 70
     1
  0
XRECORD
  5
540
102
{ACAD_REACTORS
330
53F
102
}
330
53F
100
AcDbXrecord
280
     1
102
RTVSPropertyOp0
 70
     1
102
RTVSPropertyOp1
 70
     1
102
RTVSPropertyOp2
 70
     1
102
RTVSPropertyOp3
 70
     1
102
RTVSPropertyOp4
 70
     1
102
RTVSPropertyOp5
 70
     1
102
RTVSPropertyOp6
 70
     1
102
RTVSPropertyOp7
 70
     1
102
RTVSPropertyOp8
 70
     1
102
RTVSPropertyOp9
 70
     1
102
RTVSPropertyOp10
 70
     1
102
RTVSPropertyOp11
 70
     1
102
RTVSPropertyOp12
 70
     1
102
RTVSPropertyOp13
 70
     1
102
RTVSPropertyOp14
 70
     1
102
RTVSPropertyOp15
 70
     1
102
RTVSPropertyOp16
 70
     1
102
RTVSPropertyOp17
 70
     1
102
RTVSPropertyOp18
 70
     1
102
RTVSPropertyOp19
 70
     1
102
RTVSPropertyOp20
 70
     1
102
RTVSPropertyOp21
 70
     1
102
RTVSPropertyOp22
 70
     1
102
RTVSPropertyOp23
 70
     1
102
RTVSPropertyOp24
 70
     1
102
RTVSPropertyOp25
 70
     1
102
RTVSPropertyOp26
 70
     1
102
RTVSPropertyOp27
 70
     1
  0
XRECORD
  5
542
102
{ACAD_REACTORS
330
541
102
}
330
541
100
AcDbXrecord
280
     1
102
RTVSPropertyOp0
 70
     1
102
RTVSPropertyOp1
 70
     1
102
RTVSPropertyOp2
 70
     1
102
RTVSPropertyOp3
 70
     1
102
RTVSPropertyOp4
 70
     1
102
RTVSPropertyOp5
 70
     1
102
RTVSPropertyOp6
 70
     1
102
RTVSPropertyOp7
 70
     1
102
RTVSPropertyOp8
 70
     1
102
RTVSPropertyOp9
 70
     1
102
RTVSPropertyOp10
 70
     1
102
RTVSPropertyOp11
 70
     1
102
RTVSPropertyOp12
 70
     1
102
RTVSPropertyOp13
 70
     1
102
RTVSPropertyOp14
 70
     1
102
RTVSPropertyOp15
 70
     1
102
RTVSPropertyOp16
 70
     1
102
RTVSPropertyOp17
 70
     1
102
RTVSPropertyOp18
 70
     1
102
RTVSPropertyOp19
 70
     1
102
RTVSPropertyOp20
 70
     1
102
RTVSPropertyOp21
 70
     1
102
RTVSPropertyOp22
 70
     1
102
RTVSPropertyOp23
 70
     1
102
RTVSPropertyOp24
 70
     1
102
RTVSPropertyOp25
 70
     1
102
RTVSPropertyOp26
 70
     1
102
RTVSPropertyOp27
 70
     1
  0
XRECORD
  5
544
102
{ACAD_REACTORS
330
543
102
}
330
543
100
AcDbXrecord
280
     1
102
RTVSPropertyOp0
 70
     1
102
RTVSPropertyOp1
 70
     1
102
RTVSPropertyOp2
 70
     1
102
RTVSPropertyOp3
 70
     1
102
RTVSPropertyOp4
 70
     1
102
RTVSPropertyOp5
 70
     1
102
RTVSPropertyOp6
 70
     1
102
RTVSPropertyOp7
 70
     1
102
RTVSPropertyOp8
 70
     1
102
RTVSPropertyOp9
 70
     1
102
RTVSPropertyOp10
 70
     1
102
RTVSPropertyOp11
 70
     1
102
RTVSPropertyOp12
 70
     1
102
RTVSPropertyOp13
 70
     1
102
RTVSPropertyOp14
 70
     1
102
RTVSPropertyOp15
 70
     1
102
RTVSPropertyOp16
 70
     1
102
RTVSPropertyOp17
 70
     1
102
RTVSPropertyOp18
 70
     1
102
RTVSPropertyOp19
 70
     1
102
RTVSPropertyOp20
 70
     1
102
RTVSPropertyOp21
 70
     1
102
RTVSPropertyOp22
 70
     1
102
RTVSPropertyOp23
 70
     1
102
RTVSPropertyOp24
 70
     1
102
RTVSPropertyOp25
 70
     1
102
RTVSPropertyOp26
 70
     1
102
RTVSPropertyOp27
 70
     1
  0
XRECORD
  5
55E
102
{ACAD_REACTORS
330
55D
102
}
330
55D
100
AcDbXrecord
280
     1
102
RTVSPropertyOp0
 70
     0
102
RTVSPropertyOp1
 70
     0
102
RTVSPropertyOp2
 70
     0
102
RTVSPropertyOp3
 70
     0
102
RTVSPropertyOp4
 70
     0
102
RTVSPropertyOp5
 70
     0
102
RTVSPropertyOp6
 70
     0
102
RTVSPropertyOp7
 70
     0
102
RTVSPropertyOp8
 70
     0
102
RTVSPropertyOp9
 70
     0
102
RTVSPropertyOp10
 70
     0
102
RTVSPropertyOp11
 70
     0
102
RTVSPropertyOp12
 70
     0
102
RTVSPropertyOp13
 70
     0
102
RTVSPropertyOp14
 70
     2
102
RTVSPropertyOp15
 70
     0
102
RTVSPropertyOp16
 70
     0
102
RTVSPropertyOp17
 70
     0
102
RTVSPropertyOp18
 70
     0
102
RTVSPropertyOp19
 70
     0
102
RTVSPropertyOp20
 70
     0
102
RTVSPropertyOp21
 70
     0
102
RTVSPropertyOp22
 70
     0
102
RTVSPropertyOp23
 70
     0
102
RTVSPropertyOp24
 70
     0
102
RTVSPropertyOp25
 70
     0
102
RTVSPropertyOp26
 70
     0
102
RTVSPropertyOp27
 70
     0
  0
XRECORD
  5
558
102
{ACAD_REACTORS
330
557
102
}
330
557
100
AcDbXrecord
280
     1
102
RTVSPropertyOp0
 70
     1
102
RTVSPropertyOp1
 70
     1
102
RTVSPropertyOp2
 70
     1
102
RTVSPropertyOp3
 70
     1
102
RTVSPropertyOp4
 70
     1
102
RTVSPropertyOp5
 70
     1
102
RTVSPropertyOp6
 70
     1
102
RTVSPropertyOp7
 70
     1
102
RTVSPropertyOp8
 70
     1
102
RTVSPropertyOp9
 70
     1
102
RTVSPropertyOp10
 70
     1
102
RTVSPropertyOp11
 70
     1
102
RTVSPropertyOp12
 70
     1
102
RTVSPropertyOp13
 70
     1
102
RTVSPropertyOp14
 70
     1
102
RTVSPropertyOp15
 70
     1
102
RTVSPropertyOp16
 70
     1
102
RTVSPropertyOp17
 70
     1
102
RTVSPropertyOp18
 70
     1
102
RTVSPropertyOp19
 70
     1
102
RTVSPropertyOp20
 70
     1
102
RTVSPropertyOp21
 70
     1
102
RTVSPropertyOp22
 70
     1
102
RTVSPropertyOp23
 70
     1
102
RTVSPropertyOp24
 70
     1
102
RTVSPropertyOp25
 70
     1
102
RTVSPropertyOp26
 70
     1
102
RTVSPropertyOp27
 70
     1
  0
XRECORD
  5
560
102
{ACAD_REACTORS
330
55F
102
}
330
55F
100
AcDbXrecord
280
     1
102
RTVSPropertyOp0
 70
     0
102
RTVSPropertyOp1
 70
     0
102
RTVSPropertyOp2
 70
     0
102
RTVSPropertyOp3
 70
     0
102
RTVSPropertyOp4
 70
     0
102
RTVSPropertyOp5
 70
     0
102
RTVSPropertyOp6
 70
     0
102
RTVSPropertyOp7
 70
     0
102
RTVSPropertyOp8
 70
     0
102
RTVSPropertyOp9
 70
     0
102
RTVSPropertyOp10
 70
     0
102
RTVSPropertyOp11
 70
     0
102
RTVSPropertyOp12
 70
     0
102
RTVSPropertyOp13
 70
     0
102
RTVSPropertyOp14
 70
     2
102
RTVSPropertyOp15
 70
     0
102
RTVSPropertyOp16
 70
     0
102
RTVSPropertyOp17
 70
     0
102
RTVSPropertyOp18
 70
     0
102
RTVSPropertyOp19
 70
     0
102
RTVSPropertyOp20
 70
     0
102
RTVSPropertyOp21
 70
     0
102
RTVSPropertyOp22
 70
     0
102
RTVSPropertyOp23
 70
     0
102
RTVSPropertyOp24
 70
     0
102
RTVSPropertyOp25
 70
     0
102
RTVSPropertyOp26
 70
     0
102
RTVSPropertyOp27
 70
     0
  0
XRECORD
  5
550
102
{ACAD_REACTORS
330
54F
102
}
330
54F
100
AcDbXrecord
280
     1
102
RTVSPropertyOp0
 70
     1
102
RTVSPropertyOp1
 70
     1
102
RTVSPropertyOp2
 70
     1
102
RTVSPropertyOp3
 70
     1
102
RTVSPropertyOp4
 70
     1
102
RTVSPropertyOp5
 70
     1
102
RTVSPropertyOp6
 70
     1
102
RTVSPropertyOp7
 70
     1
102
RTVSPropertyOp8
 70
     1
102
RTVSPropertyOp9
 70
     1
102
RTVSPropertyOp10
 70
     1
102
RTVSPropertyOp11
 70
     1
102
RTVSPropertyOp12
 70
     1
102
RTVSPropertyOp13
 70
     1
102
RTVSPropertyOp14
 70
     1
102
RTVSPropertyOp15
 70
     1
102
RTVSPropertyOp16
 70
     1
102
RTVSPropertyOp17
 70
     1
102
RTVSPropertyOp18
 70
     1
102
RTVSPropertyOp19
 70
     1
102
RTVSPropertyOp20
 70
     1
102
RTVSPropertyOp21
 70
     1
102
RTVSPropertyOp22
 70
     1
102
RTVSPropertyOp23
 70
     1
102
RTVSPropertyOp24
 70
     1
102
RTVSPropertyOp25
 70
     1
102
RTVSPropertyOp26
 70
     1
102
RTVSPropertyOp27
 70
     1
  0
XRECORD
  5
556
102
{ACAD_REACTORS
330
555
102
}
330
555
100
AcDbXrecord
280
     1
102
RTVSPropertyOp0
 70
     1
102
RTVSPropertyOp1
 70
     1
102
RTVSPropertyOp2
 70
     1
102
RTVSPropertyOp3
 70
     1
102
RTVSPropertyOp4
 70
     1
102
RTVSPropertyOp5
 70
     1
102
RTVSPropertyOp6
 70
     1
102
RTVSPropertyOp7
 70
     1
102
RTVSPropertyOp8
 70
     1
102
RTVSPropertyOp9
 70
     1
102
RTVSPropertyOp10
 70
     1
102
RTVSPropertyOp11
 70
     1
102
RTVSPropertyOp12
 70
     1
102
RTVSPropertyOp13
 70
     1
102
RTVSPropertyOp14
 70
     1
102
RTVSPropertyOp15
 70
     1
102
RTVSPropertyOp16
 70
     1
102
RTVSPropertyOp17
 70
     1
102
RTVSPropertyOp18
 70
     1
102
RTVSPropertyOp19
 70
     1
102
RTVSPropertyOp20
 70
     1
102
RTVSPropertyOp21
 70
     1
102
RTVSPropertyOp22
 70
     1
102
RTVSPropertyOp23
 70
     1
102
RTVSPropertyOp24
 70
     1
102
RTVSPropertyOp25
 70
     1
102
RTVSPropertyOp26
 70
     1
102
RTVSPropertyOp27
 70
     1
  0
ENDSEC
  0
EOF
