  0
SECTION
  2
HEADER
  9
$ACADVER
  1
AC1015
  9
$ACADMAINTVER
 70
    20
  9
$DWGCODEPAGE
  3
ANSI_932
  9
$INSBASE
 10
0.0
 20
0.0
 30
0.0
  9
$EXTMIN
 10
-0.0000000000000044
 20
-0.0000000000000009
 30
-0.00000001
  9
$EXTMAX
 10
225.0
 20
95.0
 30
0.00000001
  9
$LIMMIN
 10
-5.027069091796875
 20
-5.027082920074462
  9
$LIMMAX
 10
291.89892578125
 20
204.9462447166443
  9
$ORTHOMODE
 70
     0
  9
$REGENMODE
 70
     1
  9
$FILLMODE
 70
     1
  9
$QTEXTMODE
 70
     0
  9
$MIRRTEXT
 70
     0
  9
$LTSCALE
 40
1.0
  9
$ATTMODE
 70
     1
  9
$TEXTSIZE
 40
2.5
  9
$TRACEWID
 40
1.0
  9
$TEXTSTYLE
  7
STANDARD
  9
$CLAYER
  8
0
  9
$CELTYPE
  6
ByLayer
  9
$CECOLOR
 62
   256
  9
$CELTSCALE
 40
1.0
  9
$DISPSILH
 70
     0
  9
$DIMSCALE
 40
1.0
  9
$DIMASZ
 40
2.5
  9
$DIMEXO
 40
0.5
  9
$DIMDLI
 40
8.0
  9
$DIMRND
 40
0.0
  9
$DIMDLE
 40
0.0
  9
$DIMEXE
 40
1.0
  9
$DIMTP
 40
0.0
  9
$DIMTM
 40
0.0
  9
$DIMTXT
 40
3.5
  9
$DIMCEN
 40
0.0
  9
$DIMTSZ
 40
0.0
  9
$DIMTOL
 70
     0
  9
$DIMLIM
 70
     0
  9
$DIMTIH
 70
     0
  9
$DIMTOH
 70
     0
  9
$DIMSE1
 70
     0
  9
$DIMSE2
 70
     0
  9
$DIMTAD
 70
     3
  9
$DIMZIN
 70
     8
  9
$DIMBLK
  1
Open
  9
$DIMASO
 70
     1
  9
$DIMSHO
 70
     1
  9
$DIMPOST
  1

  9
$DIMAPOST
  1
"
  9
$DIMALT
 70
     0
  9
$DIMALTD
 70
     2
  9
$DIMALTF
 40
0.0393701
  9
$DIMLFAC
 40
1.0
  9
$DIMTOFL
 70
     1
  9
$DIMTVP
 40
0.0
  9
$DIMTIX
 70
     0
  9
$DIMSOXD
 70
     0
  9
$DIMSAH
 70
     0
  9
$DIMBLK1
  1

  9
$DIMBLK2
  1

  9
$DIMSTYLE
  2
AM_JIS
  9
$DIMCLRD
 70
   256
  9
$DIMCLRE
 70
   256
  9
$DIMCLRT
 70
   140
  9
$DIMTFAC
 40
0.55
  9
$DIMGAP
 40
0.8
  9
$DIMJUST
 70
     0
  9
$DIMSD1
 70
     0
  9
$DIMSD2
 70
     0
  9
$DIMTOLJ
 70
     0
  9
$DIMTZIN
 70
     8
  9
$DIMALTZ
 70
     0
  9
$DIMALTTZ
 70
     0
  9
$DIMUPT
 70
     0
  9
$DIMDEC
 70
     3
  9
$DIMTDEC
 70
     3
  9
$DIMALTU
 70
     2
  9
$DIMALTTD
 70
     2
  9
$DIMTXSTY
  7
STANDARD
  9
$DIMAUNIT
 70
     0
  9
$DIMADEC
 70
     0
  9
$DIMALTRND
 40
0.0
  9
$DIMAZIN
 70
     2
  9
$DIMDSEP
 70
    46
  9
$DIMATFIT
 70
     3
  9
$DIMFRAC
 70
     0
  9
$DIMLDRBLK
  1
Open
  9
$DIMLUNIT
 70
     2
  9
$DIMLWD
 70
    -1
  9
$DIMLWE
 70
    -1
  9
$DIMTMOVE
 70
     0
  9
$LUNITS
 70
     2
  9
$LUPREC
 70
     2
  9
$SKETCHINC
 40
1.0
  9
$FILLETRAD
 40
2.5
  9
$AUNITS
 70
     0
  9
$AUPREC
 70
     0
  9
$MENU
  1
.
  9
$ELEVATION
 40
0.0
  9
$PELEVATION
 40
0.0
  9
$THICKNESS
 40
0.0
  9
$LIMCHECK
 70
     0
  9
$CHAMFERA
 40
2.5
  9
$CHAMFERB
 40
2.5
  9
$CHAMFERC
 40
20.0
  9
$CHAMFERD
 40
0.0
  9
$SKPOLY
 70
     0
  9
$TDCREATE
 40
2456512.674199757
  9
$TDUCREATE
 40
2456512.299199757
  9
$TDUPDATE
 40
2456561.427725151
  9
$TDUUPDATE
 40
2456561.052725151
  9
$TDINDWG
 40
0.0000878935
  9
$TDUSRTIMER
 40
0.0000878935
  9
$USRTIMER
 70
     1
  9
$ANGBASE
 50
0.0
  9
$ANGDIR
 70
     0
  9
$PDMODE
 70
     0
  9
$PDSIZE
 40
0.0
  9
$PLINEWID
 40
0.0
  9
$SPLFRAME
 70
     0
  9
$SPLINETYPE
 70
     6
  9
$SPLINESEGS
 70
     8
  9
$HANDSEED
  5
668
  9
$SURFTAB1
 70
     6
  9
$SURFTAB2
 70
     6
  9
$SURFTYPE
 70
     6
  9
$SURFU
 70
     6
  9
$SURFV
 70
     6
  9
$UCSBASE
  2

  9
$UCSNAME
  2

  9
$UCSORG
 10
0.0
 20
0.0
 30
0.0
  9
$UCSXDIR
 10
1.0
 20
0.0
 30
0.0
  9
$UCSYDIR
 10
0.0
 20
1.0
 30
0.0
  9
$UCSORTHOREF
  2

  9
$UCSORTHOVIEW
 70
     0
  9
$UCSORGTOP
 10
0.0
 20
0.0
 30
0.0
  9
$UCSORGBOTTOM
 10
0.0
 20
0.0
 30
0.0
  9
$UCSORGLEFT
 10
0.0
 20
0.0
 30
0.0
  9
$UCSORGRIGHT
 10
0.0
 20
0.0
 30
0.0
  9
$UCSORGFRONT
 10
0.0
 20
0.0
 30
0.0
  9
$UCSORGBACK
 10
0.0
 20
0.0
 30
0.0
  9
$PUCSBASE
  2

  9
$PUCSNAME
  2

  9
$PUCSORG
 10
0.0
 20
0.0
 30
0.0
  9
$PUCSXDIR
 10
1.0
 20
0.0
 30
0.0
  9
$PUCSYDIR
 10
0.0
 20
1.0
 30
0.0
  9
$PUCSORTHOREF
  2

  9
$PUCSORTHOVIEW
 70
     0
  9
$PUCSORGTOP
 10
0.0
 20
0.0
 30
0.0
  9
$PUCSORGBOTTOM
 10
0.0
 20
0.0
 30
0.0
  9
$PUCSORGLEFT
 10
0.0
 20
0.0
 30
0.0
  9
$PUCSORGRIGHT
 10
0.0
 20
0.0
 30
0.0
  9
$PUCSORGFRONT
 10
0.0
 20
0.0
 30
0.0
  9
$PUCSORGBACK
 10
0.0
 20
0.0
 30
0.0
  9
$USERI1
 70
     0
  9
$USERI2
 70
     0
  9
$USERI3
 70
     0
  9
$USERI4
 70
     0
  9
$USERI5
 70
     0
  9
$USERR1
 40
0.0
  9
$USERR2
 40
0.0
  9
$USERR3
 40
0.0
  9
$USERR4
 40
0.0
  9
$USERR5
 40
0.0
  9
$WORLDVIEW
 70
     1
  9
$SHADEDGE
 70
     3
  9
$SHADEDIF
 70
    70
  9
$TILEMODE
 70
     1
  9
$MAXACTVP
 70
    64
  9
$PINSBASE
 10
0.0
 20
0.0
 30
0.0
  9
$PLIMCHECK
 70
     0
  9
$PEXTMIN
 10
1.000000000000000E+20
 20
1.000000000000000E+20
 30
1.000000000000000E+20
  9
$PEXTMAX
 10
-1.000000000000000E+20
 20
-1.000000000000000E+20
 30
-1.000000000000000E+20
  9
$PLIMMIN
 10
0.0
 20
0.0
  9
$PLIMMAX
 10
12.0
 20
9.0
  9
$UNITMODE
 70
     0
  9
$VISRETAIN
 70
     1
  9
$PLINEGEN
 70
     0
  9
$PSLTSCALE
 70
     1
  9
$TREEDEPTH
 70
  3020
  9
$CMLSTYLE
  2
Standard
  9
$CMLJUST
 70
     0
  9
$CMLSCALE
 40
20.0
  9
$PROXYGRAPHICS
 70
     1
  9
$MEASUREMENT
 70
     1
  9
$CELWEIGHT
370
    -1
  9
$ENDCAPS
280
     0
  9
$JOINSTYLE
280
     0
  9
$LWDISPLAY
290
     0
  9
$INSUNITS
 70
     4
  9
$HYPERLINKBASE
  1

  9
$STYLESHEET
  1

  9
$XEDIT
290
     1
  9
$CEPSNTYPE
380
     0
  9
$PSTYLEMODE
290
     1
  9
$FINGERPRINTGUID
  2
{E6147F25-4B2B-464C-8837-F7EB347F4611}
  9
$VERSIONGUID
  2
{B0882FF8-A165-4540-ACB2-AB468A3FE7DB}
  9
$EXTNAMES
290
     1
  9
$PSVPSCALE
 40
0.0
  9
$OLESTARTUP
290
     0
  0
ENDSEC
  0
SECTION
  2
CLASSES
  0
CLASS
  1
ACDBDICTIONARYWDFLT
  2
AcDbDictionaryWithDefault
  3
ObjectDBX Classes
 90
        0
280
     0
281
     0
  0
CLASS
  1
MATERIAL
  2
AcDbMaterial
  3
ObjectDBX Classes
 90
     1153
280
     0
281
     0
  0
CLASS
  1
VISUALSTYLE
  2
AcDbVisualStyle
  3
ObjectDBX Classes
 90
     4095
280
     0
281
     0
  0
CLASS
  1
SCALE
  2
AcDbScale
  3
ObjectDBX Classes
 90
     1153
280
     0
281
     0
  0
CLASS
  1
TABLESTYLE
  2
AcDbTableStyle
  3
ObjectDBX Classes
 90
     4095
280
     0
281
     0
  0
CLASS
  1
MLEADERSTYLE
  2
AcDbMLeaderStyle
  3
ACDB_MLEADERSTYLE_CLASS
 90
     4095
280
     0
281
     0
  0
CLASS
  1
DIMASSOC
  2
AcDbDimAssoc
  3
"AcDbDimAssoc|Product Desc:     AcDim ARX App For Dimension|Company:          Autodesk, Inc.|WEB Address:      www.autodesk.com"
 90
        0
280
     0
281
     0
  0
CLASS
  1
SORTENTSTABLE
  2
AcDbSortentsTable
  3
ObjectDBX Classes
 90
        0
280
     0
281
     0
  0
CLASS
  1
DICTIONARYVAR
  2
AcDbDictionaryVar
  3
ObjectDBX Classes
 90
        0
280
     0
281
     0
  0
CLASS
  1
ACME_DOCUMENT
  2
AcMeDbDoc
  3
AcMeServices
 90
     1024
280
     0
281
     0
  0
CLASS
  1
AMGSETTINGSOBJ
  2
AmgSettingsObj
  3
"AcadM|Product Description: AutoCAD Mechanical|Company: Autodesk, Inc."
 90
     1024
280
     0
281
     0
  0
CLASS
  1
AMGOBJPROPCFG
  2
AmgObjPropCfg
  3
"AmgLay|Product Description: AutoCAD Mechanical|Company: Autodesk, Inc."
 90
     1025
280
     0
281
     0
  0
CLASS
  1
ACMESCOPE
  2
AcMeScope
  3
AcMeServices
 90
     1024
280
     0
281
     0
  0
CLASS
  1
ACGREFMASTER
  2
AcGrefMaster
  3
AcAttribServices
 90
     1024
280
     0
281
     0
  0
CLASS
  1
ACMECOMMANDHISTORY
  2
AcMeCommandHistory
  3
AcMeServices
 90
     1024
280
     0
281
     0
  0
CLASS
  1
ACIMSYSVARMAN
  2
AcImSysVarManager
  3
AcMeServices
 90
     1024
280
     0
281
     0
  0
CLASS
  1
ACIMINTSYSVAR
  2
AcImIntSysVar
  3
AcMeServices
 90
     1024
280
     0
281
     0
  0
CLASS
  1
ACMEDRAWINGMAN
  2
AcMeDrawingMan
  3
AcMeServices
 90
     1024
280
     0
281
     0
  0
CLASS
  1
ACMEVIEW
  2
AcMeView
  3
AcMeServices
 90
     1024
280
     0
281
     0
  0
CLASS
  1
ACDBENTITYCACHE
  2
AcMeEntityCache
  3
AcMeServices
 90
     1024
280
     0
281
     0
  0
CLASS
  1
ACMESTATEMGR
  2
AcMeStateMgr
  3
AcMeServices
 90
     1024
280
     0
281
     0
  0
CLASS
  1
AM_DRAWING_MGR
  2
AcDmDwgMgr
  3
AcMechDwgViewMgmt
 90
     1024
280
     0
281
     0
  0
CLASS
  1
AM_DWG_DOCUMENT
  2
AcDmDwgDocument
  3
AcMechDwgViewMgmt
 90
     1024
280
     0
281
     0
  0
CLASS
  1
AM_DWG_SHEET
  2
AcDmSheet
  3
AcMechDwgViewMgmt
 90
     1024
280
     0
281
     0
  0
CLASS
  1
AM_VIEWDIMPARMAP
  2
AcDmViewDimParMap
  3
AcMechDwgViewMgmt
 90
     1024
280
     0
281
     0
  0
CLASS
  1
AMDTINTERNALREACTOR
  2
AmdtInternalReactor
  3
AcMeServices
 90
     1024
280
     0
281
     0
  0
CLASS
  1
ACIMREALSYSVAR
  2
AcImRealSysVar
  3
AcMeServices
 90
     1024
280
     0
281
     0
  0
CLASS
  1
AM_DWGMGR_NAME
  2
AcDmDwgMgrName
  3
AcMechDwgViewMgmt
 90
     1024
280
     0
281
     0
  0
CLASS
  1
ACME_DATABASE
  2
AcMeDbDatabase
  3
AcMeServices
 90
     1024
280
     0
281
     0
  0
CLASS
  1
ACRFINSADJUSTERMGR
  2
AcRfInsAdjusterMgr
  3
AcMeServices
 90
     1024
280
     0
281
     0
  0
CLASS
  1
ACGREFACADMASTER
  2
AcGrefacadMaster
  3
AcGrefServices
 90
     1024
280
     0
281
     0
  0
CLASS
  1
AMDTMENUSTATEMGR
  2
AmdtMenuStateMgr
  3
McadcomServices
 90
     1024
280
     0
281
     0
  0
CLASS
  1
AMDTMCOMMENUSTATE
  2
AmdtMcomMenuState
  3
McadcomServices
 90
     1024
280
     0
281
     0
  0
CLASS
  1
AMIMASTER
  2
AmiMaster
  3
AmiServices
 90
     1024
280
     0
281
     0
  0
CLASS
  1
MAPIAMMOUDLE
  2
MApiAmModule
  3
MApiAmServices
 90
     1024
280
     0
281
     0
  0
CLASS
  1
AMDTWELDINGLIBRARY
  2
AmdtWeldingLibrary
  3
"AcmSymBB|Product Description: AutoCAD Mechanical|Company: Autodesk, Inc."
 90
     4095
280
     0
281
     0
  0
CLASS
  1
AMDTWELDINGLIBOBJECT
  2
AmdtWeldingLibObject
  3
"AcmSymBB|Product Description: AutoCAD Mechanical|Company: Autodesk, Inc."
 90
     4095
280
     0
281
     0
  0
CLASS
  1
AMDTEDGELIBRARY
  2
AmdtEdgeLibrary
  3
"AcmSymBB|Product Description: AutoCAD Mechanical|Company: Autodesk, Inc."
 90
     4095
280
     0
281
     0
  0
CLASS
  1
AMDTEDGELIBOBJECT
  2
AmdtEdgeLibObject
  3
"AcmSymBB|Product Description: AutoCAD Mechanical|Company: Autodesk, Inc."
 90
     4095
280
     0
281
     0
  0
CLASS
  1
AMDTFCFLIBRARY
  2
AmdtFCFLibrary
  3
"AcmSymBB|Product Description: AutoCAD Mechanical|Company: Autodesk, Inc."
 90
     4095
280
     0
281
     0
  0
CLASS
  1
AMDTFCFLIBOBJECT
  2
AmdtFCFLibObject
  3
"AcmSymBB|Product Description: AutoCAD Mechanical|Company: Autodesk, Inc."
 90
     4095
280
     0
281
     0
  0
CLASS
  1
ACMSTANDARDJIS
  2
AcmStandardJIS
  3
"Amdt_StdImp|Product Description: AutoCAD Mechanical|Company: Autodesk, Inc."
 90
     1024
280
     0
281
     0
  0
CLASS
  1
ACMSURFSTANDARDJIS2003
  2
AcmSurfTextStdJIS2003
  3
"Amdt_StdImp|Product Description: AutoCAD Mechanical|Company: Autodesk, Inc."
 90
     1024
280
     0
281
     0
  0
CLASS
  1
ACMFCFSTANDARDJIS98
  2
AcmFCFStdJIS98
  3
"Amdt_StdImp|Product Description: AutoCAD Mechanical|Company: Autodesk, Inc."
 90
     1024
280
     0
281
     0
  0
CLASS
  1
ACMWELDSTANDARDJIS
  2
AcmWeldingStdJIS
  3
"Amdt_StdImp|Product Description: AutoCAD Mechanical|Company: Autodesk, Inc."
 90
     1024
280
     0
281
     0
  0
CLASS
  1
ACMIDSTANDARDJIS
  2
AcmIdStdJIS
  3
"Amdt_StdImp|Product Description: AutoCAD Mechanical|Company: Autodesk, Inc."
 90
     1024
280
     0
281
     0
  0
CLASS
  1
ACMDATUMSTANDARDJIS
  2
AcmDatumStdJIS
  3
"Amdt_StdImp|Product Description: AutoCAD Mechanical|Company: Autodesk, Inc."
 90
     1024
280
     0
281
     0
  0
CLASS
  1
ACMBOMSTANDARDJIS
  2
AcmBOMStdJIS
  3
"Amdt_StdImp|Product Description: AutoCAD Mechanical|Company: Autodesk, Inc."
 90
     1024
280
     0
281
     0
  0
CLASS
  1
ACMDETAILSTANDARDJIS
  2
AmdtDetailSymStdJIS
  3
"Amdt_StdImp|Product Description: AutoCAD Mechanical|Company: Autodesk, Inc."
 90
     1024
280
     0
281
     0
  0
CLASS
  1
ACMSECTIONSTANDARDJIS
  2
AmdtSectionSymStdJIS
  3
"Amdt_StdImp|Product Description: AutoCAD Mechanical|Company: Autodesk, Inc."
 90
     1024
280
     0
281
     0
  0
CLASS
  1
ACMCENTERLINESTANDARDJIS
  2
AmdtCenterLineStdJIS
  3
"Amdt_StdImp|Product Description: AutoCAD Mechanical|Company: Autodesk, Inc."
 90
     1024
280
     0
281
     0
  0
CLASS
  1
ACMTHREADLINESTANDARDJIS
  2
AmdtThreadLineStdJIS
  3
"Amdt_StdImp|Product Description: AutoCAD Mechanical|Company: Autodesk, Inc."
 90
     1024
280
     0
281
     0
  0
CLASS
  1
ACAMGLAYSTD
  2
AcAmgLayStd
  3
"AmgLay|Product Description: AutoCAD Mechanical|Company: Autodesk, Inc."
 90
     1024
280
     0
281
     0
  0
CLASS
  1
ACAMGDIMSTD
  2
AcAmgDimStd
  3
"AmgDim|Product Description: AutoCAD Mechanical|Company: Autodesk, Inc."
 90
     1024
280
     0
281
     0
  0
CLASS
  1
ACAMGTITLESTD
  2
AcAmgTitleStd
  3
"AmgTitle|Product Description: AutoCAD Mechanical|Company: Autodesk, Inc."
 90
     4095
280
     0
281
     0
  0
CLASS
  1
ACMNOTESTANDARDJIS
  2
AmdtNoteStdJIS
  3
"Amdt_StdImp|Product Description: AutoCAD Mechanical|Company: Autodesk, Inc."
 90
     1024
280
     0
281
     0
  0
CLASS
  1
AMDTNOTETEMPLATEDB
  2
AmdtNoteTemplateDB
  3
AcmSymBB|Product Description: AutoCAD Mechanical|Company: Autodesk, Inc.
 90
     1024
280
     0
281
     0
  0
CLASS
  1
ACAMGHOLECHARTSTDJIS
  2
AcAmgHoleChartStdJIS
  3
AmgDim|Product Description: AutoCAD Mechanical|Company: Autodesk, Inc.
 90
     1024
280
     0
281
     0
  0
CLASS
  1
ACMTAPERSTANDARDJIS
  2
AcmTaperStdJIS
  3
"Amdt_StdImp|Product Description: AutoCAD Mechanical|Company: Autodesk, Inc."
 90
     1024
280
     0
281
     0
  0
CLASS
  1
ACMANOOTATIONVIEWSTANDARDJIS
  2
AmdtAnViewStdJIS
  3
"Amdt_StdImp|Product Description: AutoCAD Mechanical|Company: Autodesk, Inc."
 90
     1024
280
     0
281
     0
  0
CLASS
  1
AMDTEDGESTANDARDJIS
  2
AmdtEdgeStdJIS
  3
"Amdt_StdImp|Product Description: AutoCAD Mechanical|Company: Autodesk, Inc."
 90
     1024
280
     0
281
     0
  0
CLASS
  1
ACIMSTRSYSVAR
  2
AcImStrSysVar
  3
AcMeServices
 90
     1024
280
     0
281
     0
  0
CLASS
  1
AMDTADMENUSTATE
  2
AmdtAdMenuState
  3
DesignerServices
 90
     1024
280
     0
281
     0
  0
CLASS
  1
ADAPPL
  2
AcAdAppl
  3
DesignerServices
 90
     1024
280
     0
281
     0
  0
CLASS
  1
DEPMGR
  2
AcAdDepMgr
  3
DesignerServices
 90
     1024
280
     0
281
     0
  0
CLASS
  1
PARAMMGR
  2
AcAdParamMgr
  3
DesignerServices
 90
     1024
280
     0
281
     0
  0
CLASS
  1
PARAMSCOPE
  2
AcAdParamScope
  3
DesignerServices
 90
     1024
280
     0
281
     0
  0
CLASS
  1
NAMEDAPPL
  2
AcAdNamedAppl
  3
DesignerServices
 90
     1024
280
     0
281
     0
  0
CLASS
  1
AMDTDMMENUSTATE
  2
AmdtDmMenuState
  3
AcMechDwgViewMgmt
 90
     1024
280
     0
281
     0
  0
CLASS
  1
AMDTAMMENUSTATE
  2
AmdtAmMenuState
  3
DesignerAssemblies
 90
     1024
280
     0
281
     0
  0
CLASS
  1
ACAMPROJECT
  2
AcAmProject
  3
DesignerAssemblies
 90
     1024
280
     0
281
     0
  0
CLASS
  1
ACAMGRCOMPDEF
  2
AcAmGrCompDef
  3
DesignerAssemblies
 90
     1024
280
     0
281
     0
  0
CLASS
  1
ACAMCOMPDEF
  2
AcAmCompDef
  3
DesignerAssemblies
 90
     1024
280
     0
281
     0
  0
CLASS
  1
ACAMCOMPDEFMGR
  2
AcAmCompDefMgr
  3
DesignerAssemblies
 90
     1024
280
     0
281
     0
  0
CLASS
  1
AMCONTEXTMGR
  2
AcAmContextMgr
  3
DesignerAssemblies
 90
     1024
280
     0
281
     0
  0
CLASS
  1
ACAMCONTEXTMODELER
  2
AcAmContextModeler
  3
DesignerAssemblies
 90
     1024
280
     0
281
     0
  0
CLASS
  1
ACMDATADICTIONARY
  2
AcmDataDictionary
  3
"AcmSymBB|Product Description: AutoCAD Mechanical|Company: Autodesk, Inc."
 90
     1024
280
     0
281
     0
  0
CLASS
  1
CATALOGSTATE
  2
AcAmCatalogState
  3
DesignerAssemblies
 90
     1024
280
     0
281
     0
  0
CLASS
  1
ACAMGRCOMPDEFSET
  2
AcAmGrCompDefSet
  3
DesignerAssemblies
 90
     1024
280
     0
281
     0
  0
CLASS
  1
AMDTBROWSERDBTAB
  2
AmdtBrowserDbTab
  3
McadcomServices
 90
     1024
280
     0
281
     0
  0
CLASS
  1
CBROWSERAPPOBJECT
  2
CBrowserAppObject
  3
McadcomServices
 90
     1024
280
     0
281
     0
  0
CLASS
  1
DM_PLACEHOLDER
  2
AcDmSelsetPlaceholder
  3
AcMechDwgViewMgmt
 90
     1024
280
     0
281
     0
  0
CLASS
  1
EXACXREFPANELOBJECT
  2
ExAcXREFPanelObject
  3
EXAC_ESW
 90
     1025
280
     0
281
     0
  0
CLASS
  1
NPOCOLLECTION
  2
AcDbImpNonPersistentObjectsCollection
  3
ObjectDBX Classes
 90
     1153
280
     0
281
     0
  0
CLASS
  1
ACAMGFILTERDAT
  2
AcAmgFilterDat
  3
"AcadM|Product Description: AutoCAD Mechanical|Company: Autodesk, Inc."
 90
     1024
280
     0
281
     0
  0
CLASS
  1
CELLSTYLEMAP
  2
AcDbCellStyleMap
  3
ObjectDBX Classes
 90
     1152
280
     0
281
     0
  0
CLASS
  1
ACDBPLACEHOLDER
  2
AcDbPlaceHolder
  3
ObjectDBX Classes
 90
        0
280
     0
281
     0
  0
CLASS
  1
LAYOUT
  2
AcDbLayout
  3
ObjectDBX Classes
 90
        0
280
     0
281
     0
  0
ENDSEC
  0
SECTION
  2
TABLES
  0
TABLE
  2
VPORT
  5
8
330
0
100
AcDbSymbolTable
 70
     1
  0
VPORT
  5
52
330
8
100
AcDbSymbolTableRecord
100
AcDbViewportTableRecord
  2
*Active
 70
     0
 10
0.0
 20
0.0
 11
1.0
 21
1.0
 12
112.5023622581717
 22
124.119260710855
 13
0.0
 23
0.0
 14
10.0
 24
10.0
 15
10.0
 25
10.0
 16
0.0
 26
0.0
 36
1.0
 17
0.0
 27
0.0
 37
0.0
 40
272.1270170724906
 41
0.8300733496332519
 42
50.0
 43
0.0
 44
0.0
 50
0.0
 51
0.0
 71
     0
 72
  1000
 73
     1
 74
     1
 75
     0
 76
     0
 77
     0
 78
     0
281
     0
 65
     1
110
0.0
120
0.0
130
0.0
111
1.0
121
0.0
131
0.0
112
0.0
122
1.0
132
0.0
 79
     0
146
0.0
  0
ENDTAB
  0
TABLE
  2
LTYPE
  5
5
330
0
100
AcDbSymbolTable
 70
    15
  0
LTYPE
  5
56
330
5
100
AcDbSymbolTableRecord
100
AcDbLinetypeTableRecord
  2
ByBlock
 70
     0
  3

 72
    65
 73
     0
 40
0.0
  0
LTYPE
  5
57
330
5
100
AcDbSymbolTableRecord
100
AcDbLinetypeTableRecord
  2
ByLayer
 70
     0
  3

 72
    65
 73
     0
 40
0.0
  0
LTYPE
  5
58
330
5
100
AcDbSymbolTableRecord
100
AcDbLinetypeTableRecord
  2
Continuous
 70
     0
  3
Solid line
 72
    65
 73
     0
 40
0.0
  0
LTYPE
  5
93
330
5
100
AcDbSymbolTableRecord
100
AcDbLinetypeTableRecord
  2
AM_ISO02W050
 70
     0
  3
__ __ __ __ __ __ __ __ __ __ __ __ __ __ __
 72
    65
 73
     2
 40
7.5
 49
6.0
 74
     0
 49
-1.5
 74
     0
  0
LTYPE
  5
94
330
5
100
AcDbSymbolTableRecord
100
AcDbLinetypeTableRecord
  2
AM_ISO08W050
 70
     0
  3
____ . ____ . ____ . ____ . ____ . ____ . ____
 72
    65
 73
     4
 40
18.0
 49
12.0
 74
     0
 49
-1.5
 74
     0
 49
3.0
 74
     0
 49
-1.5
 74
     0
  0
LTYPE
  5
95
330
5
100
AcDbSymbolTableRecord
100
AcDbLinetypeTableRecord
  2
AM_ISO09W050
 70
     0
  3
_____ . . _____ . . _____ . . ____ .. ____
 72
    65
 73
     6
 40
22.5
 49
12.0
 74
     0
 49
-1.5
 74
     0
 49
3.0
 74
     0
 49
-1.5
 74
     0
 49
3.0
 74
     0
 49
-1.5
 74
     0
  0
LTYPE
  5
96
330
5
100
AcDbSymbolTableRecord
100
AcDbLinetypeTableRecord
  2
Amconstr
 70
     0
  3
_______________________
 72
    65
 73
     2
 40
9999.0
 49
9999.0
 74
     0
 49
0.0
 74
     0
  0
LTYPE
  5
97
330
5
100
AcDbSymbolTableRecord
100
AcDbLinetypeTableRecord
  2
AM_ISO08W050x2
 70
     0
  3
__ . __ . __ . __ . __ . __
 72
    65
 73
     4
 40
9.0
 49
6.0
 74
     0
 49
-0.75
 74
     0
 49
1.5
 74
     0
 49
-0.75
 74
     0
  0
LTYPE
  5
98
330
5
100
AcDbSymbolTableRecord
100
AcDbLinetypeTableRecord
  2
AM_ISO02W050x2
 70
     0
  3
 _ _ _ _ _ _ _ _ _ _ _ _
 72
    65
 73
     2
 40
3.75
 49
3.0
 74
     0
 49
-0.75
 74
     0
  0
LTYPE
  5
99
330
5
100
AcDbSymbolTableRecord
100
AcDbLinetypeTableRecord
  2
Amzigzag
 70
     0
  3
/\/-/\/-/\/-/\/-/\/-/\/
 72
    65
 73
     2
 40
11.0001
 49
0.0001
 74
     4
 75
   136
340
8A
 46
0.04
 50
0.0
 44
0.0
 45
0.0
 49
-11.0
 74
     0
  0
LTYPE
  5
9A
330
5
100
AcDbSymbolTableRecord
100
AcDbLinetypeTableRecord
  2
ACJISTGB
 70
     0
  3
__ . . __ . .
 72
    65
 73
     6
 40
9.0
 49
4.0
 74
     0
 49
-1.0
 74
     0
 49
1.0
 74
     0
 49
-1.0
 74
     0
 49
1.0
 74
     0
 49
-1.0
 74
     0
  0
LTYPE
  5
9B
330
5
100
AcDbSymbolTableRecord
100
AcDbLinetypeTableRecord
  2
ACJISTGL
 70
     0
  3
_ _ _ _ _
 72
    65
 73
     2
 40
3.0
 49
2.0
 74
     0
 49
-1.0
 74
     0
  0
LTYPE
  5
9C
330
5
100
AcDbSymbolTableRecord
100
AcDbLinetypeTableRecord
  2
HIDDEN
 70
     0
  3
Hidden __ __ __ __ __ __ __ __ __ __ __ __ __ _
 72
    65
 73
     2
 40
9.524999999999998
 49
6.349999999999999
 74
     0
 49
-3.174999999999999
 74
     0
  0
LTYPE
  5
9D
330
5
100
AcDbSymbolTableRecord
100
AcDbLinetypeTableRecord
  2
ACJISWELD
 70
     0
  3
_ _ _ _ _
 72
    65
 73
     2
 40
2.0
 49
2.0
 74
     0
 49
-1.0
 74
     0
  0
LTYPE
  5
9E
330
5
100
AcDbSymbolTableRecord
100
AcDbLinetypeTableRecord
  2
DASH_DOT
 70
     0
  3
Dash dot __ . __ . __ . __ . __ . __ . __ . __
 72
    65
 73
     4
 40
0.37
 49
0.24
 74
     0
 49
-0.06
 74
     0
 49
0.01
 74
     0
 49
-0.06
 74
     0
  0
LTYPE
  5
9F
330
5
100
AcDbSymbolTableRecord
100
AcDbLinetypeTableRecord
  2
PHANTOM2
 70
     0
  3
Phantom (.5x) ___ _ _ ___ _ _ ___ _ _ ___ _ _
 72
    65
 73
     6
 40
31.75
 49
15.875
 74
     0
 49
-3.174999999999999
 74
     0
 49
3.174999999999999
 74
     0
 49
-3.174999999999999
 74
     0
 49
3.174999999999999
 74
     0
 49
-3.174999999999999
 74
     0
  0
LTYPE
  5
A0
330
5
100
AcDbSymbolTableRecord
100
AcDbLinetypeTableRecord
  2
CENTER
 70
     0
  3
Center ____ _ ____ _ ____ _ ____ _ ____ _ ____
 72
    65
 73
     4
 40
50.8
 49
31.75
 74
     0
 49
-6.349999999999999
 74
     0
 49
6.349999999999999
 74
     0
 49
-6.349999999999999
 74
     0
  0
ENDTAB
  0
TABLE
  2
LAYER
  5
2
330
0
100
AcDbSymbolTable
 70
     7
  0
LAYER
  5
4F
102
{ACAD_XDICTIONARY
360
61C
102
}
330
2
100
AcDbSymbolTableRecord
100
AcDbLayerTableRecord
  2
0
 70
     0
 62
     7
  6
Continuous
370
    -3
390
F
1001
AcAecLayerStandard
1000

1000

  0
LAYER
  5
70
330
2
100
AcDbSymbolTableRecord
100
AcDbLayerTableRecord
  2
Defpoints
 70
     0
 62
     7
  6
Continuous
290
     0
370
    -3
390
F
1001
AcAecLayerStandard
1000

1000

  0
LAYER
  5
C8
102
{ACAD_XDICTIONARY
360
C9
102
}
330
2
100
AcDbSymbolTableRecord
100
AcDbLayerTableRecord
  2
AM_VIEWS
 70
     0
 62
     1
  6
Continuous
290
     0
370
    25
390
F
1001
AcAecLayerStandard
1000

1000

  0
LAYER
  5
D1
102
{ACAD_XDICTIONARY
360
D2
102
}
330
2
100
AcDbSymbolTableRecord
100
AcDbLayerTableRecord
  2
AM_5
 70
     0
 62
    92
  6
Continuous
370
    13
390
F
1001
AcAecLayerStandard
1000

1000

  0
LAYER
  5
F0
102
{ACAD_XDICTIONARY
360
F1
102
}
330
2
100
AcDbSymbolTableRecord
100
AcDbLayerTableRecord
  2
AM_0
 70
     0
 62
     7
  6
Continuous
370
    35
390
F
  0
LAYER
  5
154
102
{ACAD_XDICTIONARY
360
155
102
}
330
2
100
AcDbSymbolTableRecord
100
AcDbLayerTableRecord
  2
AM_7
 70
     0
 62
   142
  6
AM_ISO08W050x2
370
    13
390
F
1001
AcAecLayerStandard
1000

1000

  0
LAYER
  5
236
102
{ACAD_XDICTIONARY
360
61E
102
}
330
2
100
AcDbSymbolTableRecord
100
AcDbLayerTableRecord
  2
Viewport2ForCustomObjects_0
 70
     0
 62
     7
  6
Continuous
370
    -3
390
F
  0
ENDTAB
  0
TABLE
  2
STYLE
  5
3
330
0
100
AcDbSymbolTable
 70
    12
  0
STYLE
  5
50
330
3
100
AcDbSymbolTableRecord
100
AcDbTextStyleTableRecord
  2
STANDARD
 70
     0
 40
0.0
 41
1.0
 50
0.0
 71
     0
 42
2.5
  3
TAHOMA.TTF
  4

1001
ACAD
1000
Tahoma
1071
       34
  0
STYLE
  5
55
330
3
100
AcDbSymbolTableRecord
100
AcDbTextStyleTableRecord
  2
Annotative
 70
     0
 40
0.0
 41
1.0
 50
0.0
 71
     0
 42
0.2
  3
txt
  4

1001
AcadAnnotative
1000
AnnotativeData
1002
{
1070
     1
1070
     1
1002
}
  0
STYLE
  5
89
330
3
100
AcDbSymbolTableRecord
100
AcDbTextStyleTableRecord
  2
ACJISGDT
 70
     0
 40
0.0
 41
1.0
 50
0.0
 71
     0
 42
2.5
  3
amgdt.shx
  4
extfont2.shx
  0
STYLE
  5
8A
330
3
100
AcDbSymbolTableRecord
100
AcDbTextStyleTableRecord
  2

 70
     1
 40
0.0
 41
1.0
 50
0.0
 71
     0
 42
2.5
  3
genltshp.shx
  4

  0
STYLE
  5
8B
330
3
100
AcDbSymbolTableRecord
100
AcDbTextStyleTableRecord
  2
Note Text (JIS)
 70
     0
 40
0.0
 41
1.0
 50
0.0
 71
     0
 42
0.2
  3
TAHOMA.TTF
  4

1001
ACAD
1000
Tahoma
1071
      256
  0
STYLE
  5
8C
330
3
100
AcDbSymbolTableRecord
100
AcDbTextStyleTableRecord
  2
CustomTextStyle0
 70
     0
 40
3.5
 41
1.0
 50
0.0
 71
     0
 42
2.5
  3
TAHOMA.TTF
  4

1001
ACAD
1000
Tahoma
1071
      290
  0
STYLE
  5
8D
330
3
100
AcDbSymbolTableRecord
100
AcDbTextStyleTableRecord
  2
CustomTextStyle1
 70
     0
 40
3.5
 41
1.0
 50
0.0
 71
     0
 42
2.5
  3
MS PGothic.ttf
  4

1001
ACAD
1000
MS PGothic
1071
      306
  0
STYLE
  5
8E
330
3
100
AcDbSymbolTableRecord
100
AcDbTextStyleTableRecord
  2
CustomTextStyle2
 70
     0
 40
3.5
 41
1.0
 50
0.0
 71
     0
 42
2.5
  3
TAHOMA.TTF
  4

1001
ACAD
1000
Tahoma
1071
      290
  0
STYLE
  5
8F
330
3
100
AcDbSymbolTableRecord
100
AcDbTextStyleTableRecord
  2
CustomTextStyle3
 70
     0
 40
3.5
 41
1.0
 50
0.0
 71
     0
 42
2.5
  3
MS PGothic.ttf
  4

1001
ACAD
1000
MS PGothic
1071
      306
  0
STYLE
  5
90
330
3
100
AcDbSymbolTableRecord
100
AcDbTextStyleTableRecord
  2
CustomTextStyle4
 70
     0
 40
3.5
 41
1.0
 50
0.0
 71
     0
 42
2.5
  3
TAHOMA.TTF
  4

1001
ACAD
1000
Tahoma
1071
      290
  0
STYLE
  5
91
330
3
100
AcDbSymbolTableRecord
100
AcDbTextStyleTableRecord
  2
CustomTextStyle5
 70
     0
 40
3.5
 41
1.0
 50
0.0
 71
     0
 42
2.5
  3
MS PGothic.ttf
  4

1001
ACAD
1000
MS PGothic
1071
      306
  0
STYLE
  5
92
330
3
100
AcDbSymbolTableRecord
100
AcDbTextStyleTableRecord
  2
CustomTextStyle6
 70
     0
 40
3.5
 41
1.0
 50
0.0
 71
     0
 42
2.5
  3
MS PGothic.ttf
  4

1001
ACAD
1000
MS PGothic
1071
      306
  0
ENDTAB
  0
TABLE
  2
VIEW
  5
6
330
0
100
AcDbSymbolTable
 70
     0
  0
ENDTAB
  0
TABLE
  2
UCS
  5
7
330
0
100
AcDbSymbolTable
 70
     0
  0
ENDTAB
  0
TABLE
  2
APPID
  5
9
330
0
100
AcDbSymbolTable
 70
    43
  0
APPID
  5
51
330
9
100
AcDbSymbolTableRecord
100
AcDbRegAppTableRecord
  2
ACAD
 70
     0
  0
APPID
  5
59
330
9
100
AcDbSymbolTableRecord
100
AcDbRegAppTableRecord
  2
AcadAnnotative
 70
     0
  0
APPID
  5
6F
330
9
100
AcDbSymbolTableRecord
100
AcDbRegAppTableRecord
  2
ACAD_PSEXT
 70
     0
  0
APPID
  5
71
330
9
100
AcDbSymbolTableRecord
100
AcDbRegAppTableRecord
  2
ACAD_DSTYLE_DIMJOGGED_JOGANGLE_SYMBOL
 70
     0
  0
APPID
  5
72
330
9
100
AcDbSymbolTableRecord
100
AcDbRegAppTableRecord
  2
ACAD_DSTYLE_DIMJAG
 70
     0
  0
APPID
  5
73
330
9
100
AcDbSymbolTableRecord
100
AcDbRegAppTableRecord
  2
ACAD_DSTYLE_DIMBREAK
 70
     0
  0
APPID
  5
74
330
9
100
AcDbSymbolTableRecord
100
AcDbRegAppTableRecord
  2
AcAecLayerStandard
 70
     0
  0
APPID
  5
75
330
9
100
AcDbSymbolTableRecord
100
AcDbRegAppTableRecord
  2
GENIUS_GENREC_14
 70
     0
  0
APPID
  5
76
330
9
100
AcDbSymbolTableRecord
100
AcDbRegAppTableRecord
  2
GENIUS_GENODEF_13
 70
     0
  0
APPID
  5
77
330
9
100
AcDbSymbolTableRecord
100
AcDbRegAppTableRecord
  2
GENIUS_GENOBJ-N-REC_13
 70
     0
  0
APPID
  5
78
330
9
100
AcDbSymbolTableRecord
100
AcDbRegAppTableRecord
  2
ACAD_DSTYLE_DIMTALN
 70
     0
  0
APPID
  5
79
330
9
100
AcDbSymbolTableRecord
100
AcDbRegAppTableRecord
  2
GENIUS_GENOENT_13
 70
     0
  0
APPID
  5
7A
330
9
100
AcDbSymbolTableRecord
100
AcDbRegAppTableRecord
  2
GENIUS_GENOBJ-N-FITL_13
 70
     0
  0
APPID
  5
7B
330
9
100
AcDbSymbolTableRecord
100
AcDbRegAppTableRecord
  2
GENIUS_GENOLIS_13
 70
     0
  0
APPID
  5
7C
330
9
100
AcDbSymbolTableRecord
100
AcDbRegAppTableRecord
  2
GENIUS_GENFITL_13
 70
     0
  0
APPID
  5
7D
330
9
100
AcDbSymbolTableRecord
100
AcDbRegAppTableRecord
  2
GENIUS_GENOREF_13
 70
     0
  0
APPID
  5
7E
330
9
100
AcDbSymbolTableRecord
100
AcDbRegAppTableRecord
  2
GENIUS_GENOBJ-N-RSSYM_13
 70
     0
  0
APPID
  5
7F
330
9
100
AcDbSymbolTableRecord
100
AcDbRegAppTableRecord
  2
GENIUS_GENSYMENT_13
 70
     0
  0
APPID
  5
80
330
9
100
AcDbSymbolTableRecord
100
AcDbRegAppTableRecord
  2
ACAD_DSTYLE_DIMINSPECT
 70
     0
  0
APPID
  5
81
330
9
100
AcDbSymbolTableRecord
100
AcDbRegAppTableRecord
  2
GENIUS_GENSCREG_15
 70
     0
  0
APPID
  5
82
330
9
100
AcDbSymbolTableRecord
100
AcDbRegAppTableRecord
  2
GENIUS_GENOBJ-N-SDF_13
 70
     0
  0
APPID
  5
83
330
9
100
AcDbSymbolTableRecord
100
AcDbRegAppTableRecord
  2
GENIUS_GENOBJ-N-CRS_13
 70
     0
  0
APPID
  5
84
330
9
100
AcDbSymbolTableRecord
100
AcDbRegAppTableRecord
  2
AcDbDynamicBlockGUID
 70
     0
  0
APPID
  5
85
330
9
100
AcDbSymbolTableRecord
100
AcDbRegAppTableRecord
  2
GENIUS_AMGTXT_16
 70
     0
  0
APPID
  5
86
330
9
100
AcDbSymbolTableRecord
100
AcDbRegAppTableRecord
  2
GENIUS_GENOBJ-N-CEN_13
 70
     0
  0
APPID
  5
87
330
9
100
AcDbSymbolTableRecord
100
AcDbRegAppTableRecord
  2
GENIUS_GENCEN_19
 70
     0
  0
APPID
  5
88
330
9
100
AcDbSymbolTableRecord
100
AcDbRegAppTableRecord
  2
ACATTRIBSERVICES
 70
     0
  0
APPID
  5
56F
330
9
100
AcDbSymbolTableRecord
100
AcDbRegAppTableRecord
  2
MCAD_NO_VIS
 70
     0
  0
APPID
  5
570
330
9
100
AcDbSymbolTableRecord
100
AcDbRegAppTableRecord
  2
ACAD_TEMP_GRAPHIC
 70
     0
  0
APPID
  5
571
330
9
100
AcDbSymbolTableRecord
100
AcDbRegAppTableRecord
  2
AD_DRAW
 70
     0
  0
APPID
  5
572
330
9
100
AcDbSymbolTableRecord
100
AcDbRegAppTableRecord
  2
DESIGNERASSEMBLIES
 70
     0
  0
APPID
  5
573
330
9
100
AcDbSymbolTableRecord
100
AcDbRegAppTableRecord
  2
ACADM_DIM_EDIT
 70
     0
  0
APPID
  5
574
330
9
100
AcDbSymbolTableRecord
100
AcDbRegAppTableRecord
  2
AMDT_DM_ADJ
 70
     0
  0
APPID
  5
575
330
9
100
AcDbSymbolTableRecord
100
AcDbRegAppTableRecord
  2
ACAD_DSTYLE_DIMARC_LENGTH_SYMBOL
 70
     0
  0
APPID
  5
576
330
9
100
AcDbSymbolTableRecord
100
AcDbRegAppTableRecord
  2
ACAD_MLEADERVER
 70
     0
  0
APPID
  5
577
330
9
100
AcDbSymbolTableRecord
100
AcDbRegAppTableRecord
  2
ACAD_EXEMPT_FROM_CAD_STANDARDS
 70
     0
  0
APPID
  5
578
330
9
100
AcDbSymbolTableRecord
100
AcDbRegAppTableRecord
  2
AcadAnnoPO
 70
     0
  0
APPID
  5
579
330
9
100
AcDbSymbolTableRecord
100
AcDbRegAppTableRecord
  2
GENIUS_GENTRA_14
 70
     0
  0
APPID
  5
57A
330
9
100
AcDbSymbolTableRecord
100
AcDbRegAppTableRecord
  2
GENIUS_GENSCSYM_13
 70
     0
  0
APPID
  5
57B
330
9
100
AcDbSymbolTableRecord
100
AcDbRegAppTableRecord
  2
ACAD_DSTYLE_DIMRADIAL_EXTENSION
 70
     0
  0
APPID
  5
665
330
9
100
AcDbSymbolTableRecord
100
AcDbRegAppTableRecord
  2
ACAD_DSTYLE_DIM_LINETYPE
 70
     0
  0
APPID
  5
666
330
9
100
AcDbSymbolTableRecord
100
AcDbRegAppTableRecord
  2
ACAD_DSTYLE_DIM_EXT1_LINETYPE
 70
     0
  0
APPID
  5
667
330
9
100
AcDbSymbolTableRecord
100
AcDbRegAppTableRecord
  2
ACAD_DSTYLE_DIM_EXT2_LINETYPE
 70
     0
  0
ENDTAB
  0
TABLE
  2
DIMSTYLE
  5
A
330
0
100
AcDbSymbolTable
 70
    12
100
AcDbDimStyleTable
 71
     1
340
A2
  0
DIMSTYLE
105
53
330
A
100
AcDbSymbolTableRecord
100
AcDbDimStyleTableRecord
  2
Standard
 70
     0
340
50
  0
DIMSTYLE
105
54
330
A
100
AcDbSymbolTableRecord
100
AcDbDimStyleTableRecord
  2
Annotative
 70
     0
340
50
1001
AcadAnnotative
1000
AnnotativeData
1002
{
1070
     1
1070
     1
1002
}
  0
DIMSTYLE
105
A1
330
A
100
AcDbSymbolTableRecord
100
AcDbDimStyleTableRecord
  2
ISO-25
 70
     0
 41
2.5
 42
0.625
 43
3.75
 44
1.25
 73
     0
 74
     0
 77
     1
 78
     8
140
2.5
141
2.5
143
0.03937007874016
147
0.625
171
     3
172
     1
271
     2
272
     2
274
     3
278
    44
283
     0
284
     8
340
50
  0
DIMSTYLE
105
A2
330
A
100
AcDbSymbolTableRecord
100
AcDbDimStyleTableRecord
  2
AM_JIS
 70
     0
  4
"
 41
2.5
 42
0.5
 43
8.0
 44
1.0
 47
0.1
 48
0.1000000001
 73
     0
 74
     0
 77
     3
 78
     8
 79
     2
140
3.5
141
0.0
143
0.0393701
146
0.55
147
0.8
172
     1
176
   256
177
   256
178
   140
271
     3
272
     3
283
     0
284
     8
340
50
341
A3
342
A3
371
    -1
372
    -1
1001
ACAD_DSTYLE_DIMJOGGED_JOGANGLE_SYMBOL
1070
   384
1040
0.7853981633974483
1001
ACAD_DSTYLE_DIMBREAK
1070
   391
1040
3.75
1001
ACAD_DSTYLE_DIMJAG
1070
   388
1040
1.5
1001
ACAD_DSTYLE_DIMTALN
1070
   392
1070
     0
1001
ACAD_DSTYLE_DIMARC_LENGTH_SYMBOL
1070
   379
1070
     1
1001
ACAD_DSTYLE_DIM_LINETYPE
1070
   380
1005
56
1001
ACAD_DSTYLE_DIM_EXT1_LINETYPE
1070
   381
1005
56
1001
ACAD_DSTYLE_DIM_EXT2_LINETYPE
1070
   382
1005
56
  0
DIMSTYLE
105
A9
330
A
100
AcDbSymbolTableRecord
100
AcDbDimStyleTableRecord
  2
AM_JIS$3
 70
     0
  4
"
 41
2.5
 42
0.5
 43
8.0
 44
1.0
 47
0.1
 48
0.1000000001
 73
     0
 77
     3
 78
     8
 79
     2
140
3.5
141
0.0
143
0.0393701
146
0.55
147
0.8
176
   256
177
   256
178
   140
271
     3
272
     3
283
     0
284
     8
288
     1
289
     0
340
50
341
A3
342
A3
371
    -1
372
    -1
1001
ACAD_DSTYLE_DIMJOGGED_JOGANGLE_SYMBOL
1070
   384
1040
0.7853981633974483
1001
ACAD_DSTYLE_DIMBREAK
1070
   391
1040
3.75
1001
ACAD_DSTYLE_DIMJAG
1070
   388
1040
1.5
1001
ACAD_DSTYLE_DIMTALN
1070
   392
1070
     0
1001
ACAD_DSTYLE_DIMARC_LENGTH_SYMBOL
1070
   379
1070
     1
1001
ACAD_DSTYLE_DIM_LINETYPE
1070
   380
1005
56
1001
ACAD_DSTYLE_DIM_EXT1_LINETYPE
1070
   381
1005
56
1001
ACAD_DSTYLE_DIM_EXT2_LINETYPE
1070
   382
1005
56
  0
DIMSTYLE
105
AA
330
A
100
AcDbSymbolTableRecord
100
AcDbDimStyleTableRecord
  2
AM_JIS$4
 70
     0
  4
"
 41
2.5
 42
0.5
 43
8.0
 44
1.0
 47
0.1
 48
0.1000000001
 73
     0
 74
     0
 77
     3
 78
     8
 79
     2
140
3.5
141
0.0
143
0.0393701
146
0.55
147
0.8
172
     1
176
   256
177
   256
178
   140
271
     3
272
     3
283
     0
284
     8
340
50
341
A3
342
A3
371
    -1
372
    -1
1001
ACAD_DSTYLE_DIMJOGGED_JOGANGLE_SYMBOL
1070
   384
1040
0.7853981633974483
1001
ACAD_DSTYLE_DIMBREAK
1070
   391
1040
3.75
1001
ACAD_DSTYLE_DIMJAG
1070
   388
1040
1.5
1001
ACAD_DSTYLE_DIMTALN
1070
   392
1070
     0
1001
ACAD_DSTYLE_DIMARC_LENGTH_SYMBOL
1070
   379
1070
     1
1001
ACAD_DSTYLE_DIM_LINETYPE
1070
   380
1005
56
1001
ACAD_DSTYLE_DIM_EXT1_LINETYPE
1070
   381
1005
56
1001
ACAD_DSTYLE_DIM_EXT2_LINETYPE
1070
   382
1005
56
  0
DIMSTYLE
105
AB
330
A
100
AcDbSymbolTableRecord
100
AcDbDimStyleTableRecord
  2
AM_JIS$6
 70
     0
  4
"
 41
2.5
 42
0.5
 43
8.0
 44
1.0
 47
0.1
 48
0.1000000001
 73
     0
 74
     0
 78
     8
 79
     2
140
3.5
141
0.0
143
0.0393701
146
0.55
147
0.8
172
     1
176
   256
177
   256
178
   140
271
     3
272
     3
283
     0
284
     8
340
50
341
A3
342
A3
371
    -1
372
    -1
1001
ACAD_DSTYLE_DIMJOGGED_JOGANGLE_SYMBOL
1070
   384
1040
0.7853981633974483
1001
ACAD_DSTYLE_DIMBREAK
1070
   391
1040
3.75
1001
ACAD_DSTYLE_DIMJAG
1070
   388
1040
1.5
1001
ACAD_DSTYLE_DIMTALN
1070
   392
1070
     0
1001
ACAD_DSTYLE_DIMARC_LENGTH_SYMBOL
1070
   379
1070
     1
1001
ACAD_DSTYLE_DIM_LINETYPE
1070
   380
1005
56
1001
ACAD_DSTYLE_DIM_EXT1_LINETYPE
1070
   381
1005
56
1001
ACAD_DSTYLE_DIM_EXT2_LINETYPE
1070
   382
1005
56
  0
DIMSTYLE
105
AC
330
A
100
AcDbSymbolTableRecord
100
AcDbDimStyleTableRecord
  2
AM_JIS$7
 70
     0
  4
"
 41
2.5
 42
0.5
 43
8.0
 44
1.0
 47
0.1
 48
0.1000000001
 73
     0
 74
     0
 77
     3
 78
     8
 79
     2
140
3.5
141
0.0
143
0.0393701
146
0.55
147
0.8
172
     1
176
   256
177
   256
178
   140
271
     3
272
     3
283
     0
284
     8
340
50
341
A3
342
A3
371
    -1
372
    -1
1001
ACAD_DSTYLE_DIMJOGGED_JOGANGLE_SYMBOL
1070
   384
1040
0.7853981633974483
1001
ACAD_DSTYLE_DIMBREAK
1070
   391
1040
3.75
1001
ACAD_DSTYLE_DIMJAG
1070
   388
1040
1.5
1001
ACAD_DSTYLE_DIMTALN
1070
   392
1070
     0
1001
ACAD_DSTYLE_DIMARC_LENGTH_SYMBOL
1070
   379
1070
     1
1001
ACAD_DSTYLE_DIM_LINETYPE
1070
   380
1005
56
1001
ACAD_DSTYLE_DIM_EXT1_LINETYPE
1070
   381
1005
56
1001
ACAD_DSTYLE_DIM_EXT2_LINETYPE
1070
   382
1005
56
  0
DIMSTYLE
105
AD
330
A
100
AcDbSymbolTableRecord
100
AcDbDimStyleTableRecord
  2
AM_JIS$SF
 70
     0
  4
"
 41
2.5
 42
0.5
 43
8.0
 44
1.0
 47
0.1
 48
0.1000000001
 73
     0
 74
     0
 75
     1
 76
     1
 77
     3
 78
     8
 79
     2
140
3.5
141
0.0
143
0.0393701
146
0.55
147
0.8
172
     1
176
   256
177
   256
178
   140
271
     3
272
     3
283
     0
284
     8
340
50
341
A3
342
A3
371
    -1
372
    -1
1001
ACAD_DSTYLE_DIMJOGGED_JOGANGLE_SYMBOL
1070
   384
1040
0.7853981633974483
1001
ACAD_DSTYLE_DIMBREAK
1070
   391
1040
3.75
1001
ACAD_DSTYLE_DIMJAG
1070
   388
1040
1.5
1001
ACAD_DSTYLE_DIMTALN
1070
   392
1070
     0
1001
ACAD_DSTYLE_DIMARC_LENGTH_SYMBOL
1070
   379
1070
     1
1001
ACAD_DSTYLE_DIM_LINETYPE
1070
   380
1005
56
1001
ACAD_DSTYLE_DIM_EXT1_LINETYPE
1070
   381
1005
56
1001
ACAD_DSTYLE_DIM_EXT2_LINETYPE
1070
   382
1005
56
  0
DIMSTYLE
105
AE
330
A
100
AcDbSymbolTableRecord
100
AcDbDimStyleTableRecord
  2
AM_JIS$SH
 70
     0
  4
"
 41
2.5
 42
0.5
 43
8.0
 44
1.0
 47
0.1
 48
0.1000000001
 73
     0
 74
     0
 75
     1
 76
     1
 77
     3
 78
     8
 79
     2
140
3.5
141
0.0
143
0.0393701
144
2.0
146
0.55
147
0.8
172
     1
173
     1
176
   256
177
   256
178
   140
271
     3
272
     3
283
     0
284
     8
340
50
341
A3
342
A3
343
AF
371
    -1
372
    -1
1001
ACAD_DSTYLE_DIMJOGGED_JOGANGLE_SYMBOL
1070
   384
1040
0.7853981633974483
1001
ACAD_DSTYLE_DIMBREAK
1070
   391
1040
3.75
1001
ACAD_DSTYLE_DIMJAG
1070
   388
1040
1.5
1001
ACAD_DSTYLE_DIMTALN
1070
   392
1070
     0
1001
ACAD_DSTYLE_DIMARC_LENGTH_SYMBOL
1070
   379
1070
     1
1001
ACAD_DSTYLE_DIM_LINETYPE
1070
   380
1005
56
1001
ACAD_DSTYLE_DIM_EXT1_LINETYPE
1070
   381
1005
56
1001
ACAD_DSTYLE_DIM_EXT2_LINETYPE
1070
   382
1005
56
  0
DIMSTYLE
105
B3
102
{ACAD_REACTORS
330
162
330
182
330
193
330
1A3
330
1B4
330
1C3
330
1D2
330
1E3
330
1F2
330
201
330
210
102
}
330
A
100
AcDbSymbolTableRecord
100
AcDbDimStyleTableRecord
  2
AM_JIS$0
 70
     0
  4
"
 41
2.5
 42
0.5
 43
8.0
 44
1.0
 47
0.1
 48
0.1000000001
 73
     0
 74
     0
 77
     3
 78
     8
 79
     2
140
3.5
141
0.0
143
0.0393701
146
0.55
147
0.8
172
     1
176
   256
177
   256
178
   140
271
     3
272
     3
283
     0
284
     8
340
50
341
A3
342
A3
371
    -1
372
    -1
1001
ACAD_DSTYLE_DIMBREAK
1070
   391
1040
3.75
1001
ACAD_DSTYLE_DIMJAG
1070
   388
1040
1.5
1001
ACAD_DSTYLE_DIMTALN
1070
   392
1070
     0
1001
ACAD_DSTYLE_DIMARC_LENGTH_SYMBOL
1070
   379
1070
     1
1001
ACAD_DSTYLE_DIM_LINETYPE
1070
   380
1005
56
1001
ACAD_DSTYLE_DIM_EXT1_LINETYPE
1070
   381
1005
56
1001
ACAD_DSTYLE_DIM_EXT2_LINETYPE
1070
   382
1005
56
  0
DIMSTYLE
105
B4
102
{ACAD_REACTORS
330
171
330
222
102
}
330
A
100
AcDbSymbolTableRecord
100
AcDbDimStyleTableRecord
  2
AM_JIS$2
 70
     0
  4
"
 41
2.5
 42
0.5
 43
8.0
 44
1.0
 47
0.1
 48
0.1000000001
 73
     0
 74
     0
 77
     3
 78
     8
 79
     2
140
3.5
141
0.0
143
0.0393701
146
0.55
147
0.8
172
     1
176
   256
177
   256
178
   140
271
     3
272
     3
283
     0
284
     8
340
50
341
A3
342
A3
371
    -1
372
    -1
1001
ACAD_DSTYLE_DIMJOGGED_JOGANGLE_SYMBOL
1070
   384
1040
0.7853981633974483
1001
ACAD_DSTYLE_DIMBREAK
1070
   391
1040
3.75
1001
ACAD_DSTYLE_DIMJAG
1070
   388
1040
1.5
1001
ACAD_DSTYLE_DIMTALN
1070
   392
1070
     0
1001
ACAD_DSTYLE_DIMARC_LENGTH_SYMBOL
1070
   379
1070
     1
1001
ACAD_DSTYLE_DIM_LINETYPE
1070
   380
1005
56
1001
ACAD_DSTYLE_DIM_EXT1_LINETYPE
1070
   381
1005
56
1001
ACAD_DSTYLE_DIM_EXT2_LINETYPE
1070
   382
1005
56
  0
ENDTAB
  0
TABLE
  2
BLOCK_RECORD
  5
1
330
0
100
AcDbSymbolTable
 70
    35
  0
BLOCK_RECORD
  5
67
102
{ACAD_XDICTIONARY
360
4D1
102
}
330
1
100
AcDbSymbolTableRecord
100
AcDbBlockTableRecord
  2
*Model_Space
340
6A
  0
BLOCK_RECORD
  5
63
330
1
100
AcDbSymbolTableRecord
100
AcDbBlockTableRecord
  2
*Paper_Space
340
66
  0
BLOCK_RECORD
  5
6B
330
1
100
AcDbSymbolTableRecord
100
AcDbBlockTableRecord
  2
*Paper_Space0
340
6E
  0
BLOCK_RECORD
  5
A3
330
1
100
AcDbSymbolTableRecord
100
AcDbBlockTableRecord
  2
_Open
340
0
102
{BLKREFS
331
550
331
54F
331
545
331
544
331
53A
331
539
331
531
331
530
331
528
331
527
331
51F
331
51E
331
514
331
513
331
50B
331
50A
331
502
331
501
331
4F7
331
4F6
331
4ED
331
4EC
331
4E0
331
4DF
331
4D7
331
4D6
331
33E
331
33D
331
32C
331
32B
331
22D
331
22C
331
21B
331
21A
331
20A
331
209
331
1FB
331
1FA
331
1EC
331
1EB
331
1DD
331
1DC
331
1CC
331
1CB
331
1BD
331
1BC
331
1AE
331
1AD
331
19D
331
19C
331
18D
331
18C
331
17A
331
179
331
16B
331
16A
331
E9
331
E8
331
DA
331
D9
102
}
  0
BLOCK_RECORD
  5
AF
330
1
100
AcDbSymbolTableRecord
100
AcDbBlockTableRecord
  2
GENAXEH
340
0
  0
BLOCK_RECORD
  5
237
330
1
100
AcDbSymbolTableRecord
100
AcDbBlockTableRecord
  2
CustomObjectsInViewport2_0
340
0
102
{BLKREFS
331
235
102
}
  0
BLOCK_RECORD
  5
26F
330
1
100
AcDbSymbolTableRecord
100
AcDbBlockTableRecord
  2
*D21
340
0
  0
BLOCK_RECORD
  5
27B
330
1
100
AcDbSymbolTableRecord
100
AcDbBlockTableRecord
  2
*D22
340
0
  0
BLOCK_RECORD
  5
289
330
1
100
AcDbSymbolTableRecord
100
AcDbBlockTableRecord
  2
*D23
340
0
  0
BLOCK_RECORD
  5
297
330
1
100
AcDbSymbolTableRecord
100
AcDbBlockTableRecord
  2
*D24
340
0
  0
BLOCK_RECORD
  5
2A4
330
1
100
AcDbSymbolTableRecord
100
AcDbBlockTableRecord
  2
*D25
340
0
  0
BLOCK_RECORD
  5
2B2
330
1
100
AcDbSymbolTableRecord
100
AcDbBlockTableRecord
  2
*D26
340
0
  0
BLOCK_RECORD
  5
2BE
330
1
100
AcDbSymbolTableRecord
100
AcDbBlockTableRecord
  2
*D27
340
0
  0
BLOCK_RECORD
  5
2CA
330
1
100
AcDbSymbolTableRecord
100
AcDbBlockTableRecord
  2
*D28
340
0
  0
BLOCK_RECORD
  5
2D8
330
1
100
AcDbSymbolTableRecord
100
AcDbBlockTableRecord
  2
*D29
340
0
  0
BLOCK_RECORD
  5
2E4
330
1
100
AcDbSymbolTableRecord
100
AcDbBlockTableRecord
  2
*D30
340
0
  0
BLOCK_RECORD
  5
2F0
330
1
100
AcDbSymbolTableRecord
100
AcDbBlockTableRecord
  2
*D31
340
0
  0
BLOCK_RECORD
  5
2FC
330
1
100
AcDbSymbolTableRecord
100
AcDbBlockTableRecord
  2
*D32
340
0
  0
BLOCK_RECORD
  5
30A
330
1
100
AcDbSymbolTableRecord
100
AcDbBlockTableRecord
  2
*D33
340
0
  0
ENDTAB
  0
ENDSEC
  0
SECTION
  2
BLOCKS
  0
BLOCK
  5
68
330
67
100
AcDbEntity
  8
0
100
AcDbBlockBegin
  2
*Model_Space
 70
     0
 10
0.0
 20
0.0
 30
0.0
  3
*Model_Space
  1

  0
ENDBLK
  5
69
330
67
100
AcDbEntity
  8
0
100
AcDbBlockEnd
  0
BLOCK
  5
64
330
63
100
AcDbEntity
 67
     1
  8
0
100
AcDbBlockBegin
  2
*Paper_Space
 70
     0
 10
0.0
 20
0.0
 30
0.0
  3
*Paper_Space
  1

  0
ENDBLK
  5
65
330
63
100
AcDbEntity
 67
     1
  8
0
100
AcDbBlockEnd
  0
BLOCK
  5
6C
330
6B
100
AcDbEntity
 67
     1
  8
0
100
AcDbBlockBegin
  2
*Paper_Space0
 70
     0
 10
0.0
 20
0.0
 30
0.0
  3
*Paper_Space0
  1

  0
ENDBLK
  5
6D
330
6B
100
AcDbEntity
 67
     1
  8
0
100
AcDbBlockEnd
  0
BLOCK
  5
5DE
330
A3
100
AcDbEntity
  8
0
100
AcDbBlockBegin
  2
_Open
 70
     0
 10
0.0
 20
0.0
 30
0.0
  3
_Open
  1

  0
LINE
  5
5DF
330
A3
100
AcDbEntity
  8
0
  6
ByBlock
 62
     0
370
    -2
100
AcDbLine
 10
-1.0
 20
0.1666666666666666
 30
0.0
 11
0.0
 21
0.0
 31
0.0
  0
LINE
  5
5E0
330
A3
100
AcDbEntity
  8
0
  6
ByBlock
 62
     0
370
    -2
100
AcDbLine
 10
-1.0
 20
-0.1666666666666666
 30
0.0
 11
0.0
 21
0.0
 31
0.0
  0
LINE
  5
5E1
330
A3
100
AcDbEntity
  8
0
  6
ByBlock
 62
     0
370
    -2
100
AcDbLine
 10
0.0
 20
0.0
 30
0.0
 11
-1.0
 21
0.0
 31
0.0
  0
ENDBLK
  5
5E2
330
A3
100
AcDbEntity
  8
0
100
AcDbBlockEnd
  0
BLOCK
  5
5EB
330
AF
100
AcDbEntity
  8
0
100
AcDbBlockBegin
  2
GENAXEH
 70
     0
 10
0.0
 20
0.0
 30
0.0
  3
GENAXEH
  1

  0
LINE
  5
5EC
330
AF
100
AcDbEntity
  8
0
100
AcDbLine
 10
-1.0
 20
0.0
 30
0.0
 11
1.0
 21
0.0
 31
0.0
  0
ENDBLK
  5
5ED
330
AF
100
AcDbEntity
  8
0
100
AcDbBlockEnd
  0
BLOCK
  5
238
330
237
100
AcDbEntity
  8
0
100
AcDbBlockBegin
  2
CustomObjectsInViewport2_0
 70
     0
 10
0.0
 20
0.0
 30
0.0
  3
CustomObjectsInViewport2_0
  1

  0
LINE
  5
239
330
237
100
AcDbEntity
  8
AM_5
100
AcDbLine
 10
33.2624339727445
 20
73.33173952659615
 30
0.0
 11
58.07086626409319
 21
73.33173952659615
 31
0.0
  0
LINE
  5
23A
330
237
100
AcDbEntity
  8
AM_5
100
AcDbLine
 10
58.07086626409319
 20
73.33173952659615
 30
0.0
 11
50.48913316043543
 21
51.13713103912902
 31
0.0
  0
LINE
  5
23B
330
237
100
AcDbEntity
  8
AM_5
  6
Continuous
100
AcDbLine
 10
50.48913316043543
 20
51.13713103912902
 30
0.0
 11
49.68097890970265
 21
48.77135702054175
 31
0.0
  0
LINE
  5
23C
330
237
100
AcDbEntity
  8
AM_5
  6
Continuous
100
AcDbLine
 10
50.09483750644271
 20
51.27182340886345
 30
0.0
 11
49.68097890970265
 21
48.77135702054175
 31
0.0
  0
LINE
  5
23D
330
237
100
AcDbEntity
  8
AM_5
  6
Continuous
100
AcDbLine
 10
49.68097890970265
 20
48.77135702054175
 30
0.0
 11
50.88342881442815
 21
51.00243866939457
 31
0.0
  0
TEXT
  5
23E
330
237
100
AcDbEntity
  8
AM_5
 62
   140
100
AcDbText
 10
33.00622174977607
 20
74.04631306588426
 30
0.0
 40
3.5
  1
2-M3
  7
CustomTextStyle0
100
AcDbText
  0
TEXT
  5
23F
330
237
100
AcDbEntity
  8
AM_5
 62
   140
100
AcDbText
 10
32.98402488183541
 20
67.57661609618729
 30
0.0
 40
3.5
  1
有効深さ
  7
CustomTextStyle1
100
AcDbText
  0
TEXT
  5
240
330
237
100
AcDbEntity
  8
AM_5
 62
   140
100
AcDbText
 10
52.15447942728996
 20
67.57661609618729
 30
0.0
 40
3.5
  1
2
  7
CustomTextStyle2
100
AcDbText
  0
LINE
  5
241
330
237
100
AcDbEntity
  8
AM_5
100
AcDbLine
 10
33.2624339727445
 20
73.33173952659615
 30
0.0
 11
54.57086626409318
 21
73.33173952659615
 31
0.0
  0
LINE
  5
242
330
237
100
AcDbEntity
  8
AM_5
100
AcDbLine
 10
183.166433144048
 20
11.77750025659566
 30
0.0
 11
159.9192740531389
 21
11.77750025659566
 31
0.0
  0
LINE
  5
243
330
237
100
AcDbEntity
  8
AM_5
100
AcDbLine
 10
159.9192740531389
 20
11.77750025659566
 30
0.0
 11
151.2542435649535
 21
25.39306857963818
 31
0.0
  0
LINE
  5
244
330
237
100
AcDbEntity
  8
AM_5
  6
Continuous
100
AcDbLine
 10
151.2542435649535
 20
25.39306857963818
 30
0.0
 11
149.911991116294
 21
27.50218174968563
 31
0.0
  0
LINE
  5
245
330
237
100
AcDbEntity
  8
AM_5
  6
Continuous
100
AcDbLine
 10
151.6057624125673
 20
25.61677731213308
 30
0.0
 11
149.911991116294
 21
27.50218174968563
 31
0.0
  0
LINE
  5
246
330
237
100
AcDbEntity
  8
AM_5
  6
Continuous
100
AcDbLine
 10
149.911991116294
 20
27.50218174968563
 30
0.0
 11
150.9027247173397
 21
25.16935984714328
 31
0.0
  0
TEXT
  5
247
330
237
100
AcDbEntity
  8
AM_5
 62
   140
100
AcDbText
 10
163.1010922349571
 20
13.96500025659566
 30
0.0
 40
3.5
  1
入力端子
  7
CustomTextStyle3
100
AcDbText
  0
LINE
  5
248
330
237
100
AcDbEntity
  8
AM_5
100
AcDbLine
 10
204.6904000257998
 20
74.49718690971315
 30
0.0
 11
188.1735663515828
 21
74.49718690971315
 31
0.0
  0
LINE
  5
249
330
237
100
AcDbEntity
  8
AM_5
100
AcDbLine
 10
188.1735663515828
 20
74.49718690971315
 30
0.0
 11
194.8888432212173
 21
56.60285007234744
 31
0.0
  0
LINE
  5
24A
330
237
100
AcDbEntity
  8
AM_5
  6
Continuous
100
AcDbLine
 10
194.8888432212173
 20
56.60285007234744
 30
0.0
 11
195.7672137739665
 21
54.26223793616106
 31
0.0
  0
LINE
  5
24B
330
237
100
AcDbEntity
  8
AM_5
  6
Continuous
100
AcDbLine
 10
194.4987412141236
 20
56.45645498607837
 30
0.0
 11
195.7672137739665
 21
54.26223793616106
 31
0.0
  0
LINE
  5
24C
330
237
100
AcDbEntity
  8
AM_5
  6
Continuous
100
AcDbLine
 10
195.7672137739665
 20
54.26223793616106
 30
0.0
 11
195.2789452283109
 21
56.74924515861651
 31
0.0
  0
TEXT
  5
24D
330
237
100
AcDbEntity
  8
AM_5
 62
   140
100
AcDbText
 10
191.3045267276742
 20
76.68468690971315
 30
0.0
 40
3.5
  1
+
  7
CustomTextStyle4
100
AcDbText
  0
TEXT
  5
24E
330
237
100
AcDbEntity
  8
AM_5
 62
   140
100
AcDbText
 10
194.8068772985271
 20
76.68468690971315
 30
0.0
 40
3.5
  1
端子
  7
CustomTextStyle5
100
AcDbText
  0
LINE
  5
24F
330
237
100
AcDbEntity
  8
AM_5
100
AcDbLine
 10
139.3272180426559
 20
65.60819074168091
 30
0.0
 11
116.0800589517469
 21
65.60819074168091
 31
0.0
  0
LINE
  5
250
330
237
100
AcDbEntity
  8
AM_5
100
AcDbLine
 10
116.0800589517469
 20
65.60819074168091
 30
0.0
 11
113.2871669107689
 21
59.49200723794246
 31
0.0
  0
LWPOLYLINE
  5
251
330
237
100
AcDbEntity
  8
AM_5
  6
Continuous
100
AcDbPolyline
 90
        2
 70
   129
 43
0.44642857142857
 10
112.0254998137078
 20
57.21788856060697
 42
1.0
 10
112.4719283851364
 20
57.21788856060697
 42
1.0
  0
LINE
  5
252
330
237
100
AcDbEntity
  8
AM_5
  6
Continuous
100
AcDbLine
 10
112.4341521014483
 20
57.62398118155974
 30
0.0
 11
113.2871669107689
 21
59.49200723794246
 31
0.0
  0
TEXT
  5
253
330
237
100
AcDbEntity
  8
AM_5
 62
   140
100
AcDbText
 10
119.2419907699287
 20
67.87523619622636
 30
0.0
 40
3.5
  1
定格銘板
  7
CustomTextStyle6
100
AcDbText
  0
ENDBLK
  5
254
330
237
100
AcDbEntity
  8
0
100
AcDbBlockEnd
  0
BLOCK
  5
270
330
26F
100
AcDbEntity
  8
0
100
AcDbBlockBegin
  2
*D21
 70
     1
 10
0.0
 20
0.0
 30
0.0
  3
*D21
  1

  0
LINE
  5
4D3
330
26F
100
AcDbEntity
  8
AM_5
  6
ByBlock
100
AcDbLine
 10
27.69743592585963
 20
34.45623781310411
 30
0.0
 11
41.70500390069901
 21
10.19441839020766
 31
0.0
  0
LINE
  5
4D4
330
26F
100
AcDbEntity
  8
AM_5
  6
ByBlock
100
AcDbLine
 10
49.34807102047058
 20
46.95623781310412
 30
0.0
 11
63.35563899530995
 21
22.69441839020767
 31
0.0
  0
LINE
  5
4D5
330
26F
100
AcDbEntity
  8
AM_5
  6
ByBlock
100
AcDbLine
 10
43.3700674101601
 20
12.3104437939921
 30
0.0
 11
60.69057548584886
 21
22.31044379399211
 31
0.0
  0
INSERT
  5
4D6
330
26F
100
AcDbEntity
  8
AM_5
100
AcDbBlockReference
  2
_Open
 10
41.20500390069901
 20
11.0604437939921
 30
0.0
 41
2.5
 42
2.5
 43
2.5
 50
210.0
  0
INSERT
  5
4D7
330
26F
100
AcDbEntity
  8
AM_5
100
AcDbBlockReference
  2
_Open
 10
62.85563899530996
 20
23.56044379399211
 30
0.0
 41
2.5
 42
2.5
 43
2.5
 50
30.00000000000004
  0
MTEXT
  5
4D8
330
26F
100
AcDbEntity
  8
AM_5
 62
   140
100
AcDbMText
 10
50.71888759978421
 20
19.5819138498752
 30
0.0
 40
3.5
 41
0.0
 71
     5
 72
     1
  1
25
 11
0.8660254037844381
 21
0.5000000000000007
 31
0.0
 73
     1
 44
1.0
1001
ACAD
1000
MTEXTBEGIN
1070
    73
1070
     1
1070
    44
1040
1.0
1070
    74
1070
     0
1000
MTEXTEND
  0
POINT
  5
4D9
330
26F
100
AcDbEntity
  8
Defpoints
 62
     0
100
AcDbPoint
 10
27.44743592585963
 20
34.88925051499633
 30
0.0
  0
POINT
  5
4DA
330
26F
100
AcDbEntity
  8
Defpoints
 62
     0
100
AcDbPoint
 10
49.09807102047057
 20
47.38925051499633
 30
0.0
  0
POINT
  5
4DB
330
26F
100
AcDbEntity
  8
Defpoints
 62
     0
100
AcDbPoint
 10
62.85563899530996
 20
23.56044379399211
 30
0.0
  0
ENDBLK
  5
271
330
26F
100
AcDbEntity
  8
0
100
AcDbBlockEnd
  0
BLOCK
  5
27C
330
27B
100
AcDbEntity
  8
0
100
AcDbBlockBegin
  2
*D22
 70
     1
 10
0.0
 20
0.0
 30
0.0
  3
*D22
  1

  0
LINE
  5
4DC
330
27B
100
AcDbEntity
  8
AM_5
  6
ByBlock
100
AcDbLine
 10
24.41634701261409
 20
33.13925051499634
 30
0.0
 11
13.4864830117008
 21
26.82889059186304
 31
0.0
  0
LINE
  5
4DD
330
27B
100
AcDbEntity
  8
AM_5
  6
ByBlock
100
AcDbLine
 10
38.27275347316515
 20
18.38925051499632
 30
0.0
 11
38.27275347316515
 21
12.51853066872972
 31
0.0
  0
ARC
  5
4DE
330
27B
100
AcDbEntity
  8
AM_5
  6
ByBlock
100
AcDbCircle
 10
38.27275347316515
 20
41.13925051499636
 30
0.0
 40
27.62071984626663
100
AcDbArc
 50
215.1877137655606
 51
264.8122862344394
  0
INSERT
  5
4DF
330
27B
100
AcDbEntity
  8
AM_5
100
AcDbBlockReference
  2
_Open
 10
14.35250841548523
 20
27.32889059186304
 30
0.0
 41
2.5
 42
2.5
 43
2.5
 50
122.5938568827803
  0
INSERT
  5
4E0
330
27B
100
AcDbEntity
  8
AM_5
100
AcDbBlockReference
  2
_Open
 10
38.27275347316515
 20
13.51853066872972
 30
0.0
 41
2.5
 42
2.5
 43
2.5
 50
357.4061431172197
  0
MTEXT
  5
4E1
330
27B
100
AcDbEntity
  8
AM_5
 62
   140
100
AcDbMText
 10
25.7732397555389
 20
19.48945768616352
 30
0.0
 40
3.5
 41
0.0
 71
     5
 72
     1
  1
60\U+00B0
 11
0.8660254037844389
 21
-0.4999999999999995
 31
0.0
 73
     1
 44
1.0
1001
ACAD
1000
MTEXTBEGIN
1070
    73
1070
     1
1070
    44
1040
1.0
1070
    74
1070
     0
1000
MTEXTEND
  0
POINT
  5
4E2
330
27B
100
AcDbEntity
  8
Defpoints
 62
     0
100
AcDbPoint
 10
20.51849698536186
 20
19.98055156181773
 30
0.0
  0
POINT
  5
4E3
330
27B
100
AcDbEntity
  8
Defpoints
 62
     0
100
AcDbPoint
 10
24.84935971450631
 20
33.38925051499633
 30
0.0
  0
POINT
  5
4E4
330
27B
100
AcDbEntity
  8
Defpoints
 62
     0
100
AcDbPoint
 10
38.27275347316515
 20
41.13925051499633
 30
0.0
  0
POINT
  5
4E5
330
27B
100
AcDbEntity
  8
Defpoints
 62
     0
100
AcDbPoint
 10
38.27275347316515
 20
18.88925051499632
 30
0.0
  0
POINT
  5
4E6
330
27B
100
AcDbEntity
  8
Defpoints
 62
     0
100
AcDbPoint
 10
51.69614723182388
 20
48.88925051499632
 30
0.0
  0
ENDBLK
  5
27D
330
27B
100
AcDbEntity
  8
0
100
AcDbBlockEnd
  0
BLOCK
  5
28A
330
289
100
AcDbEntity
  8
0
100
AcDbBlockBegin
  2
*D23
 70
     1
 10
0.0
 20
0.0
 30
0.0
  3
*D23
  1

  0
LINE
  5
4E7
330
289
100
AcDbEntity
  8
AM_5
  6
ByBlock
100
AcDbLine
 10
85.52269945911694
 20
39.88925051499633
 30
0.0
 11
76.8223694875096
 21
39.88925051499633
 31
0.0
  0
LINE
  5
4E8
330
289
100
AcDbEntity
  8
AM_5
  6
ByBlock
100
AcDbLine
 10
85.52269945911694
 20
42.38925051499633
 30
0.0
 11
76.8223694875096
 21
42.38925051499633
 31
0.0
  0
LINE
  5
4E9
330
289
100
AcDbEntity
  8
AM_5
  6
ByBlock
100
AcDbLine
 10
77.8223694875096
 20
37.38925051499633
 30
0.0
 11
77.8223694875096
 21
34.88925051499633
 31
0.0
  0
LINE
  5
4EA
330
289
100
AcDbEntity
  8
AM_5
  6
ByBlock
100
AcDbLine
 10
77.8223694875096
 20
44.88925051499633
 30
0.0
 11
77.8223694875096
 21
58.25096978967732
 31
0.0
  0
LINE
  5
4EB
330
289
100
AcDbEntity
  8
AM_5
  6
ByBlock
100
AcDbLine
 10
77.8223694875096
 20
39.88925051499633
 30
0.0
 11
77.8223694875096
 21
42.38925051499633
 31
0.0
  0
INSERT
  5
4EC
330
289
100
AcDbEntity
  8
AM_5
100
AcDbBlockReference
  2
_Open
 10
77.8223694875096
 20
39.88925051499633
 30
0.0
 41
2.5
 42
2.5
 43
2.5
 50
90.0
  0
INSERT
  5
4ED
330
289
100
AcDbEntity
  8
AM_5
100
AcDbBlockReference
  2
_Open
 10
77.8223694875096
 20
42.38925051499633
 30
0.0
 41
2.5
 42
2.5
 43
2.5
 50
270.0
  0
MTEXT
  5
4EE
330
289
100
AcDbEntity
  8
AM_5
 62
   140
100
AcDbMText
 10
75.19950179106903
 20
52.82011015233684
 30
0.0
 40
3.5
 41
0.0
 71
     5
 72
     1
  1
%%c2.5
 11
0.0000000000000001
 21
1.0
 31
0.0
 73
     1
 44
1.0
1001
ACAD
1000
MTEXTBEGIN
1070
    73
1070
     1
1070
    44
1040
1.0
1070
    74
1070
     0
1000
MTEXTEND
  0
POINT
  5
4EF
330
289
100
AcDbEntity
  8
Defpoints
 62
     0
100
AcDbPoint
 10
86.02269945911695
 20
39.88925051499633
 30
0.0
  0
POINT
  5
4F0
330
289
100
AcDbEntity
  8
Defpoints
 62
     0
100
AcDbPoint
 10
86.02269945911695
 20
42.38925051499633
 30
0.0
  0
POINT
  5
4F1
330
289
100
AcDbEntity
  8
Defpoints
 62
     0
100
AcDbPoint
 10
77.8223694875096
 20
42.38925051499633
 30
0.0
  0
ENDBLK
  5
28B
330
289
100
AcDbEntity
  8
0
100
AcDbBlockEnd
  0
BLOCK
  5
298
330
297
100
AcDbEntity
  8
0
100
AcDbBlockBegin
  2
*D24
 70
     1
 10
0.0
 20
0.0
 30
0.0
  3
*D24
  1

  0
LINE
  5
4F2
330
297
100
AcDbEntity
  8
AM_5
  6
ByBlock
100
AcDbLine
 10
92.32237049750962
 20
35.03925051499596
 30
0.0
 11
68.82236948750961
 21
35.03925051499597
 31
0.0
  0
LINE
  5
4F3
330
297
100
AcDbEntity
  8
AM_5
  6
ByBlock
100
AcDbLine
 10
92.32237049750962
 20
47.23925051499577
 30
0.0
 11
68.82236948750961
 21
47.23925051499578
 31
0.0
  0
LINE
  5
4F4
330
297
100
AcDbEntity
  8
AM_5
  6
ByBlock
100
AcDbLine
 10
69.8223694875096
 20
37.53925051499597
 30
0.0
 11
69.8223694875096
 21
44.73925051499578
 31
0.0
  0
LINE
  5
4F5
330
297
100
AcDbEntity
  8
AM_5
  6
ByBlock
100
AcDbLine
 10
69.8223694875096
 20
47.23925051499578
 30
0.0
 11
69.8223694875096
 21
63.26886770774259
 31
0.0
  0
INSERT
  5
4F6
330
297
100
AcDbEntity
  8
AM_5
100
AcDbBlockReference
  2
_Open
 10
69.8223694875096
 20
35.03925051499597
 30
0.0
 41
2.5
 42
2.5
 43
2.5
 50
270.0
  0
INSERT
  5
4F7
330
297
100
AcDbEntity
  8
AM_5
100
AcDbBlockReference
  2
_Open
 10
69.8223694875096
 20
47.23925051499578
 30
0.0
 41
2.5
 42
2.5
 43
2.5
 50
90.0
  0
MTEXT
  5
4F8
330
297
100
AcDbEntity
  8
AM_5
 62
   140
100
AcDbMText
 10
67.23593563928931
 20
56.50405911136919
 30
0.0
 40
3.5
 41
0.0
 71
     5
 72
     1
  1
%%c12.2
 11
0.0000000000000001
 21
1.0
 31
0.0
 73
     1
 44
1.0
1001
ACAD
1000
MTEXTBEGIN
1070
    73
1070
     1
1070
    44
1040
1.0
1070
    74
1070
     0
1000
MTEXTEND
  0
POINT
  5
4F9
330
297
100
AcDbEntity
  8
Defpoints
 62
     0
100
AcDbPoint
 10
92.8223704975096
 20
35.03925051499596
 30
0.0
  0
POINT
  5
4FA
330
297
100
AcDbEntity
  8
Defpoints
 62
     0
100
AcDbPoint
 10
92.8223704975096
 20
47.23925051499577
 30
0.0
  0
POINT
  5
4FB
330
297
100
AcDbEntity
  8
Defpoints
 62
     0
100
AcDbPoint
 10
69.8223694875096
 20
47.23925051499578
 30
0.0
  0
ENDBLK
  5
299
330
297
100
AcDbEntity
  8
0
100
AcDbBlockEnd
  0
BLOCK
  5
2A5
330
2A4
100
AcDbEntity
  8
0
100
AcDbBlockBegin
  2
*D25
 70
     1
 10
0.0
 20
0.0
 30
0.0
  3
*D25
  1

  0
LINE
  5
4FC
330
2A4
100
AcDbEntity
  8
AM_5
  6
ByBlock
100
AcDbLine
 10
92.8223704975096
 20
47.73925051499578
 30
0.0
 11
92.8223704975096
 21
69.38925151499635
 31
0.0
  0
LINE
  5
4FD
330
2A4
100
AcDbEntity
  8
AM_5
  6
ByBlock
100
AcDbLine
 10
96.32237049750962
 20
60.88925051499632
 30
0.0
 11
96.32237049750962
 21
69.38925151499635
 31
0.0
  0
LINE
  5
4FE
330
2A4
100
AcDbEntity
  8
AM_5
  6
ByBlock
100
AcDbLine
 10
90.3223704975096
 20
68.38925151499634
 30
0.0
 11
87.8223704975096
 21
68.38925151499634
 31
0.0
  0
LINE
  5
4FF
330
2A4
100
AcDbEntity
  8
AM_5
  6
ByBlock
100
AcDbLine
 10
98.82237049750962
 20
68.38925151499634
 30
0.0
 11
109.1560843994572
 21
68.38925151499634
 31
0.0
  0
LINE
  5
500
330
2A4
100
AcDbEntity
  8
AM_5
  6
ByBlock
100
AcDbLine
 10
92.8223704975096
 20
68.38925151499634
 30
0.0
 11
96.32237049750962
 21
68.38925151499634
 31
0.0
  0
INSERT
  5
501
330
2A4
100
AcDbEntity
  8
AM_5
100
AcDbBlockReference
  2
_Open
 10
92.8223704975096
 20
68.38925151499634
 30
0.0
 41
2.5
 42
2.5
 43
2.5
  0
INSERT
  5
502
330
2A4
100
AcDbEntity
  8
AM_5
100
AcDbBlockReference
  2
_Open
 10
96.32237049750962
 20
68.38925151499634
 30
0.0
 41
2.5
 42
2.5
 43
2.5
 50
180.0
  0
MTEXT
  5
503
330
2A4
100
AcDbEntity
  8
AM_5
 62
   140
100
AcDbMText
 10
105.2392274484834
 20
71.01211921143691
 30
0.0
 40
3.5
 41
0.0
 71
     5
 72
     1
  1
3.5
 73
     1
 44
1.0
1001
ACAD
1000
MTEXTBEGIN
1070
    73
1070
     1
1070
    44
1040
1.0
1070
    74
1070
     0
1000
MTEXTEND
  0
POINT
  5
504
330
2A4
100
AcDbEntity
  8
Defpoints
 62
     0
100
AcDbPoint
 10
92.8223704975096
 20
47.23925051499578
 30
0.0
  0
POINT
  5
505
330
2A4
100
AcDbEntity
  8
Defpoints
 62
     0
100
AcDbPoint
 10
96.32237049750962
 20
60.38925051499632
 30
0.0
  0
POINT
  5
506
330
2A4
100
AcDbEntity
  8
Defpoints
 62
     0
100
AcDbPoint
 10
96.32237049750962
 20
68.38925151499634
 30
0.0
  0
ENDBLK
  5
2A6
330
2A4
100
AcDbEntity
  8
0
100
AcDbBlockEnd
  0
BLOCK
  5
2B3
330
2B2
100
AcDbEntity
  8
0
100
AcDbBlockBegin
  2
*D26
 70
     1
 10
0.0
 20
0.0
 30
0.0
  3
*D26
  1

  0
LINE
  5
507
330
2B2
100
AcDbEntity
  8
AM_5
  6
ByBlock
100
AcDbLine
 10
96.32237049750962
 20
60.88925051499632
 30
0.0
 11
96.32237049750962
 21
77.38925151499635
 31
0.0
  0
LINE
  5
508
330
2B2
100
AcDbEntity
  8
AM_5
  6
ByBlock
100
AcDbLine
 10
85.82237049750961
 20
41.63925051499632
 30
0.0
 11
85.82237049750961
 21
77.38925151499635
 31
0.0
  0
LINE
  5
509
330
2B2
100
AcDbEntity
  8
AM_5
  6
ByBlock
100
AcDbLine
 10
93.8223704975096
 20
76.38925151499634
 30
0.0
 11
88.32237049750961
 21
76.38925151499634
 31
0.0
  0
INSERT
  5
50A
330
2B2
100
AcDbEntity
  8
AM_5
100
AcDbBlockReference
  2
_Open
 10
96.32237049750962
 20
76.38925151499634
 30
0.0
 41
2.5
 42
2.5
 43
2.5
  0
INSERT
  5
50B
330
2B2
100
AcDbEntity
  8
AM_5
100
AcDbBlockReference
  2
_Open
 10
85.82237049750961
 20
76.38925151499634
 30
0.0
 41
2.5
 42
2.5
 43
2.5
 50
180.0
  0
MTEXT
  5
50C
330
2B2
100
AcDbEntity
  8
AM_5
 62
   140
100
AcDbMText
 10
91.07237049750962
 20
79.01094392601045
 30
0.0
 40
3.5
 41
0.0
 71
     5
 72
     1
  1
10.5
 73
     1
 44
1.0
1001
ACAD
1000
MTEXTBEGIN
1070
    73
1070
     1
1070
    44
1040
1.0
1070
    74
1070
     0
1000
MTEXTEND
  0
POINT
  5
50D
330
2B2
100
AcDbEntity
  8
Defpoints
 62
     0
100
AcDbPoint
 10
96.32237049750962
 20
60.38925051499632
 30
0.0
  0
POINT
  5
50E
330
2B2
100
AcDbEntity
  8
Defpoints
 62
     0
100
AcDbPoint
 10
85.82237049750961
 20
41.13925051499633
 30
0.0
  0
POINT
  5
50F
330
2B2
100
AcDbEntity
  8
Defpoints
 62
     0
100
AcDbPoint
 10
85.82237049750961
 20
76.38925151499634
 30
0.0
  0
ENDBLK
  5
2B4
330
2B2
100
AcDbEntity
  8
0
100
AcDbBlockEnd
  0
BLOCK
  5
2BF
330
2BE
100
AcDbEntity
  8
0
100
AcDbBlockBegin
  2
*D27
 70
     1
 10
0.0
 20
0.0
 30
0.0
  3
*D27
  1

  0
LINE
  5
510
330
2BE
100
AcDbEntity
  8
AM_5
  6
ByBlock
100
AcDbLine
 10
96.32237049750962
 20
60.88925051499632
 30
0.0
 11
96.32237049750962
 21
77.38925151499635
 31
0.0
  0
LINE
  5
511
330
2BE
100
AcDbEntity
  8
AM_5
  6
ByBlock
100
AcDbLine
 10
146.3223704975095
 20
59.4392505149965
 30
0.0
 11
146.3223704975095
 21
77.38925151499635
 31
0.0
  0
LINE
  5
512
330
2BE
100
AcDbEntity
  8
AM_5
  6
ByBlock
100
AcDbLine
 10
98.82237049750962
 20
76.38925151499634
 30
0.0
 11
143.8223704975095
 21
76.38925151499634
 31
0.0
  0
INSERT
  5
513
330
2BE
100
AcDbEntity
  8
AM_5
100
AcDbBlockReference
  2
_Open
 10
96.32237049750962
 20
76.38925151499634
 30
0.0
 41
2.5
 42
2.5
 43
2.5
 50
180.0
  0
INSERT
  5
514
330
2BE
100
AcDbEntity
  8
AM_5
100
AcDbBlockReference
  2
_Open
 10
146.3223704975095
 20
76.38925151499634
 30
0.0
 41
2.5
 42
2.5
 43
2.5
  0
MTEXT
  5
515
330
2BE
100
AcDbEntity
  8
AM_5
 62
   140
100
AcDbMText
 10
121.3223704975096
 20
79.01094392601045
 30
0.0
 40
3.5
 41
0.0
 71
     5
 72
     1
  1
50
 73
     1
 44
1.0
1001
ACAD
1000
MTEXTBEGIN
1070
    73
1070
     1
1070
    44
1040
1.0
1070
    74
1070
     0
1000
MTEXTEND
  0
POINT
  5
516
330
2BE
100
AcDbEntity
  8
Defpoints
 62
     0
100
AcDbPoint
 10
96.32237049750962
 20
60.38925051499632
 30
0.0
  0
POINT
  5
517
330
2BE
100
AcDbEntity
  8
Defpoints
 62
     0
100
AcDbPoint
 10
146.3223704975095
 20
58.93925051499651
 30
0.0
  0
POINT
  5
518
330
2BE
100
AcDbEntity
  8
Defpoints
 62
     0
100
AcDbPoint
 10
146.3223704975095
 20
76.38925151499634
 30
0.0
  0
ENDBLK
  5
2C0
330
2BE
100
AcDbEntity
  8
0
100
AcDbBlockEnd
  0
BLOCK
  5
2CB
330
2CA
100
AcDbEntity
  8
0
100
AcDbBlockBegin
  2
*D28
 70
     1
 10
0.0
 20
0.0
 30
0.0
  3
*D28
  1

  0
LINE
  5
519
330
2CA
100
AcDbEntity
  8
AM_5
  6
ByBlock
100
AcDbLine
 10
146.3223704975095
 20
59.4392505149965
 30
0.0
 11
146.3223704975095
 21
77.38925151499626
 31
0.0
  0
LINE
  5
51A
330
2CA
100
AcDbEntity
  8
AM_5
  6
ByBlock
100
AcDbLine
 10
149.5223704975095
 20
47.4392505149956
 30
0.0
 11
149.5223704975095
 21
77.38925151499626
 31
0.0
  0
LINE
  5
51B
330
2CA
100
AcDbEntity
  8
AM_5
  6
ByBlock
100
AcDbLine
 10
143.8223704975095
 20
76.38925151499626
 30
0.0
 11
141.3223704975095
 21
76.38925151499626
 31
0.0
  0
LINE
  5
51C
330
2CA
100
AcDbEntity
  8
AM_5
  6
ByBlock
100
AcDbLine
 10
152.0223704975095
 20
76.38925151499626
 30
0.0
 11
162.3960441039568
 21
76.38925151499626
 31
0.0
  0
LINE
  5
51D
330
2CA
100
AcDbEntity
  8
AM_5
  6
ByBlock
100
AcDbLine
 10
146.3223704975095
 20
76.38925151499626
 30
0.0
 11
149.5223704975095
 21
76.38925151499626
 31
0.0
  0
INSERT
  5
51E
330
2CA
100
AcDbEntity
  8
AM_5
100
AcDbBlockReference
  2
_Open
 10
146.3223704975095
 20
76.38925151499626
 30
0.0
 41
2.5
 42
2.5
 43
2.5
  0
INSERT
  5
51F
330
2CA
100
AcDbEntity
  8
AM_5
100
AcDbBlockReference
  2
_Open
 10
149.5223704975095
 20
76.38925151499626
 30
0.0
 41
2.5
 42
2.5
 43
2.5
 50
180.0
  0
MTEXT
  5
520
330
2CA
100
AcDbEntity
  8
AM_5
 62
   140
100
AcDbMText
 10
158.4592073007331
 20
79.01211921143683
 30
0.0
 40
3.5
 41
0.0
 71
     5
 72
     1
  1
3.2
 73
     1
 44
1.0
1001
ACAD
1000
MTEXTBEGIN
1070
    73
1070
     1
1070
    44
1040
1.0
1070
    74
1070
     0
1000
MTEXTEND
  0
POINT
  5
521
330
2CA
100
AcDbEntity
  8
Defpoints
 62
     0
100
AcDbPoint
 10
146.3223704975095
 20
58.93925051499651
 30
0.0
  0
POINT
  5
522
330
2CA
100
AcDbEntity
  8
Defpoints
 62
     0
100
AcDbPoint
 10
149.5223704975095
 20
46.9392505149956
 30
0.0
  0
POINT
  5
523
330
2CA
100
AcDbEntity
  8
Defpoints
 62
     0
100
AcDbPoint
 10
149.5223704975095
 20
76.38925151499626
 30
0.0
  0
ENDBLK
  5
2CC
330
2CA
100
AcDbEntity
  8
0
100
AcDbBlockEnd
  0
BLOCK
  5
2D9
330
2D8
100
AcDbEntity
  8
0
100
AcDbBlockBegin
  2
*D29
 70
     1
 10
0.0
 20
0.0
 30
0.0
  3
*D29
  1

  0
LINE
  5
524
330
2D8
100
AcDbEntity
  8
AM_5
  6
ByBlock
100
AcDbLine
 10
149.8223704975095
 20
35.13925051499614
 30
0.0
 11
159.5223714975095
 21
35.13925051499614
 31
0.0
  0
LINE
  5
525
330
2D8
100
AcDbEntity
  8
AM_5
  6
ByBlock
100
AcDbLine
 10
149.8223704975095
 20
47.13925051499632
 30
0.0
 11
159.5223714975095
 21
47.13925051499632
 31
0.0
  0
LINE
  5
526
330
2D8
100
AcDbEntity
  8
AM_5
  6
ByBlock
100
AcDbLine
 10
158.5223714975095
 20
37.63925051499614
 30
0.0
 11
158.5223714975095
 21
44.63925051499632
 31
0.0
  0
INSERT
  5
527
330
2D8
100
AcDbEntity
  8
AM_5
100
AcDbBlockReference
  2
_Open
 10
158.5223714975095
 20
35.13925051499614
 30
0.0
 41
2.5
 42
2.5
 43
2.5
 50
270.0
  0
INSERT
  5
528
330
2D8
100
AcDbEntity
  8
AM_5
100
AcDbBlockReference
  2
_Open
 10
158.5223714975095
 20
47.13925051499632
 30
0.0
 41
2.5
 42
2.5
 43
2.5
 50
90.0
  0
MTEXT
  5
529
330
2D8
100
AcDbEntity
  8
AM_5
 62
   140
100
AcDbMText
 10
155.9359376492892
 20
41.13925051499626
 30
0.0
 40
3.5
 41
0.0
 71
     5
 72
     1
  1
%%c12
 11
0.0000000000000001
 21
1.0
 31
0.0
 73
     1
 44
1.0
1001
ACAD
1000
MTEXTBEGIN
1070
    73
1070
     1
1070
    44
1040
1.0
1070
    74
1070
     0
1000
MTEXTEND
  0
POINT
  5
52A
330
2D8
100
AcDbEntity
  8
Defpoints
 62
     0
100
AcDbPoint
 10
149.3223704975095
 20
35.13925051499614
 30
0.0
  0
POINT
  5
52B
330
2D8
100
AcDbEntity
  8
Defpoints
 62
     0
100
AcDbPoint
 10
149.3223704975095
 20
47.13925051499632
 30
0.0
  0
POINT
  5
52C
330
2D8
100
AcDbEntity
  8
Defpoints
 62
     0
100
AcDbPoint
 10
158.5223714975095
 20
47.13925051499632
 30
0.0
  0
ENDBLK
  5
2DA
330
2D8
100
AcDbEntity
  8
0
100
AcDbBlockEnd
  0
BLOCK
  5
2E5
330
2E4
100
AcDbEntity
  8
0
100
AcDbBlockBegin
  2
*D30
 70
     1
 10
0.0
 20
0.0
 30
0.0
  3
*D30
  1

  0
LINE
  5
52D
330
2E4
100
AcDbEntity
  8
AM_5
  6
ByBlock
100
AcDbLine
 10
146.6223704975095
 20
23.13925051499633
 30
0.0
 11
167.5223714975095
 21
23.13925051499632
 31
0.0
  0
LINE
  5
52E
330
2E4
100
AcDbEntity
  8
AM_5
  6
ByBlock
100
AcDbLine
 10
146.6223704975095
 20
59.13925051499651
 30
0.0
 11
167.5223714975095
 21
59.13925051499651
 31
0.0
  0
LINE
  5
52F
330
2E4
100
AcDbEntity
  8
AM_5
  6
ByBlock
100
AcDbLine
 10
166.5223714975095
 20
25.63925051499632
 30
0.0
 11
166.5223714975095
 21
56.63925051499651
 31
0.0
  0
INSERT
  5
530
330
2E4
100
AcDbEntity
  8
AM_5
100
AcDbBlockReference
  2
_Open
 10
166.5223714975095
 20
23.13925051499632
 30
0.0
 41
2.5
 42
2.5
 43
2.5
 50
270.0
  0
INSERT
  5
531
330
2E4
100
AcDbEntity
  8
AM_5
100
AcDbBlockReference
  2
_Open
 10
166.5223714975095
 20
59.13925051499651
 30
0.0
 41
2.5
 42
2.5
 43
2.5
 50
90.0
  0
MTEXT
  5
532
330
2E4
100
AcDbEntity
  8
AM_5
 62
   140
100
AcDbMText
 10
163.899503801069
 20
41.13925051499644
 30
0.0
 40
3.5
 41
0.0
 71
     5
 72
     1
  1
%%c36
 11
0.0000000000000001
 21
1.0
 31
0.0
 73
     1
 44
1.0
1001
ACAD
1000
MTEXTBEGIN
1070
    73
1070
     1
1070
    44
1040
1.0
1070
    74
1070
     0
1000
MTEXTEND
  0
POINT
  5
533
330
2E4
100
AcDbEntity
  8
Defpoints
 62
     0
100
AcDbPoint
 10
146.1223704975095
 20
23.13925051499633
 30
0.0
  0
POINT
  5
534
330
2E4
100
AcDbEntity
  8
Defpoints
 62
     0
100
AcDbPoint
 10
146.1223704975095
 20
59.13925051499651
 30
0.0
  0
POINT
  5
535
330
2E4
100
AcDbEntity
  8
Defpoints
 62
     0
100
AcDbPoint
 10
166.5223714975095
 20
59.13925051499651
 30
0.0
  0
ENDBLK
  5
2E6
330
2E4
100
AcDbEntity
  8
0
100
AcDbBlockEnd
  0
BLOCK
  5
2F1
330
2F0
100
AcDbEntity
  8
0
100
AcDbBlockBegin
  2
*D31
 70
     1
 10
0.0
 20
0.0
 30
0.0
  3
*D31
  1

  0
LINE
  5
536
330
2F0
100
AcDbEntity
  8
AM_5
  6
ByBlock
100
AcDbLine
 10
133.3223704975095
 20
21.88925051499633
 30
0.0
 11
175.5223714975096
 21
21.88925051499631
 31
0.0
  0
LINE
  5
537
330
2F0
100
AcDbEntity
  8
AM_5
  6
ByBlock
100
AcDbLine
 10
133.3223704975095
 20
60.38925051499632
 30
0.0
 11
175.5223714975096
 21
60.38925051499631
 31
0.0
  0
LINE
  5
538
330
2F0
100
AcDbEntity
  8
AM_5
  6
ByBlock
100
AcDbLine
 10
174.5223714975096
 20
24.38925051499631
 30
0.0
 11
174.5223714975096
 21
57.88925051499631
 31
0.0
  0
INSERT
  5
539
330
2F0
100
AcDbEntity
  8
AM_5
100
AcDbBlockReference
  2
_Open
 10
174.5223714975096
 20
21.88925051499631
 30
0.0
 41
2.5
 42
2.5
 43
2.5
 50
270.0
  0
INSERT
  5
53A
330
2F0
100
AcDbEntity
  8
AM_5
100
AcDbBlockReference
  2
_Open
 10
174.5223714975096
 20
60.38925051499631
 30
0.0
 41
2.5
 42
2.5
 43
2.5
 50
90.0
  0
MTEXT
  5
53B
330
2F0
100
AcDbEntity
  8
AM_5
 62
   140
100
AcDbMText
 10
171.8924520885102
 20
41.13925051499634
 30
0.0
 40
3.5
 41
0.0
 71
     5
 72
     1
  1
%%c38.5
 11
0.0000000000000001
 21
1.0
 31
0.0
 73
     1
 44
1.0
1001
ACAD
1000
MTEXTBEGIN
1070
    73
1070
     1
1070
    44
1040
1.0
1070
    74
1070
     0
1000
MTEXTEND
  0
POINT
  5
53C
330
2F0
100
AcDbEntity
  8
Defpoints
 62
     0
100
AcDbPoint
 10
132.8223704975095
 20
21.88925051499633
 30
0.0
  0
POINT
  5
53D
330
2F0
100
AcDbEntity
  8
Defpoints
 62
     0
100
AcDbPoint
 10
132.8223704975095
 20
60.38925051499632
 30
0.0
  0
POINT
  5
53E
330
2F0
100
AcDbEntity
  8
Defpoints
 62
     0
100
AcDbPoint
 10
174.5223714975096
 20
60.38925051499631
 30
0.0
  0
ENDBLK
  5
2F2
330
2F0
100
AcDbEntity
  8
0
100
AcDbBlockEnd
  0
BLOCK
  5
2FD
330
2FC
100
AcDbEntity
  8
0
100
AcDbBlockBegin
  2
*D32
 70
     1
 10
0.0
 20
0.0
 30
0.0
  3
*D32
  1

  0
LINE
  5
53F
330
2FC
100
AcDbEntity
  8
AM_5
  6
ByBlock
100
AcDbLine
 10
151.3223704975086
 20
27.00218174968564
 30
0.0
 11
151.3223704975086
 21
14.13924951499633
 31
0.0
  0
LINE
  5
540
330
2FC
100
AcDbEntity
  8
AM_5
  6
ByBlock
100
AcDbLine
 10
146.3223704975095
 20
22.83925051499615
 30
0.0
 11
146.3223704975095
 21
14.13924951499633
 31
0.0
  0
LINE
  5
541
330
2FC
100
AcDbEntity
  8
AM_5
  6
ByBlock
100
AcDbLine
 10
153.8223704975086
 20
15.13924951499634
 30
0.0
 11
156.3223704975086
 21
15.13924951499634
 31
0.0
  0
LINE
  5
542
330
2FC
100
AcDbEntity
  8
AM_5
  6
ByBlock
100
AcDbLine
 10
143.8223704975095
 20
15.13924951499634
 30
0.0
 11
133.9164604907936
 21
15.13924951499634
 31
0.0
  0
LINE
  5
543
330
2FC
100
AcDbEntity
  8
AM_5
  6
ByBlock
100
AcDbLine
 10
151.3223704975086
 20
15.13924951499634
 30
0.0
 11
146.3223704975095
 21
15.13924951499634
 31
0.0
  0
INSERT
  5
544
330
2FC
100
AcDbEntity
  8
AM_5
100
AcDbBlockReference
  2
_Open
 10
151.3223704975086
 20
15.13924951499634
 30
0.0
 41
2.5
 42
2.5
 43
2.5
 50
180.0
  0
INSERT
  5
545
330
2FC
100
AcDbEntity
  8
AM_5
100
AcDbBlockReference
  2
_Open
 10
146.3223704975095
 20
15.13924951499634
 30
0.0
 41
2.5
 42
2.5
 43
2.5
  0
MTEXT
  5
546
330
2FC
100
AcDbEntity
  8
AM_5
 62
   140
100
AcDbMText
 10
137.6194154941515
 20
18.25221123427101
 30
0.0
 40
3.5
 41
0.0
 71
     5
 72
     1
  1
(5)
 73
     1
 44
1.0
1001
ACAD
1000
MTEXTBEGIN
1070
    73
1070
     1
1070
    44
1040
1.0
1070
    74
1070
     0
1000
MTEXTEND
  0
POINT
  5
547
330
2FC
100
AcDbEntity
  8
Defpoints
 62
     0
100
AcDbPoint
 10
151.3223704975086
 20
27.50218174968564
 30
0.0
  0
POINT
  5
548
330
2FC
100
AcDbEntity
  8
Defpoints
 62
     0
100
AcDbPoint
 10
146.3223704975095
 20
23.33925051499615
 30
0.0
  0
POINT
  5
549
330
2FC
100
AcDbEntity
  8
Defpoints
 62
     0
100
AcDbPoint
 10
146.3223704975095
 20
15.13924951499634
 30
0.0
  0
ENDBLK
  5
2FE
330
2FC
100
AcDbEntity
  8
0
100
AcDbBlockEnd
  0
BLOCK
  5
30B
330
30A
100
AcDbEntity
  8
0
100
AcDbBlockBegin
  2
*D33
 70
     1
 10
0.0
 20
0.0
 30
0.0
  3
*D33
  1

  0
LINE
  5
54A
330
30A
100
AcDbEntity
  8
AM_5
  6
ByBlock
100
AcDbLine
 10
200.3922736897939
 20
18.38925051499632
 30
0.0
 11
200.3922736897939
 21
8.896889064180427
 31
0.0
  0
LINE
  5
54B
330
30A
100
AcDbEntity
  8
AM_5
  6
ByBlock
100
AcDbLine
 10
206.7605857778682
 20
25.3771249873621
 30
0.0
 11
212.470474876574
 21
11.24465354469506
 31
0.0
  0
ARC
  5
54C
330
30A
100
AcDbEntity
  8
AM_5
  6
ByBlock
100
AcDbCircle
 10
200.3922736897939
 20
41.13925051500157
 30
0.0
 40
31.24236145082114
100
AcDbArc
 50
260.8279857506981
 51
265.413992875349
  0
ARC
  5
54D
330
30A
100
AcDbEntity
  8
AM_5
  6
ByBlock
100
AcDbCircle
 10
200.3922736897939
 20
41.13925051500157
 30
0.0
 40
31.24236145082114
100
AcDbArc
 50
296.5860071246577
 51
301.1720142493087
  0
ARC
  5
54E
330
30A
100
AcDbEntity
  8
AM_5
  6
ByBlock
100
AcDbCircle
 10
200.3922736897939
 20
41.13925051500157
 30
0.0
 40
31.24236145082114
100
AcDbArc
 50
270.0
 51
292.0000000000068
  0
INSERT
  5
54F
330
30A
100
AcDbEntity
  8
AM_5
100
AcDbBlockReference
  2
_Open
 10
200.3922736897939
 20
9.896889064180431
 30
0.0
 41
2.5
 42
2.5
 43
2.5
 50
357.7069964376745
  0
INSERT
  5
550
330
30A
100
AcDbEntity
  8
AM_5
100
AcDbBlockReference
  2
_Open
 10
212.095868283158
 20
12.1718373992618
 30
0.0
 41
2.5
 42
2.5
 43
2.5
 50
204.2930035623323
  0
MTEXT
  5
551
330
30A
100
AcDbEntity
  8
AM_5
 62
   140
100
AcDbMText
 10
205.8600824472308
 20
13.00981301338064
 30
0.0
 40
3.5
 41
0.0
 71
     5
 72
     1
  1
22\U+00B0
 11
0.9816271834476529
 21
0.1908089953766011
 31
0.0
 73
     1
 44
1.0
1001
ACAD
1000
MTEXTBEGIN
1070
    73
1070
     1
1070
    44
1040
1.0
1070
    74
1070
     0
1000
MTEXTEND
  0
POINT
  5
552
330
30A
100
AcDbEntity
  8
Defpoints
 62
     0
100
AcDbPoint
 10
204.3801001884342
 20
10.15244059786914
 30
0.0
  0
POINT
  5
553
330
30A
100
AcDbEntity
  8
Defpoints
 62
     0
100
AcDbPoint
 10
194.2112648984315
 20
56.43778411534793
 30
0.0
  0
POINT
  5
554
330
30A
100
AcDbEntity
  8
Defpoints
 62
     0
100
AcDbPoint
 10
200.3922736897939
 20
41.13925051499633
 30
0.0
  0
POINT
  5
555
330
30A
100
AcDbEntity
  8
Defpoints
 62
     0
100
AcDbPoint
 10
200.3922736897939
 20
18.88925051499632
 30
0.0
  0
POINT
  5
556
330
30A
100
AcDbEntity
  8
Defpoints
 62
     0
100
AcDbPoint
 10
206.5732824811602
 20
25.84071691464548
 30
0.0
  0
ENDBLK
  5
30C
330
30A
100
AcDbEntity
  8
0
100
AcDbBlockEnd
  0
ENDSEC
  0
SECTION
  2
ENTITIES
  0
LWPOLYLINE
  5
C7
330
67
100
AcDbEntity
  8
AM_VIEWS
  6
Continuous
100
AcDbPolyline
 90
        4
 70
     1
 43
0.0
 10
0.0
 20
0.0
 10
225.0
 20
0.0
 10
225.0
 20
95.0
 10
0.0
 20
95.0
  0
LINE
  5
EF
330
67
100
AcDbEntity
  8
AM_0
100
AcDbLine
 10
122.8327767046464
 20
52.52166858106444
 30
0.0
 11
124.1327767046464
 21
52.52166858106444
 31
0.0
  0
CIRCLE
  5
F3
330
67
100
AcDbEntity
  8
AM_0
100
AcDbCircle
 10
32.02275347316515
 20
51.96456806230186
 30
0.0
 40
1.5
  0
LINE
  5
F4
330
67
100
AcDbEntity
  8
AM_0
100
AcDbLine
 10
55.20928400800051
 20
31.98958202687141
 30
0.0
 11
54.10950929794626
 21
32.58371634428137
 31
0.0
  0
ARC
  5
F5
330
67
100
AcDbEntity
  8
AM_0
100
AcDbCircle
 10
38.27275347316515
 20
41.13925051499633
 30
0.0
 40
18.0
100
AcDbArc
 50
344.3793702084426
 51
331.6206297915617
  0
LINE
  5
F6
330
67
100
AcDbEntity
  8
AM_0
100
AcDbLine
 10
55.60793567160988
 20
36.29245176254904
 30
0.0
 11
56.81176776872405
 21
35.95586851585109
 31
0.0
  0
ARC
  5
F7
330
67
100
AcDbEntity
  8
AM_0
100
AcDbCircle
 10
38.27275347316515
 20
41.13925051499633
 30
0.0
 40
19.25
100
AcDbArc
 50
344.3793702084426
 51
331.6206297915617
  0
CIRCLE
  5
F8
330
67
100
AcDbEntity
  8
AM_0
100
AcDbCircle
 10
27.44743592585962
 20
34.88925051499633
 30
0.0
 40
1.229499999999998
  0
CIRCLE
  5
F9
330
67
100
AcDbEntity
  8
AM_0
100
AcDbCircle
 10
49.09807102047057
 20
47.38925051499633
 30
0.0
 40
1.229499999999998
  0
CIRCLE
  5
FA
102
{ACAD_REACTORS
330
164
102
}
330
67
100
AcDbEntity
  8
AM_0
100
AcDbCircle
 10
27.44743592585962
 20
34.88925051499633
 30
0.0
 40
1.5
  0
CIRCLE
  5
FB
102
{ACAD_REACTORS
330
164
102
}
330
67
100
AcDbEntity
  8
AM_0
100
AcDbCircle
 10
49.09807102047057
 20
47.38925051499633
 30
0.0
 40
1.5
  0
CIRCLE
  5
FC
330
67
100
AcDbEntity
  8
AM_0
100
AcDbCircle
 10
38.27275347316515
 20
41.13925051499633
 30
0.0
 40
1.25
  0
CIRCLE
  5
FD
330
67
100
AcDbEntity
  8
AM_0
100
AcDbCircle
 10
38.27275347316515
 20
41.13925051499633
 30
0.0
 40
6.099999999999997
  0
ARC
  5
FE
330
67
100
AcDbEntity
  8
AM_0
100
AcDbCircle
 10
38.27275347316527
 20
41.13925051499633
 30
0.0
 40
17.99999999999986
100
AcDbArc
 50
331.6206297915617
 51
344.3793702084426
  0
LINE
  5
FF
330
67
100
AcDbEntity
  8
AM_0
100
AcDbLine
 10
132.8223704975145
 20
31.98958202687141
 30
0.0
 11
132.8223704975142
 21
32.58371634428137
 31
0.0
  0
LINE
  5
100
330
67
100
AcDbEntity
  8
AM_0
100
AcDbLine
 10
98.32237049751427
 20
32.58371634428137
 30
0.0
 11
132.8223704975142
 21
32.58371634428137
 31
0.0
  0
LINE
  5
101
330
67
100
AcDbEntity
  8
AM_0
100
AcDbLine
 10
96.32237049751427
 20
32.58371634428137
 30
0.0
 11
98.32237049751427
 21
32.58371634428137
 31
0.0
  0
LINE
  5
102
330
67
100
AcDbEntity
  8
AM_0
100
AcDbLine
 10
96.32237049751473
 20
31.98958202687141
 30
0.0
 11
96.32237049751427
 21
32.58371634428137
 31
0.0
  0
LINE
  5
103
330
67
100
AcDbEntity
  8
AM_0
100
AcDbLine
 10
96.32237049751473
 20
31.98958202687141
 30
0.0
 11
132.8223704975145
 21
31.98958202687141
 31
0.0
  0
LINE
  5
104
330
67
100
AcDbEntity
  8
AM_0
100
AcDbLine
 10
96.32237049751507
 20
35.95586851585109
 30
0.0
 11
132.8223704975149
 21
35.95586851585109
 31
0.0
  0
LINE
  5
105
330
67
100
AcDbEntity
  8
AM_0
100
AcDbLine
 10
132.8223704975095
 20
60.38925051499632
 30
0.0
 11
132.8223704975149
 21
35.95586851585109
 31
0.0
  0
LINE
  5
106
330
67
100
AcDbEntity
  8
AM_0
100
AcDbLine
 10
132.8223704975145
 20
31.98958202687141
 30
0.0
 11
132.8223704975095
 21
21.88925051499633
 31
0.0
  0
LINE
  5
107
330
67
100
AcDbEntity
  8
AM_0
100
AcDbLine
 10
96.32237049750962
 20
60.38925051499632
 30
0.0
 11
96.32237049751507
 21
35.95586851585109
 31
0.0
  0
LINE
  5
108
330
67
100
AcDbEntity
  8
AM_0
100
AcDbLine
 10
96.32237049751473
 20
31.98958202687141
 30
0.0
 11
96.32237049750962
 21
21.88925051499633
 31
0.0
  0
LINE
  5
109
102
{ACAD_REACTORS
330
1A5
330
1B6
330
1C5
330
203
102
}
330
67
100
AcDbEntity
  8
AM_0
100
AcDbLine
 10
96.32237049750962
 20
60.38925051499632
 30
0.0
 11
132.8223704975095
 21
60.38925051499632
 31
0.0
  0
LINE
  5
10A
102
{ACAD_REACTORS
330
203
102
}
330
67
100
AcDbEntity
  8
AM_0
100
AcDbLine
 10
96.32237049750962
 20
21.88925051499633
 30
0.0
 11
132.8223704975095
 21
21.88925051499633
 31
0.0
  0
LINE
  5
10B
330
67
100
AcDbEntity
  8
AM_0
100
AcDbLine
 10
150.5223704975095
 20
42.28925051499596
 30
0.0
 11
150.5223704975095
 21
39.98925051499578
 31
0.0
  0
LINE
  5
10C
330
67
100
AcDbEntity
  8
AM_0
100
AcDbLine
 10
150.4223704975096
 20
39.88925051499633
 30
0.0
 11
150.4223704975096
 21
42.38925051499633
 31
0.0
  0
LINE
  5
10D
330
67
100
AcDbEntity
  8
AM_0
100
AcDbLine
 10
150.5223704975095
 20
39.98925051499578
 30
0.0
 11
150.4223704975096
 21
39.88925051499633
 31
0.0
  0
LINE
  5
10E
330
67
100
AcDbEntity
  8
AM_0
100
AcDbLine
 10
150.5223704975095
 20
42.28925051499596
 30
0.0
 11
150.4223704975096
 21
42.38925051499633
 31
0.0
  0
LINE
  5
10F
330
67
100
AcDbEntity
  8
AM_0
100
AcDbLine
 10
148.1223704975078
 20
28.90322342340665
 30
0.0
 11
150.122370497508
 21
28.90322342340665
 31
0.0
  0
LINE
  5
110
330
67
100
AcDbEntity
  8
AM_0
100
AcDbLine
 10
150.1223704975078
 20
28.53234988157988
 30
0.0
 11
148.1223704975078
 21
28.53234988157988
 31
0.0
  0
LINE
  5
111
330
67
100
AcDbEntity
  8
AM_0
100
AcDbLine
 10
148.1223704975083
 20
28.34131353328235
 30
0.0
 11
148.1223704975078
 21
28.90322342340665
 31
0.0
  0
LINE
  5
112
330
67
100
AcDbEntity
  8
AM_0
100
AcDbLine
 10
150.1223704975083
 20
28.34131353328235
 30
0.0
 11
148.1223704975083
 21
28.34131353328235
 31
0.0
  0
LINE
  5
113
330
67
100
AcDbEntity
  8
AM_0
100
AcDbLine
 10
150.122370497508
 20
28.90322342340665
 30
0.0
 11
150.1223704975083
 21
28.34131353328235
 31
0.0
  0
LINE
  5
114
330
67
100
AcDbEntity
  8
AM_0
100
AcDbLine
 10
150.1223704975108
 20
53.93718749670939
 30
0.0
 11
148.1223704975108
 21
53.93718749670939
 31
0.0
  0
LINE
  5
115
330
67
100
AcDbEntity
  8
AM_0
100
AcDbLine
 10
148.122370497511
 20
54.30806103853615
 30
0.0
 11
150.122370497511
 21
54.30806103853615
 31
0.0
  0
LINE
  5
116
330
67
100
AcDbEntity
  8
AM_0
100
AcDbLine
 10
148.1223704975112
 20
53.74615114841277
 30
0.0
 11
148.122370497511
 21
54.30806103853615
 31
0.0
  0
LINE
  5
117
330
67
100
AcDbEntity
  8
AM_0
100
AcDbLine
 10
150.1223704975112
 20
53.74615114841277
 30
0.0
 11
148.1223704975112
 21
53.74615114841277
 31
0.0
  0
LINE
  5
118
330
67
100
AcDbEntity
  8
AM_0
100
AcDbLine
 10
150.122370497511
 20
54.30806103853615
 30
0.0
 11
150.1223704975112
 21
53.74615114841277
 31
0.0
  0
LINE
  5
119
330
67
100
AcDbEntity
  8
AM_0
100
AcDbLine
 10
146.3223704975106
 20
54.77631928030611
 30
0.0
 11
151.3223704975106
 21
54.77631928030611
 31
0.0
  0
LINE
  5
11A
330
67
100
AcDbEntity
  8
AM_0
100
AcDbLine
 10
146.3223704975116
 20
52.90701936481606
 30
0.0
 11
151.3223704975116
 21
52.90701936481606
 31
0.0
  0
LINE
  5
11B
330
67
100
AcDbEntity
  8
AM_0
100
AcDbLine
 10
151.3223704975116
 20
52.90701936481606
 30
0.0
 11
151.3223704975116
 21
53.27789290664282
 31
0.0
  0
LINE
  5
11C
330
67
100
AcDbEntity
  8
AM_0
100
AcDbLine
 10
146.3223704975116
 20
53.27789290664282
 30
0.0
 11
151.3223704975116
 21
53.27789290664282
 31
0.0
  0
LINE
  5
11D
330
67
100
AcDbEntity
  8
AM_0
100
AcDbLine
 10
151.3223704975116
 20
53.27789290664282
 30
0.0
 11
151.3223704975106
 21
54.77631928030611
 31
0.0
  0
LINE
  5
11E
330
67
100
AcDbEntity
  8
AM_0
100
AcDbLine
 10
146.3223704975075
 20
29.3714816651766
 30
0.0
 11
151.3223704975074
 21
29.3714816651766
 31
0.0
  0
LINE
  5
11F
330
67
100
AcDbEntity
  8
AM_0
100
AcDbLine
 10
146.3223704975086
 20
27.50218174968564
 30
0.0
 11
151.3223704975086
 21
27.50218174968564
 31
0.0
  0
LINE
  5
120
102
{ACAD_REACTORS
330
212
102
}
330
67
100
AcDbEntity
  8
AM_0
100
AcDbLine
 10
151.3223704975086
 20
27.50218174968564
 30
0.0
 11
151.3223704975086
 21
27.87305529151241
 31
0.0
  0
LINE
  5
121
330
67
100
AcDbEntity
  8
AM_0
100
AcDbLine
 10
146.3223704975086
 20
27.87305529151241
 30
0.0
 11
151.3223704975086
 21
27.87305529151241
 31
0.0
  0
LINE
  5
122
330
67
100
AcDbEntity
  8
AM_0
100
AcDbLine
 10
151.3223704975086
 20
27.87305529151241
 30
0.0
 11
151.3223704975074
 21
29.3714816651766
 31
0.0
  0
LINE
  5
123
102
{ACAD_REACTORS
330
1D4
102
}
330
67
100
AcDbEntity
  8
AM_0
100
AcDbLine
 10
149.5223704975095
 20
46.9392505149956
 30
0.0
 11
149.5223704975095
 21
35.33925051499615
 31
0.0
  0
LINE
  5
124
330
67
100
AcDbEntity
  8
AM_0
100
AcDbLine
 10
146.3223704975095
 20
58.93925051499651
 30
0.0
 11
146.3223704975095
 21
23.33925051499615
 31
0.0
  0
ARC
  5
125
330
67
100
AcDbEntity
  8
AM_0
100
AcDbCircle
 10
149.3223704975095
 20
46.9392505149956
 30
0.0
 40
0.2
100
AcDbArc
 50
0.0
 51
90.0
  0
ARC
  5
126
102
{ACAD_REACTORS
330
1E5
102
}
330
67
100
AcDbEntity
  8
AM_0
100
AcDbCircle
 10
149.3223704975095
 20
35.33925051499615
 30
0.0
 40
0.2
100
AcDbArc
 50
270.0
 51
0.0
  0
ARC
  5
127
102
{ACAD_REACTORS
330
1C5
330
1D4
330
1F4
102
}
330
67
100
AcDbEntity
  8
AM_0
100
AcDbCircle
 10
146.1223704975095
 20
58.93925051499651
 30
0.0
 40
0.2
100
AcDbArc
 50
0.0
 51
90.0
  0
ARC
  5
128
102
{ACAD_REACTORS
330
212
102
}
330
67
100
AcDbEntity
  8
AM_0
100
AcDbCircle
 10
146.1223704975095
 20
23.33925051499615
 30
0.0
 40
0.2
100
AcDbArc
 50
270.0
 51
0.0
  0
LINE
  5
129
330
67
100
AcDbEntity
  8
AM_0
100
AcDbLine
 10
143.5223704975095
 20
23.13925051499633
 30
0.0
 11
143.5223704975095
 21
59.13925051499632
 31
0.0
  0
LINE
  5
12A
330
67
100
AcDbEntity
  8
AM_0
100
AcDbLine
 10
143.3223704975096
 20
59.13925051499632
 30
0.0
 11
143.3223704975096
 21
23.13925051499633
 31
0.0
  0
LINE
  5
12B
330
67
100
AcDbEntity
  8
AM_0
100
AcDbLine
 10
86.02269945911677
 20
39.88925051499633
 30
0.0
 11
86.02269945911677
 21
42.38925051499633
 31
0.0
  0
LINE
  5
12C
330
67
100
AcDbEntity
  8
AM_0
100
AcDbLine
 10
143.5223704975095
 20
23.33925051499615
 30
0.0
 11
143.3223704975096
 21
23.33925051499615
 31
0.0
  0
LINE
  5
12D
330
67
100
AcDbEntity
  8
AM_0
100
AcDbLine
 10
143.5223704975095
 20
58.93925051499651
 30
0.0
 11
143.3223704975096
 21
58.93925051499651
 31
0.0
  0
ARC
  5
12E
102
{ACAD_REACTORS
330
184
330
1B6
102
}
330
67
100
AcDbEntity
  8
AM_0
100
AcDbCircle
 10
89.82237049750962
 20
41.13925051499633
 30
0.0
 40
4.0
100
AcDbArc
 50
161.7900431357172
 51
198.2099568642827
  0
LINE
  5
12F
330
67
100
AcDbEntity
  8
AM_0
100
AcDbLine
 10
92.8223704975096
 20
35.03925051499596
 30
0.0
 11
92.8223704975096
 21
47.23925051499578
 31
0.0
  0
LINE
  5
130
102
{ACAD_REACTORS
330
195
102
}
330
67
100
AcDbEntity
  8
AM_0
100
AcDbLine
 10
96.32237049750962
 20
35.03925051499596
 30
0.0
 11
92.8223704975096
 21
35.03925051499596
 31
0.0
  0
LINE
  5
131
102
{ACAD_REACTORS
330
195
330
1A5
102
}
330
67
100
AcDbEntity
  8
AM_0
100
AcDbLine
 10
96.32237049750962
 20
47.23925051499578
 30
0.0
 11
92.8223704975096
 21
47.23925051499578
 31
0.0
  0
LINE
  5
132
330
67
100
AcDbEntity
  8
AM_0
100
AcDbLine
 10
96.3223704975137
 20
32.58371634428137
 30
0.0
 11
96.32237049751404
 21
35.95586851585109
 31
0.0
  0
LINE
  5
133
330
67
100
AcDbEntity
  8
AM_0
100
AcDbLine
 10
149.5223704975111
 20
42.38925051499633
 30
0.0
 11
150.4223704975096
 21
42.38925051499633
 31
0.0
  0
LINE
  5
134
330
67
100
AcDbEntity
  8
AM_0
100
AcDbLine
 10
149.5223704975111
 20
39.88925051499633
 30
0.0
 11
150.4223704975096
 21
39.88925051499633
 31
0.0
  0
LINE
  5
135
102
{ACAD_REACTORS
330
1E5
102
}
330
67
100
AcDbEntity
  8
AM_0
100
AcDbLine
 10
146.3223704975095
 20
47.13925051499632
 30
0.0
 11
149.3223704975095
 21
47.13925051499632
 31
0.0
  0
LINE
  5
136
330
67
100
AcDbEntity
  8
AM_0
100
AcDbLine
 10
146.3223704975095
 20
35.13925051499633
 30
0.0
 11
149.3223704975095
 21
35.13925051499633
 31
0.0
  0
LINE
  5
137
330
67
100
AcDbEntity
  8
AM_0
100
AcDbLine
 10
143.5223704975095
 20
59.13925051499632
 30
0.0
 11
146.1223704975095
 21
59.13925051499632
 31
0.0
  0
LINE
  5
138
102
{ACAD_REACTORS
330
1F4
102
}
330
67
100
AcDbEntity
  8
AM_0
100
AcDbLine
 10
143.5223704975095
 20
23.13925051499633
 30
0.0
 11
146.1223704975095
 21
23.13925051499633
 31
0.0
  0
LINE
  5
139
330
67
100
AcDbEntity
  8
AM_0
100
AcDbLine
 10
132.8223704975095
 20
59.13925051499632
 30
0.0
 11
143.3223704975096
 21
59.13925051499632
 31
0.0
  0
LINE
  5
13A
330
67
100
AcDbEntity
  8
AM_0
100
AcDbLine
 10
132.8223704975095
 20
23.13925051499633
 30
0.0
 11
143.3223704975096
 21
23.13925051499633
 31
0.0
  0
LINE
  5
13B
102
{ACAD_REACTORS
330
184
102
}
330
67
100
AcDbEntity
  8
AM_0
100
AcDbLine
 10
92.8223704975096
 20
39.88925051499633
 30
0.0
 11
86.02269945911677
 21
39.88925051499633
 31
0.0
  0
LINE
  5
13C
102
{ACAD_REACTORS
330
184
102
}
330
67
100
AcDbEntity
  8
AM_0
100
AcDbLine
 10
92.8223704975096
 20
42.38925051499633
 30
0.0
 11
86.02269945911677
 21
42.38925051499633
 31
0.0
  0
LINE
  5
13D
330
67
100
AcDbEntity
  8
AM_0
100
AcDbLine
 10
183.4557431549481
 20
31.98958202687141
 30
0.0
 11
184.5555178650023
 21
32.58371634428137
 31
0.0
  0
LINE
  5
13E
330
67
100
AcDbEntity
  8
AM_0
100
AcDbLine
 10
183.0570914913386
 20
36.29245176254904
 30
0.0
 11
181.8532593942244
 21
35.95586851585109
 31
0.0
  0
ARC
  5
13F
330
67
100
AcDbEntity
  8
AM_0
100
AcDbCircle
 10
200.3922736897834
 20
41.13925051499633
 30
0.0
 40
19.25
100
AcDbArc
 50
208.3793702084382
 51
195.6206297915575
  0
CIRCLE
  5
140
330
67
100
AcDbEntity
  8
AM_0
100
AcDbCircle
 10
200.3922736897939
 20
41.13925051499633
 30
0.0
 40
1.149999999999999
  0
CIRCLE
  5
141
330
67
100
AcDbEntity
  8
AM_0
100
AcDbCircle
 10
200.3922736897939
 20
41.13925051499633
 30
0.0
 40
1.25
  0
LINE
  5
142
330
67
100
AcDbEntity
  8
AM_0
100
AcDbLine
 10
197.0396097504468
 20
54.77631928030611
 30
0.0
 11
197.1894523878131
 21
54.40544573847933
 31
0.0
  0
LINE
  5
143
330
67
100
AcDbEntity
  8
AM_0
100
AcDbLine
 10
197.1894523878131
 20
54.40544573847933
 30
0.0
 11
193.480716969546
 21
52.90701936481606
 31
0.0
  0
LINE
  5
144
330
67
100
AcDbEntity
  8
AM_0
100
AcDbLine
 10
193.480716969546
 20
52.90701936481606
 30
0.0
 11
193.3308743321796
 21
53.27789290664282
 31
0.0
  0
LINE
  5
145
330
67
100
AcDbEntity
  8
AM_0
100
AcDbLine
 10
193.3308743321796
 20
53.27789290664282
 30
0.0
 11
197.0396097504468
 21
54.77631928030611
 31
0.0
  0
LINE
  5
146
330
67
100
AcDbEntity
  8
AM_0
100
AcDbLine
 10
207.3038304100428
 20
29.3714816651766
 30
0.0
 11
207.4536730474091
 21
29.00060812334983
 31
0.0
  0
LINE
  5
147
330
67
100
AcDbEntity
  8
AM_0
100
AcDbLine
 10
207.4536730474091
 20
29.00060812334983
 30
0.0
 11
203.7449376291419
 21
27.50218174968564
 31
0.0
  0
LINE
  5
148
330
67
100
AcDbEntity
  8
AM_0
100
AcDbLine
 10
203.7449376291419
 20
27.50218174968564
 30
0.0
 11
203.5950949917756
 21
27.87305529151241
 31
0.0
  0
LINE
  5
149
330
67
100
AcDbEntity
  8
AM_0
100
AcDbLine
 10
203.5950949917756
 20
27.87305529151241
 30
0.0
 11
207.3038304100428
 21
29.3714816651766
 31
0.0
  0
CIRCLE
  5
14A
330
67
100
AcDbEntity
  8
AM_0
100
AcDbCircle
 10
200.3922736897932
 20
41.13925051499633
 30
0.0
 40
6.0
  0
CIRCLE
  5
14B
330
67
100
AcDbEntity
  8
AM_0
100
AcDbCircle
 10
200.3922736897913
 20
41.13925051499633
 30
0.0
 40
18.0
  0
CIRCLE
  5
14C
330
67
100
AcDbEntity
  8
AM_0
100
AcDbCircle
 10
200.3922736897933
 20
41.13925051499633
 30
0.0
 40
2.25
  0
LINE
  5
14D
330
67
100
AcDbEntity
  8
AM_0
100
AcDbLine
 10
189.9592848479862
 20
50.94500106386955
 30
0.0
 11
191.4577112216502
 21
47.23626564560277
 31
0.0
  0
LINE
  5
14E
330
67
100
AcDbEntity
  8
AM_0
100
AcDbLine
 10
107.0723704975094
 20
60.38925051499632
 30
0.0
 11
107.0723704975094
 21
47.88925051499632
 31
0.0
  0
LINE
  5
14F
330
67
100
AcDbEntity
  8
AM_0
100
AcDbLine
 10
122.0723704975097
 20
60.38925051499632
 30
0.0
 11
122.0723704975097
 21
47.88925051499632
 31
0.0
  0
LINE
  5
150
330
67
100
AcDbEntity
  8
AM_0
100
AcDbLine
 10
107.0723704975094
 20
47.88925051499632
 30
0.0
 11
122.0723704975097
 21
47.88925051499632
 31
0.0
  0
LINE
  5
151
330
67
100
AcDbEntity
  8
AM_0
100
AcDbLine
 10
192.5628657439517
 20
49.8398465415678
 30
0.0
 11
188.8541303256846
 21
48.34142016790452
 31
0.0
  0
CIRCLE
  5
152
330
67
100
AcDbEntity
  8
AM_0
100
AcDbCircle
 10
190.7084980348182
 20
49.09063335473661
 30
0.0
 40
2.0
  0
LINE
  5
153
330
67
100
AcDbEntity
  8
AM_7
100
AcDbLine
 10
83.02269945911678
 20
41.13925051499634
 30
0.0
 11
153.5223704975095
 21
41.13925051499585
 31
0.0
1001
GENIUS_GENOBJ-N-CEN_13
1002
{
1000
OWNER
1000
GEN
1002
}
1001
GENIUS_GENODEF_13
1002
{
1000
HIER
1070
     0
1002
}
1002
{
1000
MANEDIT
1070
     0
1002
}
1002
{
1000
NOSEL
1070
     0
1002
}
1002
{
1000
BEHIND
1070
     0
1002
}
1002
{
1000
OTHER
1070
     0
1002
}
1002
{
1000
REACTOR
1002
}
1001
GENIUS_GENCEN_19
1002
{
1040
3.0
1002
}
  0
LINE
  5
157
330
67
100
AcDbEntity
  8
AM_7
100
AcDbLine
 10
38.27275347316515
 20
41.13925051499633
 30
0.0
 11
60.52275347316515
 21
41.13925051499633
 31
0.0
1001
GENIUS_GENOREF_13
1005
256
  0
LINE
  5
158
330
67
100
AcDbEntity
  8
AM_7
100
AcDbLine
 10
38.27275347316515
 20
41.13925051499633
 30
0.0
 11
38.27275347316515
 21
63.38925051499632
 31
0.0
1001
GENIUS_GENOREF_13
1005
256
  0
LINE
  5
159
330
67
100
AcDbEntity
  8
AM_7
100
AcDbLine
 10
38.27275347316515
 20
41.13925051499633
 30
0.0
 11
16.02275347316515
 21
41.13925051499633
 31
0.0
1001
GENIUS_GENOREF_13
1005
256
  0
LINE
  5
15A
102
{ACAD_REACTORS
330
173
102
}
330
67
100
AcDbEntity
  8
AM_7
100
AcDbLine
 10
38.27275347316515
 20
41.13925051499633
 30
0.0
 11
38.27275347316515
 21
18.88925051499633
 31
0.0
1001
GENIUS_GENOREF_13
1005
256
  0
LINE
  5
15B
330
67
100
AcDbEntity
  8
AM_7
100
AcDbLine
 10
200.3922736897939
 20
41.13925051499633
 30
0.0
 11
222.6422736897939
 21
41.13925051499633
 31
0.0
1001
GENIUS_GENOREF_13
1005
255
  0
LINE
  5
15C
330
67
100
AcDbEntity
  8
AM_7
100
AcDbLine
 10
200.3922736897939
 20
41.13925051499633
 30
0.0
 11
200.3922736897939
 21
63.38925051499632
 31
0.0
1001
GENIUS_GENOREF_13
1005
255
  0
LINE
  5
15D
330
67
100
AcDbEntity
  8
AM_7
100
AcDbLine
 10
200.3922736897939
 20
41.13925051499633
 30
0.0
 11
178.1422736897939
 21
41.13925051499633
 31
0.0
1001
GENIUS_GENOREF_13
1005
255
  0
LINE
  5
15E
102
{ACAD_REACTORS
330
224
102
}
330
67
100
AcDbEntity
  8
AM_7
100
AcDbLine
 10
200.3922736897939
 20
41.13925051499633
 30
0.0
 11
200.3922736897939
 21
18.88925051499633
 31
0.0
1001
GENIUS_GENOREF_13
1005
255
  0
LINE
  5
15F
102
{ACAD_REACTORS
330
173
102
}
330
67
100
AcDbEntity
  8
AM_7
100
AcDbLine
 10
24.84935971450631
 20
33.38925051499633
 30
0.0
 11
51.69614723182388
 21
48.88925051499633
 31
0.0
1001
GENIUS_GENODEF_13
1002
{
1000
HIER
1070
     0
1002
}
1002
{
1000
MANEDIT
1070
     0
1002
}
1002
{
1000
NOSEL
1070
     0
1002
}
1002
{
1000
BEHIND
1070
     0
1002
}
1002
{
1000
OTHER
1070
     0
1002
}
1002
{
1000
REACTOR
1002
}
1001
GENIUS_GENOBJ-N-CEN_13
1002
{
1000
OWNER
1000
GEN
1002
}
1001
GENIUS_GENCEN_19
1002
{
1040
3.0
1002
}
  0
LINE
  5
160
330
67
100
AcDbEntity
  8
AM_7
  6
AM_ISO08W050x2
100
AcDbLine
 10
39.77275347316515
 20
38.54117430364301
 30
0.0
 11
30.52275347316516
 21
54.56264427365518
 31
0.0
1001
GENIUS_GENODEF_13
1002
{
1000
HIER
1070
     0
1002
}
1002
{
1000
MANEDIT
1070
     0
1002
}
1002
{
1000
NOSEL
1070
     0
1002
}
1002
{
1000
BEHIND
1070
     0
1002
}
1002
{
1000
OTHER
1070
     0
1002
}
1002
{
1000
REACTOR
1002
}
1001
GENIUS_GENOBJ-N-CEN_13
1002
{
1000
OWNER
1000
GEN
1002
}
1001
GENIUS_GENCEN_19
1002
{
1040
3.0
1002
}
  0
CIRCLE
  5
161
330
67
100
AcDbEntity
  8
AM_7
100
AcDbCircle
 10
38.27275347316515
 20
41.13925051499633
 30
0.0
 40
12.49999999999994
  0
DIMENSION
  5
162
102
{ACAD_XDICTIONARY
360
163
102
}
102
{ACAD_REACTORS
330
164
102
}
330
67
100
AcDbEntity
  8
AM_5
100
AcDbDimension
  2
*D21
 10
62.85563899530996
 20
23.56044379399211
 30
0.0
 11
50.71888759978421
 21
19.5819138498752
 31
0.0
 70
    33
 71
     5
 42
24.99999999999999
  3
AM_JIS$0
100
AcDbAlignedDimension
 13
27.44743592585963
 23
34.88925051499633
 33
0.0
 14
49.09807102047057
 24
47.38925051499633
 34
0.0
1001
ACAD_DSTYLE_DIMINSPECT
1070
   396
1000
100%
1070
   395
1000

1070
   394
1070
    33
1070
   393
1070
     0
1001
ACAD
1000
DSTYLE
1002
{
1070
   144
1040
1.0
1070
    40
1040
1.0
1002
}
  0
DIMENSION
  5
171
102
{ACAD_XDICTIONARY
360
172
102
}
102
{ACAD_REACTORS
330
173
102
}
330
67
100
AcDbEntity
  8
AM_5
100
AcDbDimension
  2
*D22
 10
51.69614723182388
 20
48.88925051499633
 30
0.0
 11
25.7732397555389
 21
19.48945768616352
 31
0.0
 70
    34
 71
     5
 42
1.047197551196597
  3
AM_JIS$2
100
AcDb2LineAngularDimension
 13
38.27275347316515
 23
41.13925051499633
 33
0.0
 14
38.27275347316515
 24
18.88925051499633
 34
0.0
 15
24.84935971450631
 25
33.38925051499633
 35
0.0
 16
20.51849698536186
 26
19.98055156181773
 36
0.0
1001
ACAD_DSTYLE_DIMINSPECT
1070
   396
1000
100%
1070
   395
1000

1070
   394
1070
    33
1070
   393
1070
     0
1001
ACAD
1000
DSTYLE
1002
{
1070
   144
1040
1.0
1070
    40
1040
1.0
1002
}
  0
DIMENSION
  5
182
102
{ACAD_XDICTIONARY
360
183
102
}
102
{ACAD_REACTORS
330
184
102
}
330
67
100
AcDbEntity
  8
AM_5
100
AcDbDimension
  2
*D23
 10
77.8223694875096
 20
42.38925051499633
 30
0.0
 11
75.19950179106903
 21
52.82011015233684
 31
0.0
 70
    32
  1
%%c<>
 71
     5
 42
2.5
  3
AM_JIS$0
100
AcDbAlignedDimension
 13
86.02269945911695
 23
39.88925051499633
 33
0.0
 14
86.02269945911695
 24
42.38925051499633
 34
0.0
 50
90.00000000000003
100
AcDbRotatedDimension
1001
ACAD_DSTYLE_DIMINSPECT
1070
   396
1000
100%
1070
   395
1000

1070
   394
1070
    33
1070
   393
1070
     0
1001
ACAD
1000
DSTYLE
1002
{
1070
   144
1040
1.0
1070
    40
1040
1.0
1002
}
  0
DIMENSION
  5
193
102
{ACAD_XDICTIONARY
360
194
102
}
102
{ACAD_REACTORS
330
195
102
}
330
67
100
AcDbEntity
  8
AM_5
100
AcDbDimension
  2
*D24
 10
69.8223694875096
 20
47.23925051499578
 30
0.0
 11
67.23593563928931
 21
56.50405911136919
 31
0.0
 70
    32
  1
%%c<>
 71
     5
 42
12.19999999999981
  3
AM_JIS$0
100
AcDbAlignedDimension
 13
92.8223704975096
 23
35.03925051499596
 33
0.0
 14
92.8223704975096
 24
47.23925051499577
 34
0.0
 50
90.00000000000003
100
AcDbRotatedDimension
1001
ACAD_DSTYLE_DIMINSPECT
1070
   396
1000
100%
1070
   395
1000

1070
   394
1070
    33
1070
   393
1070
     0
1001
ACAD
1000
DSTYLE
1002
{
1070
   144
1040
1.0
1070
    40
1040
1.0
1002
}
  0
DIMENSION
  5
1A3
102
{ACAD_XDICTIONARY
360
1A4
102
}
102
{ACAD_REACTORS
330
1A5
102
}
330
67
100
AcDbEntity
  8
AM_5
100
AcDbDimension
  2
*D25
 10
96.32237049750962
 20
68.38925151499634
 30
0.0
 11
105.2392274484834
 21
71.01211921143691
 31
0.0
 70
    32
 71
     5
 42
3.5
  3
AM_JIS$0
100
AcDbAlignedDimension
 13
92.8223704975096
 23
47.23925051499578
 33
0.0
 14
96.32237049750962
 24
60.38925051499632
 34
0.0
 50
0.0000000000000114
100
AcDbRotatedDimension
1001
ACAD_DSTYLE_DIMINSPECT
1070
   396
1000
100%
1070
   395
1000

1070
   394
1070
    33
1070
   393
1070
     0
1001
ACAD
1000
DSTYLE
1002
{
1070
   144
1040
1.0
1070
    40
1040
1.0
1002
}
  0
DIMENSION
  5
1B4
102
{ACAD_XDICTIONARY
360
1B5
102
}
102
{ACAD_REACTORS
330
1B6
102
}
330
67
100
AcDbEntity
  8
AM_5
100
AcDbDimension
  2
*D26
 10
85.82237049750961
 20
76.38925151499634
 30
0.0
 11
91.07237049750962
 21
79.01094392601045
 31
0.0
 70
    32
 71
     5
 42
10.5
  3
AM_JIS$0
100
AcDbAlignedDimension
 13
96.32237049750962
 23
60.38925051499632
 33
0.0
 14
85.82237049750961
 24
41.13925051499633
 34
0.0
 50
0.0000000000000114
100
AcDbRotatedDimension
1001
ACAD_DSTYLE_DIMINSPECT
1070
   396
1000
100%
1070
   395
1000

1070
   394
1070
    33
1070
   393
1070
     0
1001
ACAD
1000
DSTYLE
1002
{
1070
   144
1040
1.0
1070
    40
1040
1.0
1002
}
  0
DIMENSION
  5
1C3
102
{ACAD_XDICTIONARY
360
1C4
102
}
102
{ACAD_REACTORS
330
1C5
102
}
330
67
100
AcDbEntity
  8
AM_5
100
AcDbDimension
  2
*D27
 10
146.3223704975095
 20
76.38925151499634
 30
0.0
 11
121.3223704975096
 21
79.01094392601045
 31
0.0
 70
    32
 71
     5
 42
49.99999999999994
  3
AM_JIS$0
100
AcDbAlignedDimension
 13
96.32237049750962
 23
60.38925051499632
 33
0.0
 14
146.3223704975095
 24
58.93925051499651
 34
0.0
 50
0.0000000000000114
100
AcDbRotatedDimension
1001
ACAD_DSTYLE_DIMINSPECT
1070
   396
1000
100%
1070
   395
1000

1070
   394
1070
    33
1070
   393
1070
     0
1001
ACAD
1000
DSTYLE
1002
{
1070
   144
1040
1.0
1070
    40
1040
1.0
1002
}
  0
DIMENSION
  5
1D2
102
{ACAD_XDICTIONARY
360
1D3
102
}
102
{ACAD_REACTORS
330
1D4
102
}
330
67
100
AcDbEntity
  8
AM_5
100
AcDbDimension
  2
*D28
 10
149.5223704975095
 20
76.38925151499626
 30
0.0
 11
158.4592073007331
 21
79.01211921143683
 31
0.0
 70
    32
 71
     5
 42
3.199999999999988
  3
AM_JIS$0
100
AcDbAlignedDimension
 13
146.3223704975095
 23
58.93925051499651
 33
0.0
 14
149.5223704975095
 24
46.9392505149956
 34
0.0
100
AcDbRotatedDimension
1001
ACAD_DSTYLE_DIMINSPECT
1070
   396
1000
100%
1070
   395
1000

1070
   394
1070
    33
1070
   393
1070
     0
1001
ACAD
1000
DSTYLE
1002
{
1070
   144
1040
1.0
1070
    40
1040
1.0
1002
}
  0
DIMENSION
  5
1E3
102
{ACAD_XDICTIONARY
360
1E4
102
}
102
{ACAD_REACTORS
330
1E5
102
}
330
67
100
AcDbEntity
  8
AM_5
100
AcDbDimension
  2
*D29
 10
158.5223714975095
 20
47.13925051499632
 30
0.0
 11
155.9359376492892
 21
41.13925051499626
 31
0.0
 70
    32
  1
%%c<>
 71
     5
 42
12.00000000000018
  3
AM_JIS$0
100
AcDbAlignedDimension
 13
149.3223704975095
 23
35.13925051499614
 33
0.0
 14
149.3223704975095
 24
47.13925051499632
 34
0.0
 50
90.00000000000003
100
AcDbRotatedDimension
1001
ACAD_DSTYLE_DIMINSPECT
1070
   396
1000
100%
1070
   395
1000

1070
   394
1070
    33
1070
   393
1070
     0
1001
ACAD
1000
DSTYLE
1002
{
1070
   144
1040
1.0
1070
    40
1040
1.0
1002
}
  0
DIMENSION
  5
1F2
102
{ACAD_XDICTIONARY
360
1F3
102
}
102
{ACAD_REACTORS
330
1F4
102
}
330
67
100
AcDbEntity
  8
AM_5
100
AcDbDimension
  2
*D30
 10
166.5223714975095
 20
59.13925051499651
 30
0.0
 11
163.899503801069
 21
41.13925051499644
 31
0.0
 70
    32
  1
%%c<>
 71
     5
 42
36.00000000000019
  3
AM_JIS$0
100
AcDbAlignedDimension
 13
146.1223704975095
 23
23.13925051499633
 33
0.0
 14
146.1223704975095
 24
59.13925051499651
 34
0.0
 50
90.00000000000003
100
AcDbRotatedDimension
1001
ACAD_DSTYLE_DIMINSPECT
1070
   396
1000
100%
1070
   395
1000

1070
   394
1070
    33
1070
   393
1070
     0
1001
ACAD
1000
DSTYLE
1002
{
1070
   144
1040
1.0
1070
    40
1040
1.0
1002
}
  0
DIMENSION
  5
201
102
{ACAD_XDICTIONARY
360
202
102
}
102
{ACAD_REACTORS
330
203
102
}
330
67
100
AcDbEntity
  8
AM_5
100
AcDbDimension
  2
*D31
 10
174.5223714975096
 20
60.38925051499631
 30
0.0
 11
171.8924520885102
 21
41.13925051499634
 31
0.0
 70
    32
  1
%%c<>
 71
     5
 42
38.5
  3
AM_JIS$0
100
AcDbAlignedDimension
 13
132.8223704975095
 23
21.88925051499633
 33
0.0
 14
132.8223704975095
 24
60.38925051499632
 34
0.0
 50
90.00000000000003
100
AcDbRotatedDimension
1001
ACAD_DSTYLE_DIMINSPECT
1070
   396
1000
100%
1070
   395
1000

1070
   394
1070
    33
1070
   393
1070
     0
1001
ACAD
1000
DSTYLE
1002
{
1070
   144
1040
1.0
1070
    40
1040
1.0
1002
}
  0
DIMENSION
  5
210
102
{ACAD_XDICTIONARY
360
211
102
}
102
{ACAD_REACTORS
330
212
102
}
330
67
100
AcDbEntity
  8
AM_5
100
AcDbDimension
  2
*D32
 10
146.3223704975095
 20
15.13924951499634
 30
0.0
 11
137.6194154941515
 21
18.25221123427101
 31
0.0
 70
    32
  1
(<>)
 71
     5
 42
4.999999999999033
  3
AM_JIS$0
100
AcDbAlignedDimension
 13
151.3223704975086
 23
27.50218174968564
 33
0.0
 14
146.3223704975095
 24
23.33925051499615
 34
0.0
 50
0.0000000000001132
100
AcDbRotatedDimension
1001
ACAD_DSTYLE_DIMINSPECT
1070
   396
1000
100%
1070
   395
1000

1070
   394
1070
    33
1070
   393
1070
     0
1001
ACAD
1000
DSTYLE
1002
{
1070
   144
1040
1.0
1070
    40
1040
1.0
1002
}
  0
LINE
  5
221
102
{ACAD_REACTORS
330
224
102
}
330
67
100
AcDbEntity
  8
AM_7
100
AcDbLine
 10
194.2112648984315
 20
56.43778411534793
 30
0.0
 11
206.5732824811602
 21
25.84071691464548
 31
0.0
1001
GENIUS_GENODEF_13
1002
{
1000
HIER
1070
     0
1002
}
1002
{
1000
MANEDIT
1070
     0
1002
}
1002
{
1000
NOSEL
1070
     0
1002
}
1002
{
1000
BEHIND
1070
     0
1002
}
1002
{
1000
OTHER
1070
     0
1002
}
1002
{
1000
REACTOR
1002
}
1001
GENIUS_GENOBJ-N-CEN_13
1002
{
1000
OWNER
1000
GEN
1002
}
1001
GENIUS_GENCEN_19
1002
{
1040
3.0
1002
}
  0
DIMENSION
  5
222
102
{ACAD_XDICTIONARY
360
223
102
}
102
{ACAD_REACTORS
330
224
102
}
330
67
100
AcDbEntity
  8
AM_5
100
AcDbDimension
  2
*D33
 10
206.5732824811602
 20
25.84071691464548
 30
0.0
 11
205.8600824472308
 21
13.00981301338064
 31
0.0
 70
    34
 71
     5
 42
0.3839724354388707
  3
AM_JIS$2
100
AcDb2LineAngularDimension
 13
200.3922736897939
 23
41.13925051499633
 33
0.0
 14
200.3922736897939
 24
18.88925051499633
 34
0.0
 15
194.2112648984315
 25
56.43778411534793
 35
0.0
 16
204.3801001884342
 26
10.15244059786914
 36
0.0
1001
ACAD_DSTYLE_DIMINSPECT
1070
   396
1000
100%
1070
   395
1000

1070
   394
1070
    33
1070
   393
1070
     0
1001
ACAD
1000
DSTYLE
1002
{
1070
   144
1040
1.0
1070
    40
1040
1.0
1002
}
  0
INSERT
  5
235
330
67
100
AcDbEntity
  8
Viewport2ForCustomObjects_0
100
AcDbBlockReference
  2
CustomObjectsInViewport2_0
 10
0.0
 20
0.0000000000000071
 30
0.0
  0
POINT
  5
255
330
67
100
AcDbEntity
  8
0
 60
     1
100
AcDbPoint
 10
0.0
 20
0.0
 30
0.0
1001
GENIUS_GENOENT_13
1002
{
1000
MYREF
1005
255
1002
}
1002
{
1000
GRP
1005
0
1002
}
1001
GENIUS_GENOLIS_13
1002
{
1000
ENT
1005
15E
1005
15D
1005
15C
1005
15B
1002
}
1001
GENIUS_GENOBJ-N-CRS_13
1002
{
1000
OWNER
1000
GEN
1002
}
1001
GENIUS_GENODEF_13
1002
{
1000
HIER
1070
    10
1002
}
1002
{
1000
MANEDIT
1070
     0
1002
}
1002
{
1000
NOSEL
1070
     0
1002
}
1002
{
1000
BEHIND
1070
     0
1002
}
1002
{
1000
OTHER
1070
     0
1002
}
1002
{
1000
REACTOR
1002
}
  0
POINT
  5
256
330
67
100
AcDbEntity
  8
0
 60
     1
100
AcDbPoint
 10
0.0
 20
0.0
 30
0.0
1001
GENIUS_GENOLIS_13
1002
{
1000
ENT
1005
15A
1005
159
1005
158
1005
157
1002
}
1001
GENIUS_GENODEF_13
1002
{
1000
HIER
1070
    10
1002
}
1002
{
1000
MANEDIT
1070
     0
1002
}
1002
{
1000
NOSEL
1070
     0
1002
}
1002
{
1000
BEHIND
1070
     0
1002
}
1002
{
1000
OTHER
1070
     0
1002
}
1002
{
1000
REACTOR
1002
}
1001
GENIUS_GENOBJ-N-CRS_13
1002
{
1000
OWNER
1000
GEN
1002
}
1001
GENIUS_GENOENT_13
1002
{
1000
MYREF
1005
256
1002
}
1002
{
1000
GRP
1005
0
1002
}
  0
LWPOLYLINE
  5
31A
330
67
100
AcDbEntity
  8
AM_VIEWS
100
AcDbPolyline
 90
        2
 70
     0
 43
0.0
 10
225.0
 20
-0.0000000000000009
 10
225.0
 20
95.0
1001
GENIUS_GENSCREG_15
1040
1.0
1040
1.0
1011
0.0
1021
0.0
1031
0.0
1011
225.0
1021
95.0
1031
0.0
1070
     2
1001
GENIUS_GENODEF_13
1002
{
1000
HIER
1070
     0
1002
}
1002
{
1000
MANEDIT
1070
     0
1002
}
1002
{
1000
NOSEL
1070
     0
1002
}
1002
{
1000
BEHIND
1070
     0
1002
}
1002
{
1000
OTHER
1070
     0
1002
}
1002
{
1000
REACTOR
1002
}
1001
GENIUS_GENOBJ-N-SDF_13
1002
{
1000
OWNER
1000
GEN
1002
}
  0
LWPOLYLINE
  5
31B
330
67
100
AcDbEntity
  8
AM_VIEWS
100
AcDbPolyline
 90
        2
 70
     0
 43
0.0
 10
225.0
 20
95.0
 10
-0.0000000000000044
 20
95.0
1001
GENIUS_GENSCREG_15
1040
1.0
1040
1.0
1011
0.0
1021
0.0
1031
0.0
1011
225.0
1021
95.0
1031
0.0
1070
     2
1001
GENIUS_GENODEF_13
1002
{
1000
HIER
1070
     0
1002
}
1002
{
1000
MANEDIT
1070
     0
1002
}
1002
{
1000
NOSEL
1070
     0
1002
}
1002
{
1000
BEHIND
1070
     0
1002
}
1002
{
1000
OTHER
1070
     0
1002
}
1002
{
1000
REACTOR
1002
}
1001
GENIUS_GENOBJ-N-SDF_13
1002
{
1000
OWNER
1000
GEN
1002
}
  0
LWPOLYLINE
  5
31C
330
67
100
AcDbEntity
  8
AM_VIEWS
100
AcDbPolyline
 90
        3
 70
     0
 43
0.0
 10
-0.0000000000000044
 20
95.0
 10
0.0
 20
0.0000000000000071
 10
225.0
 20
-0.0000000000000009
1001
GENIUS_GENSCREG_15
1040
1.0
1040
1.0
1011
0.0
1021
0.0
1031
0.0
1011
225.0
1021
95.0
1031
0.0
1070
     2
1001
GENIUS_GENODEF_13
1002
{
1000
HIER
1070
     0
1002
}
1002
{
1000
MANEDIT
1070
     0
1002
}
1002
{
1000
NOSEL
1070
     0
1002
}
1002
{
1000
BEHIND
1070
     0
1002
}
1002
{
1000
OTHER
1070
     0
1002
}
1002
{
1000
REACTOR
1002
}
1001
GENIUS_GENOBJ-N-SDF_13
1002
{
1000
OWNER
1000
GEN
1002
}
  0
LWPOLYLINE
  5
31D
330
67
100
AcDbEntity
  8
AM_VIEWS
100
AcDbPolyline
 90
        2
 70
     0
 43
0.0
 10
0.0
 20
0.0000000000000071
 10
62.5
 20
0.0000000000000071
1001
GENIUS_GENSCREG_15
1040
1.0
1040
1.0
1011
0.0
1021
-45.0
1031
0.0
1011
62.5
1021
0.0
1031
0.0
1070
     2
1001
GENIUS_GENOBJ-N-SDF_13
1002
{
1000
OWNER
1000
GEN
1002
}
1001
GENIUS_GENODEF_13
1002
{
1000
HIER
1070
     0
1002
}
1002
{
1000
MANEDIT
1070
     0
1002
}
1002
{
1000
NOSEL
1070
     0
1002
}
1002
{
1000
BEHIND
1070
     0
1002
}
1002
{
1000
OTHER
1070
     0
1002
}
1002
{
1000
REACTOR
1002
}
  0
LWPOLYLINE
  5
31E
330
67
100
AcDbEntity
  8
AM_VIEWS
100
AcDbPolyline
 90
        2
 70
     0
 43
0.0
 10
73.7313392340485
 20
0.0000000000000002
 10
161.7661319176011
 20
0.0000000000000002
1001
GENIUS_GENSCREG_15
1040
1.0
1040
1.0
1011
73.7313392340485
1021
-48.8577448430018
1031
0.0
1011
161.7661319176011
1021
-0.0000000000000069
1031
0.0
1070
     2
1001
GENIUS_GENODEF_13
1002
{
1000
HIER
1070
     0
1002
}
1002
{
1000
MANEDIT
1070
     0
1002
}
1002
{
1000
NOSEL
1070
     0
1002
}
1002
{
1000
BEHIND
1070
     0
1002
}
1002
{
1000
OTHER
1070
     0
1002
}
1002
{
1000
REACTOR
1002
}
1001
GENIUS_GENOBJ-N-SDF_13
1002
{
1000
OWNER
1000
GEN
1002
}
  0
ENDSEC
  0
SECTION
  2
OBJECTS
  0
DICTIONARY
  5
C
330
0
100
AcDbDictionary
281
     1
  3
ACAD_2007HEADERVARS_RT
350
630
  3
ACAD_COLOR
350
5E
  3
ACAD_GROUP
350
D
  3
ACAD_LAYOUT
350
5D
  3
ACAD_MATERIAL
350
10
  3
ACAD_MLEADERSTYLE
350
61
  3
ACAD_MLINESTYLE
350
5A
  3
ACAD_PLOTSETTINGS
350
5C
  3
ACAD_PLOTSTYLENAME
350
E
  3
ACAD_SCALELIST
350
3D
  3
ACAD_TABLESTYLE
350
5F
  3
ACAD_VISUALSTYLE
350
29
  3
ACDB_RECOMPOSE_DATA
350
62E
  3
AcDbVariableDictionary
350
557
  3
AcmDictionary
350
5B5
  3
AMG
350
56D
  3
AMGSNAPSETTINGS
350
620
  3
DWGPROPS
350
62F
  0
DICTIONARY
  5
61C
330
4F
100
AcDbDictionary
280
     1
281
     1
  3
ADSK_XREC_LAYER_RECONCILED
360
61D
  0
DICTIONARY
  5
C9
330
C8
100
AcDbDictionary
280
     1
281
     1
  3
ADSK_XREC_LAYER_RECONCILED
360
CA
  0
DICTIONARY
  5
D2
330
D1
100
AcDbDictionary
280
     1
281
     1
  3
ADSK_XREC_LAYER_RECONCILED
360
D3
  0
DICTIONARY
  5
F1
330
F0
100
AcDbDictionary
280
     1
281
     1
  3
ADSK_XREC_LAYER_RECONCILED
360
F2
  0
DICTIONARY
  5
155
330
154
100
AcDbDictionary
280
     1
281
     1
  3
ADSK_XREC_LAYER_RECONCILED
360
156
  0
DICTIONARY
  5
61E
330
236
100
AcDbDictionary
280
     1
281
     1
  3
ADSK_XREC_LAYER_RECONCILED
360
61F
  0
DICTIONARY
  5
4D1
330
67
100
AcDbDictionary
280
     1
281
     1
  3
ACAD_SORTENTS
360
4D2
  0
DICTIONARY
  5
163
330
162
100
AcDbDictionary
280
     1
281
     1
  3
ACAD_DIMASSOC
360
164
  0
DICTIONARY
  5
172
330
171
100
AcDbDictionary
280
     1
281
     1
  3
ACAD_DIMASSOC
360
173
  0
DICTIONARY
  5
183
330
182
100
AcDbDictionary
280
     1
281
     1
  3
ACAD_DIMASSOC
360
184
  0
DICTIONARY
  5
194
330
193
100
AcDbDictionary
280
     1
281
     1
  3
ACAD_DIMASSOC
360
195
  0
DICTIONARY
  5
1A4
330
1A3
100
AcDbDictionary
280
     1
281
     1
  3
ACAD_DIMASSOC
360
1A5
  0
DICTIONARY
  5
1B5
330
1B4
100
AcDbDictionary
280
     1
281
     1
  3
ACAD_DIMASSOC
360
1B6
  0
DICTIONARY
  5
1C4
330
1C3
100
AcDbDictionary
280
     1
281
     1
  3
ACAD_DIMASSOC
360
1C5
  0
DICTIONARY
  5
1D3
330
1D2
100
AcDbDictionary
280
     1
281
     1
  3
ACAD_DIMASSOC
360
1D4
  0
DICTIONARY
  5
1E4
330
1E3
100
AcDbDictionary
280
     1
281
     1
  3
ACAD_DIMASSOC
360
1E5
  0
DICTIONARY
  5
1F3
330
1F2
100
AcDbDictionary
280
     1
281
     1
  3
ACAD_DIMASSOC
360
1F4
  0
DICTIONARY
  5
202
330
201
100
AcDbDictionary
280
     1
281
     1
  3
ACAD_DIMASSOC
360
203
  0
DICTIONARY
  5
211
330
210
100
AcDbDictionary
280
     1
281
     1
  3
ACAD_DIMASSOC
360
212
  0
DICTIONARY
  5
223
330
222
100
AcDbDictionary
280
     1
281
     1
  3
ACAD_DIMASSOC
360
224
  0
DICTIONARY
  5
630
102
{ACAD_REACTORS
330
C
102
}
330
C
100
AcDbDictionary
281
     1
  3
DIMARCSYM
350
631
  3
DIMLTEX1
350
633
  3
DIMLTEX2
350
634
  3
DIMLTYPE
350
632
  0
DICTIONARY
  5
5E
102
{ACAD_REACTORS
330
C
102
}
330
C
100
AcDbDictionary
281
     1
  0
DICTIONARY
  5
D
102
{ACAD_REACTORS
330
C
102
}
330
C
100
AcDbDictionary
281
     1
  0
DICTIONARY
  5
5D
102
{ACAD_REACTORS
330
C
102
}
330
C
100
AcDbDictionary
281
     1
  3
Model
350
6A
  3
レイアウト1
350
66
  3
レイアウト2
350
6E
  0
DICTIONARY
  5
10
102
{ACAD_REACTORS
330
C
102
}
330
C
100
AcDbDictionary
281
     1
  3
ByBlock
350
19
  3
ByLayer
350
11
  3
Global
350
21
  0
DICTIONARY
  5
61
102
{ACAD_REACTORS
330
C
102
}
330
C
100
AcDbDictionary
281
     1
  3
Standard
350
62
  0
DICTIONARY
  5
5A
102
{ACAD_REACTORS
330
C
102
}
330
C
100
AcDbDictionary
281
     1
  3
Standard
350
5B
  0
DICTIONARY
  5
5C
102
{ACAD_REACTORS
330
C
102
}
330
C
100
AcDbDictionary
281
     1
  0
ACDBDICTIONARYWDFLT
  5
E
102
{ACAD_REACTORS
330
C
102
}
330
C
100
AcDbDictionary
281
     1
  3
Normal
350
F
100
AcDbDictionaryWithDefault
340
F
  0
DICTIONARY
  5
3D
102
{ACAD_REACTORS
330
C
102
}
330
C
100
AcDbDictionary
281
     1
  3
*A1
350
B5
  3
*A10
350
C6
  3
*A11
350
B6
  3
*A12
350
B7
  3
*A13
350
B8
  3
*A14
350
B9
  3
*A15
350
BA
  3
*A16
350
BB
  3
*A17
350
BC
  3
*A18
350
BD
  3
*A2
350
BE
  3
*A3
350
BF
  3
*A4
350
C0
  3
*A5
350
C1
  3
*A6
350
C2
  3
*A7
350
C3
  3
*A8
350
C4
  3
*A9
350
C5
  3
A0
350
3E
  3
A1
350
3F
  3
A2
350
40
  3
A3
350
41
  3
A4
350
42
  3
A5
350
43
  3
A6
350
44
  3
A7
350
45
  3
A8
350
46
  3
A9
350
47
  3
B0
350
48
  3
B1
350
49
  3
B2
350
4A
  3
B3
350
4B
  3
B4
350
4C
  3
B5
350
4D
  3
B6
350
4E
  0
DICTIONARY
  5
5F
102
{ACAD_REACTORS
330
C
102
}
330
C
100
AcDbDictionary
281
     1
  3
Standard
350
60
  0
DICTIONARY
  5
29
102
{ACAD_REACTORS
330
C
102
}
330
C
100
AcDbDictionary
281
     1
  3
2dWireframe
350
2F
  3
3D Hidden
350
31
  3
3dWireframe
350
30
  3
Basic
350
2E
  3
Brighten
350
35
  3
ColorChange
350
39
  3
Conceptual
350
32
  3
Dim
350
34
  3
EdgeColorOff
350
3C
  3
Facepattern
350
38
  3
Flat
350
2A
  3
FlatWithEdges
350
2B
  3
Gouraud
350
2C
  3
GouraudWithEdges
350
2D
  3
JitterOff
350
3A
  3
Linepattern
350
37
  3
OverhangOff
350
3B
  3
Realistic
350
33
  3
Thicken
350
36
  0
XRECORD
  5
62E
102
{ACAD_REACTORS
330
C
102
}
330
C
100
AcDbXrecord
280
     1
 90
        1
330
60
  0
DICTIONARY
  5
557
102
{ACAD_REACTORS
330
C
102
}
330
C
100
AcDbDictionary
281
     1
  3
ANNOALLVISIBLE
350
55B
  3
CANNOSCALE
350
55C
  3
CMLEADERSTYLE
350
559
  3
CTABLESTYLE
350
558
  3
DIMASSOC
350
62B
  3
HIDETEXT
350
629
  3
INDEXCTL
350
628
  3
LAYEREVAL
350
55E
  3
LAYERNOTIFY
350
55F
  3
LIGHTINGUNITS
350
55D
  3
MSLTSCALE
350
55A
  3
SORTENTS
350
627
  3
XCLIPFRAME
350
62A
  0
DICTIONARY
  5
5B5
102
{ACAD_REACTORS
330
C
102
}
330
C
100
AcDbDictionary
281
     1
  3
AcmStdDictionary
350
5C2
  0
DICTIONARY
  5
56D
102
{ACAD_REACTORS
330
C
102
}
330
C
100
AcDbDictionary
281
     1
  0
DICTIONARY
  5
620
102
{ACAD_REACTORS
330
C
102
}
330
C
100
AcDbDictionary
281
     1
  0
XRECORD
  5
62F
102
{ACAD_REACTORS
330
C
102
}
330
C
100
AcDbXrecord
280
     1
  1
DWGPROPS COOKIE
  2

  3

  4

  6

  7

  8
SSEGAWA
  9

300
AmdtFileType=84
301
=
302
=
303
=
304
=
305
=
306
=
307
=
308
=
309
=
 40
0.0000875347222222
 41
2456512.674199757
 42
2456561.427725151
  1

 90
        1
  0
XRECORD
  5
61D
102
{ACAD_REACTORS
330
61C
102
}
330
61C
100
AcDbXrecord
280
     1
290
     1
  0
XRECORD
  5
CA
102
{ACAD_REACTORS
330
C9
102
}
330
C9
100
AcDbXrecord
280
     1
290
     1
  0
XRECORD
  5
D3
102
{ACAD_REACTORS
330
D2
102
}
330
D2
100
AcDbXrecord
280
     1
290
     1
  0
XRECORD
  5
F2
102
{ACAD_REACTORS
330
F1
102
}
330
F1
100
AcDbXrecord
280
     1
290
     1
  0
XRECORD
  5
156
102
{ACAD_REACTORS
330
155
102
}
330
155
100
AcDbXrecord
280
     1
290
     1
  0
XRECORD
  5
61F
102
{ACAD_REACTORS
330
61E
102
}
330
61E
100
AcDbXrecord
280
     1
290
     1
  0
SORTENTSTABLE
  5
4D2
102
{ACAD_REACTORS
330
4D1
102
}
330
4D1
100
AcDbSortentsTable
330
67
  0
DIMASSOC
  5
164
102
{ACAD_REACTORS
330
163
102
}
330
163
100
AcDbDimAssoc
330
162
 90
        3
 70
     0
 71
     0
  1
AcDbOsnapPointRef
 72
     3
331
FA
 73
     0
 91
        0
 40
0.0
 10
0.0
 20
0.0
 30
0.0
 75
     0
  1
AcDbOsnapPointRef
 72
     3
331
FB
 73
     0
 91
        0
 40
0.0
 10
0.0
 20
0.0
 30
0.0
 75
     0
  0
DIMASSOC
  5
173
102
{ACAD_REACTORS
330
172
102
}
330
172
100
AcDbDimAssoc
330
171
 90
       15
 70
     0
 71
     0
  1
AcDbOsnapPointRef
 72
    13
331
15A
 73
     2
 91
        0
 40
0.0
 10
0.0
 20
0.0
 30
2.000000000000000E+50
 75
     0
  1
AcDbOsnapPointRef
 72
     1
331
15A
 73
     2
 91
        0
 40
0.0
 10
0.0
 20
0.0
 30
2.000000000000000E+50
 75
     0
  1
AcDbOsnapPointRef
 72
    13
331
15F
 73
     2
 91
        0
 40
0.0
 10
0.0
 20
0.0
 30
2.000000000000000E+50
 75
     0
  1
AcDbOsnapPointRef
 72
     1
331
15F
 73
     2
 91
        0
 40
0.0
 10
0.0
 20
0.0
 30
2.000000000000000E+50
 75
     0
  0
DIMASSOC
  5
184
102
{ACAD_REACTORS
330
183
102
}
330
183
100
AcDbDimAssoc
330
182
 90
        3
 70
     0
 71
     0
  1
AcDbOsnapPointRef
 72
    11
331
12E
 73
     0
 91
        0
 40
3.459416357517674
 10
0.0
 20
0.0
 30
0.0
332
13B
 74
     0
 92
        0
 75
     0
  1
AcDbOsnapPointRef
 72
     8
331
13C
 73
     0
 91
        0
 40
0.9999999999999749
 10
0.0
 20
0.0
 30
0.0
 75
     1
  1
AcDbOsnapPointRef
 72
    11
331
12E
 73
     0
 91
        0
 40
3.459416357517674
 10
0.0
 20
0.0
 30
0.0
332
13B
 74
     0
 92
        0
 75
     0
  0
DIMASSOC
  5
195
102
{ACAD_REACTORS
330
194
102
}
330
194
100
AcDbDimAssoc
330
193
 90
        3
 70
     0
 71
     0
  1
AcDbOsnapPointRef
 72
     1
331
130
 73
     0
 91
        0
 40
0.0
 10
0.0
 20
0.0
 30
2.000000000000000E+50
 75
     0
  1
AcDbOsnapPointRef
 72
     8
331
131
 73
     0
 91
        0
 40
1.0
 10
0.0
 20
0.0
 30
0.0
 75
     1
  1
AcDbOsnapPointRef
 72
     1
331
130
 73
     0
 91
        0
 40
0.0
 10
0.0
 20
0.0
 30
2.000000000000000E+50
 75
     0
  0
DIMASSOC
  5
1A5
102
{ACAD_REACTORS
330
1A4
102
}
330
1A4
100
AcDbDimAssoc
330
1A3
 90
        3
 70
     0
 71
     0
  1
AcDbOsnapPointRef
 72
     1
331
131
 73
     0
 91
        0
 40
0.0
 10
0.0
 20
0.0
 30
2.000000000000000E+50
 75
     0
  1
AcDbOsnapPointRef
 72
    13
331
109
 73
     0
 91
        0
 40
0.0
 10
0.0
 20
0.0
 30
2.000000000000000E+50
 75
     0
  0
DIMASSOC
  5
1B6
102
{ACAD_REACTORS
330
1B5
102
}
330
1B5
100
AcDbDimAssoc
330
1B4
 90
        3
 70
     0
 71
     0
  1
AcDbOsnapPointRef
 72
    13
331
109
 73
     0
 91
        0
 40
0.0
 10
0.0
 20
0.0
 30
2.000000000000000E+50
 75
     0
  1
AcDbOsnapPointRef
 72
     2
331
12E
 73
     0
 91
        0
 40
0.0
 10
0.0
 20
0.0
 30
0.0
 75
     0
  0
DIMASSOC
  5
1C5
102
{ACAD_REACTORS
330
1C4
102
}
330
1C4
100
AcDbDimAssoc
330
1C3
 90
        3
 70
     0
 71
     0
  1
AcDbOsnapPointRef
 72
    13
331
109
 73
     0
 91
        0
 40
0.0
 10
0.0
 20
0.0
 30
2.000000000000000E+50
 75
     0
  1
AcDbOsnapPointRef
 72
    13
331
127
 73
     0
 91
        0
 40
0.0
 10
0.0
 20
0.0
 30
2.000000000000000E+50
 75
     0
  0
DIMASSOC
  5
1D4
102
{ACAD_REACTORS
330
1D3
102
}
330
1D3
100
AcDbDimAssoc
330
1D2
 90
        3
 70
     0
 71
     0
  1
AcDbOsnapPointRef
 72
    13
331
127
 73
     0
 91
        0
 40
0.0
 10
0.0
 20
0.0
 30
2.000000000000000E+50
 75
     0
  1
AcDbOsnapPointRef
 72
    13
331
123
 73
     0
 91
        0
 40
0.0
 10
0.0
 20
0.0
 30
2.000000000000000E+50
 75
     0
  0
DIMASSOC
  5
1E5
102
{ACAD_REACTORS
330
1E4
102
}
330
1E4
100
AcDbDimAssoc
330
1E3
 90
        3
 70
     0
 71
     0
  1
AcDbOsnapPointRef
 72
    13
331
126
 73
     0
 91
        0
 40
0.0
 10
0.0
 20
0.0
 30
2.000000000000000E+50
 75
     0
  1
AcDbOsnapPointRef
 72
     1
331
135
 73
     0
 91
        0
 40
0.0
 10
0.0
 20
0.0
 30
2.000000000000000E+50
 75
     0
  0
DIMASSOC
  5
1F4
102
{ACAD_REACTORS
330
1F3
102
}
330
1F3
100
AcDbDimAssoc
330
1F2
 90
        3
 70
     0
 71
     0
  1
AcDbOsnapPointRef
 72
     1
331
138
 73
     0
 91
        0
 40
0.0
 10
0.0
 20
0.0
 30
2.000000000000000E+50
 75
     0
  1
AcDbOsnapPointRef
 72
     1
331
127
 73
     0
 91
        0
 40
0.0
 10
0.0
 20
0.0
 30
2.000000000000000E+50
 75
     0
  0
DIMASSOC
  5
203
102
{ACAD_REACTORS
330
202
102
}
330
202
100
AcDbDimAssoc
330
201
 90
        3
 70
     0
 71
     0
  1
AcDbOsnapPointRef
 72
     1
331
10A
 73
     0
 91
        0
 40
0.0
 10
0.0
 20
0.0
 30
2.000000000000000E+50
 75
     0
  1
AcDbOsnapPointRef
 72
     1
331
109
 73
     0
 91
        0
 40
0.0
 10
0.0
 20
0.0
 30
2.000000000000000E+50
 75
     0
  0
DIMASSOC
  5
212
102
{ACAD_REACTORS
330
211
102
}
330
211
100
AcDbDimAssoc
330
210
 90
        3
 70
     0
 71
     0
  1
AcDbOsnapPointRef
 72
    13
331
120
 73
     0
 91
        0
 40
0.0
 10
0.0
 20
0.0
 30
2.000000000000000E+50
 75
     0
  1
AcDbOsnapPointRef
 72
     1
331
128
 73
     0
 91
        0
 40
0.0
 10
0.0
 20
0.0
 30
2.000000000000000E+50
 75
     0
  0
DIMASSOC
  5
224
102
{ACAD_REACTORS
330
223
102
}
330
223
100
AcDbDimAssoc
330
222
 90
       15
 70
     0
 71
     0
  1
AcDbOsnapPointRef
 72
    13
331
15E
 73
     2
 91
        0
 40
0.0
 10
0.0
 20
0.0
 30
2.000000000000000E+50
 75
     0
  1
AcDbOsnapPointRef
 72
     1
331
15E
 73
     2
 91
        0
 40
0.0
 10
0.0
 20
0.0
 30
2.000000000000000E+50
 75
     0
  1
AcDbOsnapPointRef
 72
    13
331
221
 73
     2
 91
        0
 40
0.0
 10
0.0
 20
0.0
 30
2.000000000000000E+50
 75
     0
  1
AcDbOsnapPointRef
 72
     1
331
221
 73
     2
 91
        0
 40
0.0
 10
0.0
 20
0.0
 30
2.000000000000000E+50
 75
     0
  0
XRECORD
  5
631
102
{ACAD_REACTORS
330
630
102
}
330
630
100
AcDbXrecord
280
     1
 70
     1
  0
XRECORD
  5
633
102
{ACAD_REACTORS
330
630
102
}
330
630
100
AcDbXrecord
280
     1
340
56
  0
XRECORD
  5
634
102
{ACAD_REACTORS
330
630
102
}
330
630
100
AcDbXrecord
280
     1
340
56
  0
XRECORD
  5
632
102
{ACAD_REACTORS
330
630
102
}
330
630
100
AcDbXrecord
280
     1
340
56
  0
LAYOUT
  5
6A
102
{ACAD_XDICTIONARY
360
661
102
}
102
{ACAD_REACTORS
330
5D
102
}
330
5D
100
AcDbPlotSettings
  1

  2
KONICA MINOLTA 350_250_200 PCL.pc3
  4
A4
  6

 40
5.027082920074462
 41
5.027085781097412
 42
5.027069091796875
 43
5.027069091796875
 44
209.9733276367187
 45
296.9259948730469
 46
0.0
 47
0.0
 48
0.0
 49
0.0
140
0.0
141
0.0
142
1.0
143
0.7874087069227401
 70
 11952
 72
     1
 73
     1
 74
     0
  7

 75
     0
147
1.269988496708506
148
0.4403300353619955
149
11.94424782539027
100
AcDbLayout
  1
Model
 70
     1
 71
     0
 10
0.0
 20
0.0
 11
12.0
 21
9.0
 12
0.0
 22
0.0
 32
0.0
 14
0.0
 24
0.0
 34
0.0
 15
0.0
 25
0.0
 35
0.0
146
0.0
 13
0.0
 23
0.0
 33
0.0
 16
1.0
 26
0.0
 36
0.0
 17
0.0
 27
1.0
 37
0.0
 76
     0
330
67
331
52
1001
ACAD_PSEXT
1000
KONICA MINOLTA 350_250_200 PCL.pc3
1000
KONICA MINOLTA 350/250/200 PCL
1000
IP_192.168.3.100
1000

1070
     0
  0
LAYOUT
  5
66
102
{ACAD_XDICTIONARY
360
65F
102
}
102
{ACAD_REACTORS
330
5D
102
}
330
5D
100
AcDbPlotSettings
  1

  2
KONICA MINOLTA 350/250/200 PCL
  4

  6

 40
0.0
 41
0.0
 42
0.0
 43
0.0
 44
0.0
 45
0.0
 46
0.0
 47
0.0
 48
0.0
 49
0.0
140
0.0
141
0.0
142
1.0
143
1.0
 70
   688
 72
     0
 73
     0
 74
     5
  7

 75
    16
147
1.0
148
0.0
149
0.0
100
AcDbLayout
  1
レイアウト1
 70
     1
 71
     1
 10
0.0
 20
0.0
 11
12.0
 21
9.0
 12
0.0
 22
0.0
 32
0.0
 14
1.000000000000000E+20
 24
1.000000000000000E+20
 34
1.000000000000000E+20
 15
-1.000000000000000E+20
 25
-1.000000000000000E+20
 35
-1.000000000000000E+20
146
0.0
 13
0.0
 23
0.0
 33
0.0
 16
1.0
 26
0.0
 36
0.0
 17
0.0
 27
1.0
 37
0.0
 76
     0
330
63
  0
LAYOUT
  5
6E
102
{ACAD_XDICTIONARY
360
663
102
}
102
{ACAD_REACTORS
330
5D
102
}
330
5D
100
AcDbPlotSettings
  1

  2
KONICA MINOLTA 350/250/200 PCL
  4

  6

 40
0.0
 41
0.0
 42
0.0
 43
0.0
 44
0.0
 45
0.0
 46
0.0
 47
0.0
 48
0.0
 49
0.0
140
0.0
141
0.0
142
1.0
143
1.0
 70
   688
 72
     0
 73
     0
 74
     5
  7

 75
    16
147
1.0
148
0.0
149
0.0
100
AcDbLayout
  1
レイアウト2
 70
     1
 71
     2
 10
0.0
 20
0.0
 11
12.0
 21
9.0
 12
0.0
 22
0.0
 32
0.0
 14
0.0
 24
0.0
 34
0.0
 15
0.0
 25
0.0
 35
0.0
146
0.0
 13
0.0
 23
0.0
 33
0.0
 16
1.0
 26
0.0
 36
0.0
 17
0.0
 27
1.0
 37
0.0
 76
     0
330
6B
  0
MATERIAL
  5
19
102
{ACAD_XDICTIONARY
360
1A
102
}
102
{ACAD_REACTORS
330
10
102
}
330
10
100
AcDbMaterial
  1
ByBlock
 72
     0
 43
0.0208333333333333
 43
0.0
 43
0.0
 43
0.0
 43
0.0
 43
0.0208333333333333
 43
0.0
 43
0.0
 43
0.0
 43
0.0
 43
1.0
 43
0.0
 43
0.0
 43
0.0
 43
0.0
 43
1.0
 77
     0
 47
0.0208333333333333
 47
0.0
 47
0.0
 47
0.0
 47
0.0
 47
0.0208333333333333
 47
0.0
 47
0.0
 47
0.0
 47
0.0
 47
1.0
 47
0.0
 47
0.0
 47
0.0
 47
0.0
 47
1.0
171
     0
 49
0.0208333333333333
 49
0.0
 49
0.0
 49
0.0
 49
0.0
 49
0.0208333333333333
 49
0.0
 49
0.0
 49
0.0
 49
0.0
 49
1.0
 49
0.0
 49
0.0
 49
0.0
 49
0.0
 49
1.0
175
     0
142
0.0208333333333333
142
0.0
142
0.0
142
0.0
142
0.0
142
0.0208333333333333
142
0.0
142
0.0
142
0.0
142
0.0
142
1.0
142
0.0
142
0.0
142
0.0
142
0.0
142
1.0
179
     0
144
0.0208333333333333
144
0.0
144
0.0
144
0.0
144
0.0
144
0.0208333333333333
144
0.0
144
0.0
144
0.0
144
0.0
144
1.0
144
0.0
144
0.0
144
0.0
144
0.0
144
1.0
147
0.0208333333333333
147
0.0
147
0.0
147
0.0
147
0.0
147
0.0208333333333333
147
0.0
147
0.0
147
0.0
147
0.0
147
1.0
147
0.0
147
0.0
147
0.0
147
0.0
147
1.0
  0
MATERIAL
  5
11
102
{ACAD_XDICTIONARY
360
12
102
}
102
{ACAD_REACTORS
330
10
102
}
330
10
100
AcDbMaterial
  1
ByLayer
 72
     0
 43
0.0208333333333333
 43
0.0
 43
0.0
 43
0.0
 43
0.0
 43
0.0208333333333333
 43
0.0
 43
0.0
 43
0.0
 43
0.0
 43
1.0
 43
0.0
 43
0.0
 43
0.0
 43
0.0
 43
1.0
 77
     0
 47
0.0208333333333333
 47
0.0
 47
0.0
 47
0.0
 47
0.0
 47
0.0208333333333333
 47
0.0
 47
0.0
 47
0.0
 47
0.0
 47
1.0
 47
0.0
 47
0.0
 47
0.0
 47
0.0
 47
1.0
171
     0
 49
0.0208333333333333
 49
0.0
 49
0.0
 49
0.0
 49
0.0
 49
0.0208333333333333
 49
0.0
 49
0.0
 49
0.0
 49
0.0
 49
1.0
 49
0.0
 49
0.0
 49
0.0
 49
0.0
 49
1.0
175
     0
142
0.0208333333333333
142
0.0
142
0.0
142
0.0
142
0.0
142
0.0208333333333333
142
0.0
142
0.0
142
0.0
142
0.0
142
1.0
142
0.0
142
0.0
142
0.0
142
0.0
142
1.0
179
     0
144
0.0208333333333333
144
0.0
144
0.0
144
0.0
144
0.0
144
0.0208333333333333
144
0.0
144
0.0
144
0.0
144
0.0
144
1.0
144
0.0
144
0.0
144
0.0
144
0.0
144
1.0
147
0.0208333333333333
147
0.0
147
0.0
147
0.0
147
0.0
147
0.0208333333333333
147
0.0
147
0.0
147
0.0
147
0.0
147
1.0
147
0.0
147
0.0
147
0.0
147
0.0
147
1.0
  0
MATERIAL
  5
21
102
{ACAD_XDICTIONARY
360
22
102
}
102
{ACAD_REACTORS
330
10
102
}
330
10
100
AcDbMaterial
  1
Global
 72
     0
 43
0.0208333333333333
 43
0.0
 43
0.0
 43
0.0
 43
0.0
 43
0.0208333333333333
 43
0.0
 43
0.0
 43
0.0
 43
0.0
 43
1.0
 43
0.0
 43
0.0
 43
0.0
 43
0.0
 43
1.0
 77
     0
 47
0.0208333333333333
 47
0.0
 47
0.0
 47
0.0
 47
0.0
 47
0.0208333333333333
 47
0.0
 47
0.0
 47
0.0
 47
0.0
 47
1.0
 47
0.0
 47
0.0
 47
0.0
 47
0.0
 47
1.0
171
     0
 49
0.0208333333333333
 49
0.0
 49
0.0
 49
0.0
 49
0.0
 49
0.0208333333333333
 49
0.0
 49
0.0
 49
0.0
 49
0.0
 49
1.0
 49
0.0
 49
0.0
 49
0.0
 49
0.0
 49
1.0
175
     0
142
0.0208333333333333
142
0.0
142
0.0
142
0.0
142
0.0
142
0.0208333333333333
142
0.0
142
0.0
142
0.0
142
0.0
142
1.0
142
0.0
142
0.0
142
0.0
142
0.0
142
1.0
179
     0
144
0.0208333333333333
144
0.0
144
0.0
144
0.0
144
0.0
144
0.0208333333333333
144
0.0
144
0.0
144
0.0
144
0.0
144
1.0
144
0.0
144
0.0
144
0.0
144
0.0
144
1.0
147
0.0208333333333333
147
0.0
147
0.0
147
0.0
147
0.0
147
0.0208333333333333
147
0.0
147
0.0
147
0.0
147
0.0
147
1.0
147
0.0
147
0.0
147
0.0
147
0.0
147
1.0
  0
MLEADERSTYLE
  5
62
102
{ACAD_REACTORS
330
61
102
}
330
61
100
AcDbMLeaderStyle
170
     2
171
     1
172
     0
 90
        2
 40
0.0
 41
0.0
173
     1
 91
-1056964608
340
56
 92
       -2
290
     1
 42
0.09
291
     1
 43
0.36
  3
Standard
 44
0.18
300

342
50
174
     1
178
     6
175
     1
176
     0
 93
-1056964608
 45
0.18
292
     0
297
     0
 46
0.18
 94
-1056964608
 47
1.0
 49
1.0
140
1.0
293
     1
141
0.0
294
     1
177
     0
142
1.0
295
     0
296
     0
143
0.125
1001
ACAD_MLEADERVER
1070
     2
  0
MLINESTYLE
  5
5B
102
{ACAD_REACTORS
330
5A
102
}
330
5A
100
AcDbMlineStyle
  2
STANDARD
 70
     0
  3

 62
   256
 51
90.0
 52
90.0
 71
     2
 49
0.5
 62
   256
  6
BYLAYER
 49
-0.5
 62
   256
  6
BYLAYER
  0
ACDBPLACEHOLDER
  5
F
102
{ACAD_REACTORS
330
E
102
}
330
E
  0
SCALE
  5
B5
102
{ACAD_REACTORS
330
3D
102
}
330
3D
100
AcDbScale
 70
     0
300
1.5:1
140
1.5
141
1.0
290
     0
  0
SCALE
  5
C6
102
{ACAD_REACTORS
330
3D
102
}
330
3D
100
AcDbScale
 70
     0
300
1'-0" = 1'-0"
140
12.0
141
12.0
290
     0
  0
SCALE
  5
B6
102
{ACAD_REACTORS
330
3D
102
}
330
3D
100
AcDbScale
 70
     0
300
1.25:1
140
1.25
141
1.0
290
     0
  0
SCALE
  5
B7
102
{ACAD_REACTORS
330
3D
102
}
330
3D
100
AcDbScale
 70
     0
300
1/128" = 1'-0"
140
0.0078125
141
12.0
290
     0
  0
SCALE
  5
B8
102
{ACAD_REACTORS
330
3D
102
}
330
3D
100
AcDbScale
 70
     0
300
1/64" = 1'-0"
140
0.015625
141
12.0
290
     0
  0
SCALE
  5
B9
102
{ACAD_REACTORS
330
3D
102
}
330
3D
100
AcDbScale
 70
     0
300
1/32" = 1'-0"
140
0.03125
141
12.0
290
     0
  0
SCALE
  5
BA
102
{ACAD_REACTORS
330
3D
102
}
330
3D
100
AcDbScale
 70
     0
300
1/16" = 1'-0"
140
0.0625
141
12.0
290
     0
  0
SCALE
  5
BB
102
{ACAD_REACTORS
330
3D
102
}
330
3D
100
AcDbScale
 70
     0
300
3/32" = 1'-0"
140
0.09375
141
12.0
290
     0
  0
SCALE
  5
BC
102
{ACAD_REACTORS
330
3D
102
}
330
3D
100
AcDbScale
 70
     0
300
1/8" = 1'-0"
140
0.125
141
12.0
290
     0
  0
SCALE
  5
BD
102
{ACAD_REACTORS
330
3D
102
}
330
3D
100
AcDbScale
 70
     0
300
3/16" = 1'-0"
140
0.1875
141
12.0
290
     0
  0
SCALE
  5
BE
102
{ACAD_REACTORS
330
3D
102
}
330
3D
100
AcDbScale
 70
     0
300
1/4" = 1'-0"
140
0.25
141
12.0
290
     0
  0
SCALE
  5
BF
102
{ACAD_REACTORS
330
3D
102
}
330
3D
100
AcDbScale
 70
     0
300
3/8" = 1'-0"
140
0.375
141
12.0
290
     0
  0
SCALE
  5
C0
102
{ACAD_REACTORS
330
3D
102
}
330
3D
100
AcDbScale
 70
     0
300
1/2" = 1'-0"
140
0.5
141
12.0
290
     0
  0
SCALE
  5
C1
102
{ACAD_REACTORS
330
3D
102
}
330
3D
100
AcDbScale
 70
     0
300
3/4" = 1'-0"
140
0.75
141
12.0
290
     0
  0
SCALE
  5
C2
102
{ACAD_REACTORS
330
3D
102
}
330
3D
100
AcDbScale
 70
     0
300
1" = 1'-0"
140
1.0
141
12.0
290
     0
  0
SCALE
  5
C3
102
{ACAD_REACTORS
330
3D
102
}
330
3D
100
AcDbScale
 70
     0
300
1-1/2" = 1'-0"
140
1.5
141
12.0
290
     0
  0
SCALE
  5
C4
102
{ACAD_REACTORS
330
3D
102
}
330
3D
100
AcDbScale
 70
     0
300
3" = 1'-0"
140
3.0
141
12.0
290
     0
  0
SCALE
  5
C5
102
{ACAD_REACTORS
330
3D
102
}
330
3D
100
AcDbScale
 70
     0
300
6" = 1'-0"
140
6.0
141
12.0
290
     0
  0
SCALE
  5
3E
102
{ACAD_REACTORS
330
3D
102
}
330
3D
100
AcDbScale
 70
     0
300
1:1
140
1.0
141
1.0
290
     1
  0
SCALE
  5
3F
102
{ACAD_REACTORS
330
3D
102
}
330
3D
100
AcDbScale
 70
     0
300
1:2
140
1.0
141
2.0
290
     0
  0
SCALE
  5
40
102
{ACAD_REACTORS
330
3D
102
}
330
3D
100
AcDbScale
 70
     0
300
1:4
140
1.0
141
4.0
290
     0
  0
SCALE
  5
41
102
{ACAD_REACTORS
330
3D
102
}
330
3D
100
AcDbScale
 70
     0
300
1:5
140
1.0
141
5.0
290
     0
  0
SCALE
  5
42
102
{ACAD_REACTORS
330
3D
102
}
330
3D
100
AcDbScale
 70
     0
300
1:8
140
1.0
141
8.0
290
     0
  0
SCALE
  5
43
102
{ACAD_REACTORS
330
3D
102
}
330
3D
100
AcDbScale
 70
     0
300
1:10
140
1.0
141
10.0
290
     0
  0
SCALE
  5
44
102
{ACAD_REACTORS
330
3D
102
}
330
3D
100
AcDbScale
 70
     0
300
1:16
140
1.0
141
16.0
290
     0
  0
SCALE
  5
45
102
{ACAD_REACTORS
330
3D
102
}
330
3D
100
AcDbScale
 70
     0
300
1:20
140
1.0
141
20.0
290
     0
  0
SCALE
  5
46
102
{ACAD_REACTORS
330
3D
102
}
330
3D
100
AcDbScale
 70
     0
300
1:30
140
1.0
141
30.0
290
     0
  0
SCALE
  5
47
102
{ACAD_REACTORS
330
3D
102
}
330
3D
100
AcDbScale
 70
     0
300
1:40
140
1.0
141
40.0
290
     0
  0
SCALE
  5
48
102
{ACAD_REACTORS
330
3D
102
}
330
3D
100
AcDbScale
 70
     0
300
1:50
140
1.0
141
50.0
290
     0
  0
SCALE
  5
49
102
{ACAD_REACTORS
330
3D
102
}
330
3D
100
AcDbScale
 70
     0
300
1:100
140
1.0
141
100.0
290
     0
  0
SCALE
  5
4A
102
{ACAD_REACTORS
330
3D
102
}
330
3D
100
AcDbScale
 70
     0
300
2:1
140
2.0
141
1.0
290
     0
  0
SCALE
  5
4B
102
{ACAD_REACTORS
330
3D
102
}
330
3D
100
AcDbScale
 70
     0
300
4:1
140
4.0
141
1.0
290
     0
  0
SCALE
  5
4C
102
{ACAD_REACTORS
330
3D
102
}
330
3D
100
AcDbScale
 70
     0
300
8:1
140
8.0
141
1.0
290
     0
  0
SCALE
  5
4D
102
{ACAD_REACTORS
330
3D
102
}
330
3D
100
AcDbScale
 70
     0
300
10:1
140
10.0
141
1.0
290
     0
  0
SCALE
  5
4E
102
{ACAD_REACTORS
330
3D
102
}
330
3D
100
AcDbScale
 70
     0
300
100:1
140
100.0
141
1.0
290
     0
  0
TABLESTYLE
  5
60
102
{ACAD_XDICTIONARY
360
62C
102
}
102
{ACAD_REACTORS
330
5F
102
}
330
5F
100
AcDbTableStyle
  3
Standard
 70
     0
 71
     3
 40
1.5
 41
1.5
280
     0
281
     0
  7
STANDARD
140
4.5
170
     2
 62
     0
 63
     7
283
     0
274
    -2
284
     1
 64
     0
275
    -2
285
     1
 65
     0
276
    -2
286
     1
 66
     0
277
    -2
287
     1
 67
     0
278
    -2
288
     1
 68
     0
279
    -2
289
     1
 69
     0
  7
STANDARD
140
6.0
170
     5
 62
     0
 63
     7
283
     0
274
    -2
284
     1
 64
     0
275
    -2
285
     1
 65
     0
276
    -2
286
     1
 66
     0
277
    -2
287
     1
 67
     0
278
    -2
288
     1
 68
     0
279
    -2
289
     1
 69
     0
  7
STANDARD
140
4.5
170
     5
 62
     0
 63
     7
283
     0
274
    -2
284
     1
 64
     0
275
    -2
285
     1
 65
     0
276
    -2
286
     1
 66
     0
277
    -2
287
     1
 67
     0
278
    -2
288
     1
 68
     0
279
    -2
289
     1
 69
     0
  0
VISUALSTYLE
  5
2F
102
{ACAD_XDICTIONARY
360
642
102
}
102
{ACAD_REACTORS
330
29
102
}
330
29
100
AcDbVisualStyle
  2
2dWireframe
 70
     4
 71
     0
 72
     2
 73
     0
 90
        0
 40
-0.6
 41
-30.0
 62
     5
 63
     7
 74
     1
 91
        4
 64
     7
 65
   257
 75
     1
175
     1
 42
1.0
 92
        0
 66
   257
 43
1.0
 76
     1
 77
     6
 78
     2
 67
     7
 79
     5
170
     0
171
     0
290
     0
174
     0
 93
        1
 44
0.0
173
     0
291
     0
 45
0.0
1001
ACAD
1000
AcDbSavedByObjectVersion
1070
     0
  0
VISUALSTYLE
  5
31
102
{ACAD_XDICTIONARY
360
646
102
}
102
{ACAD_REACTORS
330
29
102
}
330
29
100
AcDbVisualStyle
  2
3D Hidden
 70
     6
 71
     1
 72
     2
 73
     2
 90
        0
 40
-0.6
 41
-30.0
 62
     5
 63
     7
 74
     2
 91
        2
 64
     7
 65
   257
 75
     2
175
     1
 42
179.0
 92
        0
 66
   257
 43
1.0
 76
     1
 77
     6
 78
     2
 67
     7
 79
     3
170
     0
171
     0
290
     0
174
     0
 93
        1
 44
0.0
173
     0
291
     0
 45
0.0
1001
ACAD
1000
AcDbSavedByObjectVersion
1070
     0
  0
VISUALSTYLE
  5
30
102
{ACAD_XDICTIONARY
360
644
102
}
102
{ACAD_REACTORS
330
29
102
}
330
29
100
AcDbVisualStyle
  2
3dWireframe
 70
     5
 71
     0
 72
     2
 73
     0
 90
        0
 40
-0.6
 41
-30.0
 62
     5
 63
     7
 74
     1
 91
        4
 64
     7
 65
   257
 75
     1
175
     1
 42
1.0
 92
        0
 66
   257
 43
1.0
 76
     1
 77
     6
 78
     2
 67
     7
 79
     5
170
     0
171
     0
290
     0
174
     0
 93
        1
 44
0.0
173
     0
291
     0
 45
0.0
1001
ACAD
1000
AcDbSavedByObjectVersion
1070
     0
  0
VISUALSTYLE
  5
2E
102
{ACAD_XDICTIONARY
360
640
102
}
102
{ACAD_REACTORS
330
29
102
}
330
29
100
AcDbVisualStyle
  2
Basic
 70
     7
 71
     1
 72
     0
 73
     1
 90
        0
 40
-0.6
 41
-30.0
 62
     5
 63
     7
 74
     0
 91
        4
 64
     7
 65
   257
 75
     1
175
     1
 42
1.0
 92
        8
 66
     7
 43
1.0
 76
     1
 77
     6
 78
     2
 67
     7
 79
     5
170
     0
171
     0
290
     0
174
     0
 93
        1
 44
0.0
173
     0
291
     1
 45
0.0
1001
ACAD
1000
AcDbSavedByObjectVersion
1070
     0
  0
VISUALSTYLE
  5
35
102
{ACAD_XDICTIONARY
360
64E
102
}
102
{ACAD_REACTORS
330
29
102
}
330
29
100
AcDbVisualStyle
  2
Brighten
 70
    12
 71
     2
 72
     2
 73
     0
 90
        0
 40
-0.6
 41
-30.0
 62
     5
 63
     7
 74
     1
 91
        4
 64
     7
 65
   257
 75
     1
175
     1
 42
1.0
 92
        8
 66
     7
 43
1.0
 76
     1
 77
     6
 78
     2
 67
     7
 79
     5
170
     0
171
     0
290
     0
174
     0
 93
        1
 44
50.0
173
     0
291
     1
 45
0.0
1001
ACAD
1000
AcDbSavedByObjectVersion
1070
     0
  0
VISUALSTYLE
  5
39
102
{ACAD_XDICTIONARY
360
656
102
}
102
{ACAD_REACTORS
330
29
102
}
330
29
100
AcDbVisualStyle
  2
ColorChange
 70
    16
 71
     2
 72
     2
 73
     3
 90
        0
 40
-0.6
 41
-30.0
 62
     5
 63
     8
 74
     1
 91
        4
 64
     7
 65
   257
 75
     1
175
     1
 42
1.0
 92
        8
 66
     8
 43
1.0
 76
     1
 77
     6
 78
     2
 67
     7
 79
     5
170
     0
171
     0
290
     0
174
     0
 93
        1
 44
0.0
173
     0
291
     1
 45
0.0
1001
ACAD
1000
AcDbSavedByObjectVersion
1070
     0
  0
VISUALSTYLE
  5
32
102
{ACAD_XDICTIONARY
360
648
102
}
102
{ACAD_REACTORS
330
29
102
}
330
29
100
AcDbVisualStyle
  2
Conceptual
 70
     9
 71
     3
 72
     2
 73
     0
 90
        0
 40
-0.6
 41
-30.0
 62
     5
 63
     7
 74
     2
 91
        2
 64
     7
 65
   257
 75
     1
175
     1
 42
179.0
 92
        8
 66
     7
 43
1.0
 76
     1
 77
     6
 78
     2
 67
     7
 79
     3
170
     0
171
     0
290
     0
174
     0
 93
        1
 44
0.0
173
     0
291
     0
 45
0.0
1001
ACAD
1000
AcDbSavedByObjectVersion
1070
     0
  0
VISUALSTYLE
  5
34
102
{ACAD_XDICTIONARY
360
64C
102
}
102
{ACAD_REACTORS
330
29
102
}
330
29
100
AcDbVisualStyle
  2
Dim
 70
    11
 71
     2
 72
     2
 73
     0
 90
        0
 40
-0.6
 41
-30.0
 62
     5
 63
     7
 74
     1
 91
        4
 64
     7
 65
   257
 75
     1
175
     1
 42
1.0
 92
        8
 66
     7
 43
1.0
 76
     1
 77
     6
 78
     2
 67
     7
 79
     5
170
     0
171
     0
290
     0
174
     0
 93
        1
 44
-50.0
173
     0
291
     1
 45
0.0
1001
ACAD
1000
AcDbSavedByObjectVersion
1070
     0
  0
VISUALSTYLE
  5
3C
102
{ACAD_XDICTIONARY
360
65C
102
}
102
{ACAD_REACTORS
330
29
102
}
330
29
100
AcDbVisualStyle
  2
EdgeColorOff
 70
    22
 71
     2
 72
     2
 73
     0
 90
        0
 40
-0.6
 41
-30.0
 62
     5
 63
     7
 74
     1
 91
        4
 64
     7
 65
   257
 75
     1
175
     1
 42
1.0
 92
        8
 66
     7
 43
1.0
 76
     1
 77
     6
 78
     2
 67
     7
 79
     5
170
     0
171
     0
290
     0
174
     0
 93
        1
 44
0.0
173
     0
291
     1
 45
0.0
1001
ACAD
1000
AcDbSavedByObjectVersion
1070
     0
  0
VISUALSTYLE
  5
38
102
{ACAD_XDICTIONARY
360
654
102
}
102
{ACAD_REACTORS
330
29
102
}
330
29
100
AcDbVisualStyle
  2
Facepattern
 70
    15
 71
     2
 72
     2
 73
     0
 90
        0
 40
-0.6
 41
-30.0
 62
     5
 63
     7
 74
     1
 91
        4
 64
     7
 65
   257
 75
     1
175
     1
 42
1.0
 92
        8
 66
     7
 43
1.0
 76
     1
 77
     6
 78
     2
 67
     7
 79
     5
170
     0
171
     0
290
     0
174
     0
 93
        1
 44
0.0
173
     0
291
     1
 45
0.0
1001
ACAD
1000
AcDbSavedByObjectVersion
1070
     0
  0
VISUALSTYLE
  5
2A
102
{ACAD_XDICTIONARY
360
638
102
}
102
{ACAD_REACTORS
330
29
102
}
330
29
100
AcDbVisualStyle
  2
Flat
 70
     0
 71
     2
 72
     1
 73
     1
 90
        2
 40
-0.6
 41
30.0
 62
     5
 63
     7
 74
     0
 91
        4
 64
     7
 65
   257
 75
     1
175
     1
 42
1.0
 92
        8
 66
     7
 43
1.0
 76
     1
 77
     6
 78
     2
 67
     7
 79
     5
170
     0
171
     0
290
     0
174
     0
 93
       13
 44
0.0
173
     0
291
     1
 45
0.0
1001
ACAD
1000
AcDbSavedByObjectVersion
1070
     0
  0
VISUALSTYLE
  5
2B
102
{ACAD_XDICTIONARY
360
63A
102
}
102
{ACAD_REACTORS
330
29
102
}
330
29
100
AcDbVisualStyle
  2
FlatWithEdges
 70
     1
 71
     2
 72
     1
 73
     1
 90
        2
 40
-0.6
 41
30.0
 62
     5
 63
     7
 74
     1
 91
        4
 64
     7
 65
   257
 75
     1
175
     1
 42
1.0
 92
        0
 66
   257
 43
1.0
 76
     1
 77
     6
 78
     2
 67
     7
 79
     5
170
     0
171
     0
290
     0
174
     0
 93
       13
 44
0.0
173
     0
291
     1
 45
0.0
1001
ACAD
1000
AcDbSavedByObjectVersion
1070
     0
  0
VISUALSTYLE
  5
2C
102
{ACAD_XDICTIONARY
360
63C
102
}
102
{ACAD_REACTORS
330
29
102
}
330
29
100
AcDbVisualStyle
  2
Gouraud
 70
     2
 71
     2
 72
     2
 73
     1
 90
        2
 40
-0.6
 41
30.0
 62
     5
 63
     7
 74
     0
 91
        4
 64
     7
 65
   257
 75
     1
175
     1
 42
1.0
 92
        0
 66
     7
 43
1.0
 76
     1
 77
     6
 78
     2
 67
     7
 79
     5
170
     0
171
     0
290
     0
174
     0
 93
       13
 44
0.0
173
     0
291
     1
 45
0.0
1001
ACAD
1000
AcDbSavedByObjectVersion
1070
     0
  0
VISUALSTYLE
  5
2D
102
{ACAD_XDICTIONARY
360
63E
102
}
102
{ACAD_REACTORS
330
29
102
}
330
29
100
AcDbVisualStyle
  2
GouraudWithEdges
 70
     3
 71
     2
 72
     2
 73
     1
 90
        2
 40
-0.6
 41
30.0
 62
     5
 63
     7
 74
     1
 91
        4
 64
     7
 65
   257
 75
     1
175
     1
 42
1.0
 92
        0
 66
   257
 43
1.0
 76
     1
 77
     6
 78
     2
 67
     7
 79
     5
170
     0
171
     0
290
     0
174
     0
 93
       13
 44
0.0
173
     0
291
     1
 45
0.0
1001
ACAD
1000
AcDbSavedByObjectVersion
1070
     0
  0
VISUALSTYLE
  5
3A
102
{ACAD_XDICTIONARY
360
658
102
}
102
{ACAD_REACTORS
330
29
102
}
330
29
100
AcDbVisualStyle
  2
JitterOff
 70
    20
 71
     2
 72
     2
 73
     0
 90
        0
 40
-0.6
 41
-30.0
 62
     5
 63
     7
 74
     1
 91
        4
 64
     7
 65
   257
 75
     1
175
     1
 42
1.0
 92
       10
 66
     7
 43
1.0
 76
     1
 77
     6
 78
     2
 67
     7
 79
     5
170
     0
171
     0
290
     0
174
     0
 93
        1
 44
0.0
173
     0
291
     1
 45
0.0
1001
ACAD
1000
AcDbSavedByObjectVersion
1070
     0
  0
VISUALSTYLE
  5
37
102
{ACAD_XDICTIONARY
360
652
102
}
102
{ACAD_REACTORS
330
29
102
}
330
29
100
AcDbVisualStyle
  2
Linepattern
 70
    14
 71
     2
 72
     2
 73
     0
 90
        0
 40
-0.6
 41
-30.0
 62
     5
 63
     7
 74
     1
 91
        4
 64
     7
 65
   257
 75
     7
175
     7
 42
1.0
 92
        8
 66
     7
 43
1.0
 76
     1
 77
     6
 78
     2
 67
     7
 79
     5
170
     0
171
     0
290
     0
174
     0
 93
        1
 44
0.0
173
     0
291
     1
 45
0.0
1001
ACAD
1000
AcDbSavedByObjectVersion
1070
     0
  0
VISUALSTYLE
  5
3B
102
{ACAD_XDICTIONARY
360
65A
102
}
102
{ACAD_REACTORS
330
29
102
}
330
29
100
AcDbVisualStyle
  2
OverhangOff
 70
    21
 71
     2
 72
     2
 73
     0
 90
        0
 40
-0.6
 41
-30.0
 62
     5
 63
     7
 74
     1
 91
        4
 64
     7
 65
   257
 75
     1
175
     1
 42
1.0
 92
        9
 66
     7
 43
1.0
 76
     1
 77
     6
 78
     2
 67
     7
 79
     5
170
     0
171
     0
290
     0
174
     0
 93
        1
 44
0.0
173
     0
291
     1
 45
0.0
1001
ACAD
1000
AcDbSavedByObjectVersion
1070
     0
  0
VISUALSTYLE
  5
33
102
{ACAD_XDICTIONARY
360
64A
102
}
102
{ACAD_REACTORS
330
29
102
}
330
29
100
AcDbVisualStyle
  2
Realistic
 70
     8
 71
     2
 72
     2
 73
     0
 90
        0
 40
-0.6
 41
-30.0
 62
     5
 63
     7
 74
     1
 91
        0
 64
     7
 65
   257
 75
     1
175
     1
 42
1.0
 92
        8
 66
     8
 43
1.0
 76
     1
 77
     6
 78
     2
 67
     7
 79
     5
170
     0
171
     0
290
     0
174
     0
 93
       13
 44
0.0
173
     0
291
     0
 45
0.0
1001
ACAD
1000
AcDbSavedByObjectVersion
1070
     0
  0
VISUALSTYLE
  5
36
102
{ACAD_XDICTIONARY
360
650
102
}
102
{ACAD_REACTORS
330
29
102
}
330
29
100
AcDbVisualStyle
  2
Thicken
 70
    13
 71
     2
 72
     2
 73
     0
 90
        0
 40
-0.6
 41
-30.0
 62
     5
 63
     7
 74
     1
 91
        4
 64
     7
 65
   257
 75
     1
175
     1
 42
1.0
 92
       12
 66
     7
 43
1.0
 76
     1
 77
     6
 78
     2
 67
     7
 79
     5
170
     0
171
     0
290
     0
174
     0
 93
        1
 44
0.0
173
     0
291
     1
 45
0.0
1001
ACAD
1000
AcDbSavedByObjectVersion
1070
     0
  0
DICTIONARYVAR
  5
55B
102
{ACAD_REACTORS
330
557
102
}
330
557
100
DictionaryVariables
280
     0
  1
1
  0
DICTIONARYVAR
  5
55C
102
{ACAD_REACTORS
330
557
102
}
330
557
100
DictionaryVariables
280
     0
  1
1:1
  0
DICTIONARYVAR
  5
559
102
{ACAD_REACTORS
330
557
102
}
330
557
100
DictionaryVariables
280
     0
  1
STANDARD
  0
DICTIONARYVAR
  5
558
102
{ACAD_REACTORS
330
557
102
}
330
557
100
DictionaryVariables
280
     0
  1
STANDARD
  0
DICTIONARYVAR
  5
62B
102
{ACAD_REACTORS
330
557
102
}
330
557
100
DictionaryVariables
280
     0
  1
2
  0
DICTIONARYVAR
  5
629
102
{ACAD_REACTORS
330
557
102
}
330
557
100
DictionaryVariables
280
     0
  1
1
  0
DICTIONARYVAR
  5
628
102
{ACAD_REACTORS
330
557
102
}
330
557
100
DictionaryVariables
280
     0
  1
0
  0
DICTIONARYVAR
  5
55E
102
{ACAD_REACTORS
330
557
102
}
330
557
100
DictionaryVariables
280
     0
  1
1
  0
DICTIONARYVAR
  5
55F
102
{ACAD_REACTORS
330
557
102
}
330
557
100
DictionaryVariables
280
     0
  1
15
  0
DICTIONARYVAR
  5
55D
102
{ACAD_REACTORS
330
557
102
}
330
557
100
DictionaryVariables
280
     0
  1
0
  0
DICTIONARYVAR
  5
55A
102
{ACAD_REACTORS
330
557
102
}
330
557
100
DictionaryVariables
280
     0
  1
0
  0
DICTIONARYVAR
  5
627
102
{ACAD_REACTORS
330
557
102
}
330
557
100
DictionaryVariables
280
     0
  1
127
  0
DICTIONARYVAR
  5
62A
102
{ACAD_REACTORS
330
557
102
}
330
557
100
DictionaryVariables
280
     0
  1
0
  0
DICTIONARY
  5
5C2
102
{ACAD_REACTORS
330
5B5
102
}
330
5B5
100
AcDbDictionary
281
     1
  0
DICTIONARY
  5
661
330
6A
100
AcDbDictionary
280
     1
281
     1
  3
ACAD_XREC_ROUNDTRIP
360
662
  0
DICTIONARY
  5
65F
330
66
100
AcDbDictionary
280
     1
281
     1
  3
ACAD_XREC_ROUNDTRIP
360
660
  0
DICTIONARY
  5
663
330
6E
100
AcDbDictionary
280
     1
281
     1
  3
ACAD_XREC_ROUNDTRIP
360
664
  0
DICTIONARY
  5
1A
330
19
100
AcDbDictionary
280
     1
281
     1
  3
ACAD_XREC_ROUNDTRIP
360
636
  3
BUMPTILE
360
1C
  3
DIFFUSETILE
360
1B
  3
OPACITYTILE
360
1F
  3
REFLECTIONTILE
360
1E
  3
REFRACTIONTILE
360
20
  3
SPECULARTILE
360
1D
  0
DICTIONARY
  5
12
330
11
100
AcDbDictionary
280
     1
281
     1
  3
ACAD_XREC_ROUNDTRIP
360
635
  3
BUMPTILE
360
14
  3
DIFFUSETILE
360
13
  3
OPACITYTILE
360
17
  3
REFLECTIONTILE
360
16
  3
REFRACTIONTILE
360
18
  3
SPECULARTILE
360
15
  0
DICTIONARY
  5
22
330
21
100
AcDbDictionary
280
     1
281
     1
  3
ACAD_XREC_ROUNDTRIP
360
637
  3
BUMPTILE
360
24
  3
DIFFUSETILE
360
23
  3
OPACITYTILE
360
27
  3
REFLECTIONTILE
360
26
  3
REFRACTIONTILE
360
28
  3
SPECULARTILE
360
25
  0
DICTIONARY
  5
62C
330
60
100
AcDbDictionary
280
     1
281
     1
  3
ACAD_ROUNDTRIP_2008_TABLESTYLE_CELLSTYLEMAP
360
62D
  3
ACAD_XREC_ROUNDTRIP
360
65E
  0
DICTIONARY
  5
642
330
2F
100
AcDbDictionary
280
     1
281
     1
  3
ACAD_XREC_ROUNDTRIP
360
643
  0
DICTIONARY
  5
646
330
31
100
AcDbDictionary
280
     1
281
     1
  3
ACAD_XREC_ROUNDTRIP
360
647
  0
DICTIONARY
  5
644
330
30
100
AcDbDictionary
280
     1
281
     1
  3
ACAD_XREC_ROUNDTRIP
360
645
  0
DICTIONARY
  5
640
330
2E
100
AcDbDictionary
280
     1
281
     1
  3
ACAD_XREC_ROUNDTRIP
360
641
  0
DICTIONARY
  5
64E
330
35
100
AcDbDictionary
280
     1
281
     1
  3
ACAD_XREC_ROUNDTRIP
360
64F
  0
DICTIONARY
  5
656
330
39
100
AcDbDictionary
280
     1
281
     1
  3
ACAD_XREC_ROUNDTRIP
360
657
  0
DICTIONARY
  5
648
330
32
100
AcDbDictionary
280
     1
281
     1
  3
ACAD_XREC_ROUNDTRIP
360
649
  0
DICTIONARY
  5
64C
330
34
100
AcDbDictionary
280
     1
281
     1
  3
ACAD_XREC_ROUNDTRIP
360
64D
  0
DICTIONARY
  5
65C
330
3C
100
AcDbDictionary
280
     1
281
     1
  3
ACAD_XREC_ROUNDTRIP
360
65D
  0
DICTIONARY
  5
654
330
38
100
AcDbDictionary
280
     1
281
     1
  3
ACAD_XREC_ROUNDTRIP
360
655
  0
DICTIONARY
  5
638
330
2A
100
AcDbDictionary
280
     1
281
     1
  3
ACAD_XREC_ROUNDTRIP
360
639
  0
DICTIONARY
  5
63A
330
2B
100
AcDbDictionary
280
     1
281
     1
  3
ACAD_XREC_ROUNDTRIP
360
63B
  0
DICTIONARY
  5
63C
330
2C
100
AcDbDictionary
280
     1
281
     1
  3
ACAD_XREC_ROUNDTRIP
360
63D
  0
DICTIONARY
  5
63E
330
2D
100
AcDbDictionary
280
     1
281
     1
  3
ACAD_XREC_ROUNDTRIP
360
63F
  0
DICTIONARY
  5
658
330
3A
100
AcDbDictionary
280
     1
281
     1
  3
ACAD_XREC_ROUNDTRIP
360
659
  0
DICTIONARY
  5
652
330
37
100
AcDbDictionary
280
     1
281
     1
  3
ACAD_XREC_ROUNDTRIP
360
653
  0
DICTIONARY
  5
65A
330
3B
100
AcDbDictionary
280
     1
281
     1
  3
ACAD_XREC_ROUNDTRIP
360
65B
  0
DICTIONARY
  5
64A
330
33
100
AcDbDictionary
280
     1
281
     1
  3
ACAD_XREC_ROUNDTRIP
360
64B
  0
DICTIONARY
  5
650
330
36
100
AcDbDictionary
280
     1
281
     1
  3
ACAD_XREC_ROUNDTRIP
360
651
  0
XRECORD
  5
662
102
{ACAD_REACTORS
330
661
102
}
330
661
100
AcDbXrecord
280
     1
102
SHADEPLOT
 70
     0
102
SHADEPLOTRESLEVEL
 70
     2
102
SHADEPLOTCUSTOMDPI
 70
   300
  0
XRECORD
  5
660
102
{ACAD_REACTORS
330
65F
102
}
330
65F
100
AcDbXrecord
280
     1
102
SHADEPLOT
 70
     0
102
SHADEPLOTRESLEVEL
 70
     2
102
SHADEPLOTCUSTOMDPI
 70
   300
  0
XRECORD
  5
664
102
{ACAD_REACTORS
330
663
102
}
330
663
100
AcDbXrecord
280
     1
102
SHADEPLOT
 70
     0
102
SHADEPLOTRESLEVEL
 70
     2
102
SHADEPLOTCUSTOMDPI
 70
   300
  0
XRECORD
  5
636
102
{ACAD_REACTORS
330
1A
102
}
330
1A
100
AcDbXrecord
280
     1
102
MATERIAL
148
0.0
149
0.0
149
0.0
 93
        0
 94
      127
282
     0
 72
     0
 77
     0
171
     0
175
     0
179
     0
273
     0
  0
XRECORD
  5
1C
102
{ACAD_REACTORS
330
1A
102
}
330
1A
100
AcDbXrecord
280
     1
270
     1
271
     1
  0
XRECORD
  5
1B
102
{ACAD_REACTORS
330
1A
102
}
330
1A
100
AcDbXrecord
280
     1
270
     1
271
     1
  0
XRECORD
  5
1F
102
{ACAD_REACTORS
330
1A
102
}
330
1A
100
AcDbXrecord
280
     1
270
     1
271
     1
  0
XRECORD
  5
1E
102
{ACAD_REACTORS
330
1A
102
}
330
1A
100
AcDbXrecord
280
     1
270
     1
271
     1
  0
XRECORD
  5
20
102
{ACAD_REACTORS
330
1A
102
}
330
1A
100
AcDbXrecord
280
     1
270
     1
271
     1
  0
XRECORD
  5
1D
102
{ACAD_REACTORS
330
1A
102
}
330
1A
100
AcDbXrecord
280
     1
270
     1
271
     1
  0
XRECORD
  5
635
102
{ACAD_REACTORS
330
12
102
}
330
12
100
AcDbXrecord
280
     1
102
MATERIAL
148
0.0
149
0.0
149
0.0
 93
        0
 94
      127
282
     0
 72
     0
 77
     0
171
     0
175
     0
179
     0
273
     0
  0
XRECORD
  5
14
102
{ACAD_REACTORS
330
12
102
}
330
12
100
AcDbXrecord
280
     1
270
     1
271
     1
  0
XRECORD
  5
13
102
{ACAD_REACTORS
330
12
102
}
330
12
100
AcDbXrecord
280
     1
270
     1
271
     1
  0
XRECORD
  5
17
102
{ACAD_REACTORS
330
12
102
}
330
12
100
AcDbXrecord
280
     1
270
     1
271
     1
  0
XRECORD
  5
16
102
{ACAD_REACTORS
330
12
102
}
330
12
100
AcDbXrecord
280
     1
270
     1
271
     1
  0
XRECORD
  5
18
102
{ACAD_REACTORS
330
12
102
}
330
12
100
AcDbXrecord
280
     1
270
     1
271
     1
  0
XRECORD
  5
15
102
{ACAD_REACTORS
330
12
102
}
330
12
100
AcDbXrecord
280
     1
270
     1
271
     1
  0
XRECORD
  5
637
102
{ACAD_REACTORS
330
22
102
}
330
22
100
AcDbXrecord
280
     1
102
MATERIAL
148
0.0
149
0.0
149
0.0
 93
        0
 94
      127
282
     0
 72
     0
 77
     0
171
     0
175
     0
179
     0
273
     0
  0
XRECORD
  5
24
102
{ACAD_REACTORS
330
22
102
}
330
22
100
AcDbXrecord
280
     1
270
     1
271
     1
  0
XRECORD
  5
23
102
{ACAD_REACTORS
330
22
102
}
330
22
100
AcDbXrecord
280
     1
270
     1
271
     1
  0
XRECORD
  5
27
102
{ACAD_REACTORS
330
22
102
}
330
22
100
AcDbXrecord
280
     1
270
     1
271
     1
  0
XRECORD
  5
26
102
{ACAD_REACTORS
330
22
102
}
330
22
100
AcDbXrecord
280
     1
270
     1
271
     1
  0
XRECORD
  5
28
102
{ACAD_REACTORS
330
22
102
}
330
22
100
AcDbXrecord
280
     1
270
     1
271
     1
  0
XRECORD
  5
25
102
{ACAD_REACTORS
330
22
102
}
330
22
100
AcDbXrecord
280
     1
270
     1
271
     1
  0
CELLSTYLEMAP
  5
62D
102
{ACAD_REACTORS
330
62C
102
}
330
62C
100
AcDbCellStyleMap
 90
        3
300
CELLSTYLE
  1
TABLEFORMAT_BEGIN
 90
        5
170
     1
 91
        0
 92
    32768
 62
   257
 93
        1
300
CONTENTFORMAT
  1
CONTENTFORMAT_BEGIN
 90
        0
 91
        0
 92
      512
 93
        0
300

 40
0.0
140
1.0
 94
        5
 62
     0
340
50
144
6.0
309
CONTENTFORMAT_END
171
     1
301
MARGIN
  1
CELLMARGIN_BEGIN
 40
1.5
 40
1.5
 40
1.5
 40
1.5
 40
0.18
 40
0.18
309
CELLMARGIN_END
 94
        6
 95
        1
302
GRIDFORMAT
  1
GRIDFORMAT_BEGIN
 90
        0
 91
        1
 62
     0
 92
       -2
340
0
 93
        0
 40
0.045
309
GRIDFORMAT_END
 95
        2
302
GRIDFORMAT
  1
GRIDFORMAT_BEGIN
 90
        0
 91
        1
 62
     0
 92
       -2
340
0
 93
        0
 40
0.045
309
GRIDFORMAT_END
 95
        4
302
GRIDFORMAT
  1
GRIDFORMAT_BEGIN
 90
        0
 91
        1
 62
     0
 92
       -2
340
0
 93
        0
 40
0.045
309
GRIDFORMAT_END
 95
        8
302
GRIDFORMAT
  1
GRIDFORMAT_BEGIN
 90
        0
 91
        1
 62
     0
 92
       -2
340
0
 93
        0
 40
0.045
309
GRIDFORMAT_END
 95
       16
302
GRIDFORMAT
  1
GRIDFORMAT_BEGIN
 90
        0
 91
        1
 62
     0
 92
       -2
340
0
 93
        0
 40
0.045
309
GRIDFORMAT_END
 95
       32
302
GRIDFORMAT
  1
GRIDFORMAT_BEGIN
 90
        0
 91
        1
 62
     0
 92
       -2
340
0
 93
        0
 40
0.045
309
GRIDFORMAT_END
309
TABLEFORMAT_END
  1
CELLSTYLE_BEGIN
 90
        1
 91
        1
300
_TITLE
309
CELLSTYLE_END
300
CELLSTYLE
  1
TABLEFORMAT_BEGIN
 90
        5
170
     1
 91
        0
 92
        0
 62
   257
 93
        1
300
CONTENTFORMAT
  1
CONTENTFORMAT_BEGIN
 90
        0
 91
        0
 92
      512
 93
        0
300

 40
0.0
140
1.0
 94
        5
 62
     0
340
50
144
4.5
309
CONTENTFORMAT_END
171
     1
301
MARGIN
  1
CELLMARGIN_BEGIN
 40
1.5
 40
1.5
 40
1.5
 40
1.5
 40
0.18
 40
0.18
309
CELLMARGIN_END
 94
        6
 95
        1
302
GRIDFORMAT
  1
GRIDFORMAT_BEGIN
 90
        0
 91
        1
 62
     0
 92
       -2
340
0
 93
        0
 40
0.045
309
GRIDFORMAT_END
 95
        2
302
GRIDFORMAT
  1
GRIDFORMAT_BEGIN
 90
        0
 91
        1
 62
     0
 92
       -2
340
0
 93
        0
 40
0.045
309
GRIDFORMAT_END
 95
        4
302
GRIDFORMAT
  1
GRIDFORMAT_BEGIN
 90
        0
 91
        1
 62
     0
 92
       -2
340
0
 93
        0
 40
0.045
309
GRIDFORMAT_END
 95
        8
302
GRIDFORMAT
  1
GRIDFORMAT_BEGIN
 90
        0
 91
        1
 62
     0
 92
       -2
340
0
 93
        0
 40
0.045
309
GRIDFORMAT_END
 95
       16
302
GRIDFORMAT
  1
GRIDFORMAT_BEGIN
 90
        0
 91
        1
 62
     0
 92
       -2
340
0
 93
        0
 40
0.045
309
GRIDFORMAT_END
 95
       32
302
GRIDFORMAT
  1
GRIDFORMAT_BEGIN
 90
        0
 91
        1
 62
     0
 92
       -2
340
0
 93
        0
 40
0.045
309
GRIDFORMAT_END
309
TABLEFORMAT_END
  1
CELLSTYLE_BEGIN
 90
        2
 91
        1
300
_HEADER
309
CELLSTYLE_END
300
CELLSTYLE
  1
TABLEFORMAT_BEGIN
 90
        5
170
     1
 91
        0
 92
        0
 62
   257
 93
        1
300
CONTENTFORMAT
  1
CONTENTFORMAT_BEGIN
 90
        0
 91
        0
 92
      512
 93
        0
300

 40
0.0
140
1.0
 94
        2
 62
     0
340
50
144
4.5
309
CONTENTFORMAT_END
171
     1
301
MARGIN
  1
CELLMARGIN_BEGIN
 40
1.5
 40
1.5
 40
1.5
 40
1.5
 40
0.18
 40
0.18
309
CELLMARGIN_END
 94
        6
 95
        1
302
GRIDFORMAT
  1
GRIDFORMAT_BEGIN
 90
        0
 91
        1
 62
     0
 92
       -2
340
0
 93
        0
 40
0.045
309
GRIDFORMAT_END
 95
        2
302
GRIDFORMAT
  1
GRIDFORMAT_BEGIN
 90
        0
 91
        1
 62
     0
 92
       -2
340
0
 93
        0
 40
0.045
309
GRIDFORMAT_END
 95
        4
302
GRIDFORMAT
  1
GRIDFORMAT_BEGIN
 90
        0
 91
        1
 62
     0
 92
       -2
340
0
 93
        0
 40
0.045
309
GRIDFORMAT_END
 95
        8
302
GRIDFORMAT
  1
GRIDFORMAT_BEGIN
 90
        0
 91
        1
 62
     0
 92
       -2
340
0
 93
        0
 40
0.045
309
GRIDFORMAT_END
 95
       16
302
GRIDFORMAT
  1
GRIDFORMAT_BEGIN
 90
        0
 91
        1
 62
     0
 92
       -2
340
0
 93
        0
 40
0.045
309
GRIDFORMAT_END
 95
       32
302
GRIDFORMAT
  1
GRIDFORMAT_BEGIN
 90
        0
 91
        1
 62
     0
 92
       -2
340
0
 93
        0
 40
0.045
309
GRIDFORMAT_END
309
TABLEFORMAT_END
  1
CELLSTYLE_BEGIN
 90
        3
 91
        2
300
_DATA
309
CELLSTYLE_END
  0
XRECORD
  5
65E
102
{ACAD_REACTORS
330
62C
102
}
330
62C
100
AcDbXrecord
280
     1
102
ACAD_ROUNDTRIP_PRE2007_TABLESTYLE
 90
      512
 91
        0
  1

 92
      512
 93
        0
  2

 94
      512
 95
        0
  3

  0
XRECORD
  5
643
102
{ACAD_REACTORS
330
642
102
}
330
642
100
AcDbXrecord
280
     1
102
RTVSPropertyOp0
 70
     1
102
RTVSPropertyOp1
 70
     1
102
RTVSPropertyOp2
 70
     1
102
RTVSPropertyOp3
 70
     1
102
RTVSPropertyOp4
 70
     1
102
RTVSPropertyOp5
 70
     1
102
RTVSPropertyOp6
 70
     1
102
RTVSPropertyOp7
 70
     1
102
RTVSPropertyOp8
 70
     1
102
RTVSPropertyOp9
 70
     1
102
RTVSPropertyOp10
 70
     1
102
RTVSPropertyOp11
 70
     1
102
RTVSPropertyOp12
 70
     1
102
RTVSPropertyOp13
 70
     1
102
RTVSPropertyOp14
 70
     1
102
RTVSPropertyOp15
 70
     1
102
RTVSPropertyOp16
 70
     1
102
RTVSPropertyOp17
 70
     1
102
RTVSPropertyOp18
 70
     1
102
RTVSPropertyOp19
 70
     1
102
RTVSPropertyOp20
 70
     1
102
RTVSPropertyOp21
 70
     1
102
RTVSPropertyOp22
 70
     1
102
RTVSPropertyOp23
 70
     1
102
RTVSPropertyOp24
 70
     1
102
RTVSPropertyOp25
 70
     1
102
RTVSPropertyOp26
 70
     1
102
RTVSPropertyOp27
 70
     1
  0
XRECORD
  5
647
102
{ACAD_REACTORS
330
646
102
}
330
646
100
AcDbXrecord
280
     1
102
RTVSPropertyOp0
 70
     1
102
RTVSPropertyOp1
 70
     1
102
RTVSPropertyOp2
 70
     1
102
RTVSPropertyOp3
 70
     1
102
RTVSPropertyOp4
 70
     1
102
RTVSPropertyOp5
 70
     1
102
RTVSPropertyOp6
 70
     1
102
RTVSPropertyOp7
 70
     1
102
RTVSPropertyOp8
 70
     1
102
RTVSPropertyOp9
 70
     1
102
RTVSPropertyOp10
 70
     1
102
RTVSPropertyOp11
 70
     1
102
RTVSPropertyOp12
 70
     1
102
RTVSPropertyOp13
 70
     1
102
RTVSPropertyOp14
 70
     1
102
RTVSPropertyOp15
 70
     1
102
RTVSPropertyOp16
 70
     1
102
RTVSPropertyOp17
 70
     1
102
RTVSPropertyOp18
 70
     1
102
RTVSPropertyOp19
 70
     1
102
RTVSPropertyOp20
 70
     1
102
RTVSPropertyOp21
 70
     1
102
RTVSPropertyOp22
 70
     1
102
RTVSPropertyOp23
 70
     1
102
RTVSPropertyOp24
 70
     1
102
RTVSPropertyOp25
 70
     1
102
RTVSPropertyOp26
 70
     1
102
RTVSPropertyOp27
 70
     1
  0
XRECORD
  5
645
102
{ACAD_REACTORS
330
644
102
}
330
644
100
AcDbXrecord
280
     1
102
RTVSPropertyOp0
 70
     1
102
RTVSPropertyOp1
 70
     1
102
RTVSPropertyOp2
 70
     1
102
RTVSPropertyOp3
 70
     1
102
RTVSPropertyOp4
 70
     1
102
RTVSPropertyOp5
 70
     1
102
RTVSPropertyOp6
 70
     1
102
RTVSPropertyOp7
 70
     1
102
RTVSPropertyOp8
 70
     1
102
RTVSPropertyOp9
 70
     1
102
RTVSPropertyOp10
 70
     1
102
RTVSPropertyOp11
 70
     1
102
RTVSPropertyOp12
 70
     1
102
RTVSPropertyOp13
 70
     1
102
RTVSPropertyOp14
 70
     1
102
RTVSPropertyOp15
 70
     1
102
RTVSPropertyOp16
 70
     1
102
RTVSPropertyOp17
 70
     1
102
RTVSPropertyOp18
 70
     1
102
RTVSPropertyOp19
 70
     1
102
RTVSPropertyOp20
 70
     1
102
RTVSPropertyOp21
 70
     1
102
RTVSPropertyOp22
 70
     1
102
RTVSPropertyOp23
 70
     1
102
RTVSPropertyOp24
 70
     1
102
RTVSPropertyOp25
 70
     1
102
RTVSPropertyOp26
 70
     1
102
RTVSPropertyOp27
 70
     1
  0
XRECORD
  5
641
102
{ACAD_REACTORS
330
640
102
}
330
640
100
AcDbXrecord
280
     1
102
RTVSPropertyOp0
 70
     1
102
RTVSPropertyOp1
 70
     1
102
RTVSPropertyOp2
 70
     1
102
RTVSPropertyOp3
 70
     1
102
RTVSPropertyOp4
 70
     1
102
RTVSPropertyOp5
 70
     1
102
RTVSPropertyOp6
 70
     1
102
RTVSPropertyOp7
 70
     1
102
RTVSPropertyOp8
 70
     1
102
RTVSPropertyOp9
 70
     1
102
RTVSPropertyOp10
 70
     1
102
RTVSPropertyOp11
 70
     1
102
RTVSPropertyOp12
 70
     1
102
RTVSPropertyOp13
 70
     1
102
RTVSPropertyOp14
 70
     1
102
RTVSPropertyOp15
 70
     1
102
RTVSPropertyOp16
 70
     1
102
RTVSPropertyOp17
 70
     1
102
RTVSPropertyOp18
 70
     1
102
RTVSPropertyOp19
 70
     1
102
RTVSPropertyOp20
 70
     1
102
RTVSPropertyOp21
 70
     1
102
RTVSPropertyOp22
 70
     1
102
RTVSPropertyOp23
 70
     1
102
RTVSPropertyOp24
 70
     1
102
RTVSPropertyOp25
 70
     1
102
RTVSPropertyOp26
 70
     1
102
RTVSPropertyOp27
 70
     1
  0
XRECORD
  5
64F
102
{ACAD_REACTORS
330
64E
102
}
330
64E
100
AcDbXrecord
280
     1
102
RTVSPropertyOp0
 70
     1
102
RTVSPropertyOp1
 70
     1
102
RTVSPropertyOp2
 70
     1
102
RTVSPropertyOp3
 70
     1
102
RTVSPropertyOp4
 70
     1
102
RTVSPropertyOp5
 70
     1
102
RTVSPropertyOp6
 70
     1
102
RTVSPropertyOp7
 70
     1
102
RTVSPropertyOp8
 70
     1
102
RTVSPropertyOp9
 70
     1
102
RTVSPropertyOp10
 70
     1
102
RTVSPropertyOp11
 70
     1
102
RTVSPropertyOp12
 70
     1
102
RTVSPropertyOp13
 70
     1
102
RTVSPropertyOp14
 70
     1
102
RTVSPropertyOp15
 70
     1
102
RTVSPropertyOp16
 70
     1
102
RTVSPropertyOp17
 70
     1
102
RTVSPropertyOp18
 70
     1
102
RTVSPropertyOp19
 70
     1
102
RTVSPropertyOp20
 70
     1
102
RTVSPropertyOp21
 70
     1
102
RTVSPropertyOp22
 70
     1
102
RTVSPropertyOp23
 70
     1
102
RTVSPropertyOp24
 70
     1
102
RTVSPropertyOp25
 70
     1
102
RTVSPropertyOp26
 70
     1
102
RTVSPropertyOp27
 70
     1
  0
XRECORD
  5
657
102
{ACAD_REACTORS
330
656
102
}
330
656
100
AcDbXrecord
280
     1
102
RTVSPropertyOp0
 70
     1
102
RTVSPropertyOp1
 70
     1
102
RTVSPropertyOp2
 70
     1
102
RTVSPropertyOp3
 70
     1
102
RTVSPropertyOp4
 70
     1
102
RTVSPropertyOp5
 70
     1
102
RTVSPropertyOp6
 70
     1
102
RTVSPropertyOp7
 70
     1
102
RTVSPropertyOp8
 70
     1
102
RTVSPropertyOp9
 70
     1
102
RTVSPropertyOp10
 70
     1
102
RTVSPropertyOp11
 70
     1
102
RTVSPropertyOp12
 70
     1
102
RTVSPropertyOp13
 70
     1
102
RTVSPropertyOp14
 70
     1
102
RTVSPropertyOp15
 70
     1
102
RTVSPropertyOp16
 70
     1
102
RTVSPropertyOp17
 70
     1
102
RTVSPropertyOp18
 70
     1
102
RTVSPropertyOp19
 70
     1
102
RTVSPropertyOp20
 70
     1
102
RTVSPropertyOp21
 70
     1
102
RTVSPropertyOp22
 70
     1
102
RTVSPropertyOp23
 70
     1
102
RTVSPropertyOp24
 70
     1
102
RTVSPropertyOp25
 70
     1
102
RTVSPropertyOp26
 70
     1
102
RTVSPropertyOp27
 70
     1
  0
XRECORD
  5
649
102
{ACAD_REACTORS
330
648
102
}
330
648
100
AcDbXrecord
280
     1
102
RTVSPropertyOp0
 70
     1
102
RTVSPropertyOp1
 70
     1
102
RTVSPropertyOp2
 70
     1
102
RTVSPropertyOp3
 70
     1
102
RTVSPropertyOp4
 70
     1
102
RTVSPropertyOp5
 70
     1
102
RTVSPropertyOp6
 70
     1
102
RTVSPropertyOp7
 70
     1
102
RTVSPropertyOp8
 70
     1
102
RTVSPropertyOp9
 70
     1
102
RTVSPropertyOp10
 70
     1
102
RTVSPropertyOp11
 70
     1
102
RTVSPropertyOp12
 70
     1
102
RTVSPropertyOp13
 70
     1
102
RTVSPropertyOp14
 70
     1
102
RTVSPropertyOp15
 70
     1
102
RTVSPropertyOp16
 70
     1
102
RTVSPropertyOp17
 70
     1
102
RTVSPropertyOp18
 70
     1
102
RTVSPropertyOp19
 70
     1
102
RTVSPropertyOp20
 70
     1
102
RTVSPropertyOp21
 70
     1
102
RTVSPropertyOp22
 70
     1
102
RTVSPropertyOp23
 70
     1
102
RTVSPropertyOp24
 70
     1
102
RTVSPropertyOp25
 70
     1
102
RTVSPropertyOp26
 70
     1
102
RTVSPropertyOp27
 70
     1
  0
XRECORD
  5
64D
102
{ACAD_REACTORS
330
64C
102
}
330
64C
100
AcDbXrecord
280
     1
102
RTVSPropertyOp0
 70
     1
102
RTVSPropertyOp1
 70
     1
102
RTVSPropertyOp2
 70
     1
102
RTVSPropertyOp3
 70
     1
102
RTVSPropertyOp4
 70
     1
102
RTVSPropertyOp5
 70
     1
102
RTVSPropertyOp6
 70
     1
102
RTVSPropertyOp7
 70
     1
102
RTVSPropertyOp8
 70
     1
102
RTVSPropertyOp9
 70
     1
102
RTVSPropertyOp10
 70
     1
102
RTVSPropertyOp11
 70
     1
102
RTVSPropertyOp12
 70
     1
102
RTVSPropertyOp13
 70
     1
102
RTVSPropertyOp14
 70
     1
102
RTVSPropertyOp15
 70
     1
102
RTVSPropertyOp16
 70
     1
102
RTVSPropertyOp17
 70
     1
102
RTVSPropertyOp18
 70
     1
102
RTVSPropertyOp19
 70
     1
102
RTVSPropertyOp20
 70
     1
102
RTVSPropertyOp21
 70
     1
102
RTVSPropertyOp22
 70
     1
102
RTVSPropertyOp23
 70
     1
102
RTVSPropertyOp24
 70
     1
102
RTVSPropertyOp25
 70
     1
102
RTVSPropertyOp26
 70
     1
102
RTVSPropertyOp27
 70
     1
  0
XRECORD
  5
65D
102
{ACAD_REACTORS
330
65C
102
}
330
65C
100
AcDbXrecord
280
     1
102
RTVSPropertyOp0
 70
     0
102
RTVSPropertyOp1
 70
     0
102
RTVSPropertyOp2
 70
     0
102
RTVSPropertyOp3
 70
     0
102
RTVSPropertyOp4
 70
     0
102
RTVSPropertyOp5
 70
     0
102
RTVSPropertyOp6
 70
     0
102
RTVSPropertyOp7
 70
     0
102
RTVSPropertyOp8
 70
     0
102
RTVSPropertyOp9
 70
     0
102
RTVSPropertyOp10
 70
     0
102
RTVSPropertyOp11
 70
     0
102
RTVSPropertyOp12
 70
     0
102
RTVSPropertyOp13
 70
     0
102
RTVSPropertyOp14
 70
     2
102
RTVSPropertyOp15
 70
     0
102
RTVSPropertyOp16
 70
     0
102
RTVSPropertyOp17
 70
     0
102
RTVSPropertyOp18
 70
     0
102
RTVSPropertyOp19
 70
     0
102
RTVSPropertyOp20
 70
     0
102
RTVSPropertyOp21
 70
     0
102
RTVSPropertyOp22
 70
     0
102
RTVSPropertyOp23
 70
     0
102
RTVSPropertyOp24
 70
     0
102
RTVSPropertyOp25
 70
     0
102
RTVSPropertyOp26
 70
     0
102
RTVSPropertyOp27
 70
     0
  0
XRECORD
  5
655
102
{ACAD_REACTORS
330
654
102
}
330
654
100
AcDbXrecord
280
     1
102
RTVSPropertyOp0
 70
     1
102
RTVSPropertyOp1
 70
     1
102
RTVSPropertyOp2
 70
     1
102
RTVSPropertyOp3
 70
     1
102
RTVSPropertyOp4
 70
     1
102
RTVSPropertyOp5
 70
     1
102
RTVSPropertyOp6
 70
     1
102
RTVSPropertyOp7
 70
     1
102
RTVSPropertyOp8
 70
     1
102
RTVSPropertyOp9
 70
     1
102
RTVSPropertyOp10
 70
     1
102
RTVSPropertyOp11
 70
     1
102
RTVSPropertyOp12
 70
     1
102
RTVSPropertyOp13
 70
     1
102
RTVSPropertyOp14
 70
     1
102
RTVSPropertyOp15
 70
     1
102
RTVSPropertyOp16
 70
     1
102
RTVSPropertyOp17
 70
     1
102
RTVSPropertyOp18
 70
     1
102
RTVSPropertyOp19
 70
     1
102
RTVSPropertyOp20
 70
     1
102
RTVSPropertyOp21
 70
     1
102
RTVSPropertyOp22
 70
     1
102
RTVSPropertyOp23
 70
     1
102
RTVSPropertyOp24
 70
     1
102
RTVSPropertyOp25
 70
     1
102
RTVSPropertyOp26
 70
     1
102
RTVSPropertyOp27
 70
     1
  0
XRECORD
  5
639
102
{ACAD_REACTORS
330
638
102
}
330
638
100
AcDbXrecord
280
     1
102
RTVSPropertyOp0
 70
     1
102
RTVSPropertyOp1
 70
     1
102
RTVSPropertyOp2
 70
     1
102
RTVSPropertyOp3
 70
     1
102
RTVSPropertyOp4
 70
     1
102
RTVSPropertyOp5
 70
     1
102
RTVSPropertyOp6
 70
     1
102
RTVSPropertyOp7
 70
     1
102
RTVSPropertyOp8
 70
     1
102
RTVSPropertyOp9
 70
     1
102
RTVSPropertyOp10
 70
     1
102
RTVSPropertyOp11
 70
     1
102
RTVSPropertyOp12
 70
     1
102
RTVSPropertyOp13
 70
     1
102
RTVSPropertyOp14
 70
     1
102
RTVSPropertyOp15
 70
     1
102
RTVSPropertyOp16
 70
     1
102
RTVSPropertyOp17
 70
     1
102
RTVSPropertyOp18
 70
     1
102
RTVSPropertyOp19
 70
     1
102
RTVSPropertyOp20
 70
     1
102
RTVSPropertyOp21
 70
     1
102
RTVSPropertyOp22
 70
     1
102
RTVSPropertyOp23
 70
     1
102
RTVSPropertyOp24
 70
     1
102
RTVSPropertyOp25
 70
     1
102
RTVSPropertyOp26
 70
     1
102
RTVSPropertyOp27
 70
     1
  0
XRECORD
  5
63B
102
{ACAD_REACTORS
330
63A
102
}
330
63A
100
AcDbXrecord
280
     1
102
RTVSPropertyOp0
 70
     1
102
RTVSPropertyOp1
 70
     1
102
RTVSPropertyOp2
 70
     1
102
RTVSPropertyOp3
 70
     1
102
RTVSPropertyOp4
 70
     1
102
RTVSPropertyOp5
 70
     1
102
RTVSPropertyOp6
 70
     1
102
RTVSPropertyOp7
 70
     1
102
RTVSPropertyOp8
 70
     1
102
RTVSPropertyOp9
 70
     1
102
RTVSPropertyOp10
 70
     1
102
RTVSPropertyOp11
 70
     1
102
RTVSPropertyOp12
 70
     1
102
RTVSPropertyOp13
 70
     1
102
RTVSPropertyOp14
 70
     1
102
RTVSPropertyOp15
 70
     1
102
RTVSPropertyOp16
 70
     1
102
RTVSPropertyOp17
 70
     1
102
RTVSPropertyOp18
 70
     1
102
RTVSPropertyOp19
 70
     1
102
RTVSPropertyOp20
 70
     1
102
RTVSPropertyOp21
 70
     1
102
RTVSPropertyOp22
 70
     1
102
RTVSPropertyOp23
 70
     1
102
RTVSPropertyOp24
 70
     1
102
RTVSPropertyOp25
 70
     1
102
RTVSPropertyOp26
 70
     1
102
RTVSPropertyOp27
 70
     1
  0
XRECORD
  5
63D
102
{ACAD_REACTORS
330
63C
102
}
330
63C
100
AcDbXrecord
280
     1
102
RTVSPropertyOp0
 70
     1
102
RTVSPropertyOp1
 70
     1
102
RTVSPropertyOp2
 70
     1
102
RTVSPropertyOp3
 70
     1
102
RTVSPropertyOp4
 70
     1
102
RTVSPropertyOp5
 70
     1
102
RTVSPropertyOp6
 70
     1
102
RTVSPropertyOp7
 70
     1
102
RTVSPropertyOp8
 70
     1
102
RTVSPropertyOp9
 70
     1
102
RTVSPropertyOp10
 70
     1
102
RTVSPropertyOp11
 70
     1
102
RTVSPropertyOp12
 70
     1
102
RTVSPropertyOp13
 70
     1
102
RTVSPropertyOp14
 70
     1
102
RTVSPropertyOp15
 70
     1
102
RTVSPropertyOp16
 70
     1
102
RTVSPropertyOp17
 70
     1
102
RTVSPropertyOp18
 70
     1
102
RTVSPropertyOp19
 70
     1
102
RTVSPropertyOp20
 70
     1
102
RTVSPropertyOp21
 70
     1
102
RTVSPropertyOp22
 70
     1
102
RTVSPropertyOp23
 70
     1
102
RTVSPropertyOp24
 70
     1
102
RTVSPropertyOp25
 70
     1
102
RTVSPropertyOp26
 70
     1
102
RTVSPropertyOp27
 70
     1
  0
XRECORD
  5
63F
102
{ACAD_REACTORS
330
63E
102
}
330
63E
100
AcDbXrecord
280
     1
102
RTVSPropertyOp0
 70
     1
102
RTVSPropertyOp1
 70
     1
102
RTVSPropertyOp2
 70
     1
102
RTVSPropertyOp3
 70
     1
102
RTVSPropertyOp4
 70
     1
102
RTVSPropertyOp5
 70
     1
102
RTVSPropertyOp6
 70
     1
102
RTVSPropertyOp7
 70
     1
102
RTVSPropertyOp8
 70
     1
102
RTVSPropertyOp9
 70
     1
102
RTVSPropertyOp10
 70
     1
102
RTVSPropertyOp11
 70
     1
102
RTVSPropertyOp12
 70
     1
102
RTVSPropertyOp13
 70
     1
102
RTVSPropertyOp14
 70
     1
102
RTVSPropertyOp15
 70
     1
102
RTVSPropertyOp16
 70
     1
102
RTVSPropertyOp17
 70
     1
102
RTVSPropertyOp18
 70
     1
102
RTVSPropertyOp19
 70
     1
102
RTVSPropertyOp20
 70
     1
102
RTVSPropertyOp21
 70
     1
102
RTVSPropertyOp22
 70
     1
102
RTVSPropertyOp23
 70
     1
102
RTVSPropertyOp24
 70
     1
102
RTVSPropertyOp25
 70
     1
102
RTVSPropertyOp26
 70
     1
102
RTVSPropertyOp27
 70
     1
  0
XRECORD
  5
659
102
{ACAD_REACTORS
330
658
102
}
330
658
100
AcDbXrecord
280
     1
102
RTVSPropertyOp0
 70
     0
102
RTVSPropertyOp1
 70
     0
102
RTVSPropertyOp2
 70
     0
102
RTVSPropertyOp3
 70
     0
102
RTVSPropertyOp4
 70
     0
102
RTVSPropertyOp5
 70
     0
102
RTVSPropertyOp6
 70
     0
102
RTVSPropertyOp7
 70
     0
102
RTVSPropertyOp8
 70
     0
102
RTVSPropertyOp9
 70
     0
102
RTVSPropertyOp10
 70
     0
102
RTVSPropertyOp11
 70
     0
102
RTVSPropertyOp12
 70
     0
102
RTVSPropertyOp13
 70
     0
102
RTVSPropertyOp14
 70
     2
102
RTVSPropertyOp15
 70
     0
102
RTVSPropertyOp16
 70
     0
102
RTVSPropertyOp17
 70
     0
102
RTVSPropertyOp18
 70
     0
102
RTVSPropertyOp19
 70
     0
102
RTVSPropertyOp20
 70
     0
102
RTVSPropertyOp21
 70
     0
102
RTVSPropertyOp22
 70
     0
102
RTVSPropertyOp23
 70
     0
102
RTVSPropertyOp24
 70
     0
102
RTVSPropertyOp25
 70
     0
102
RTVSPropertyOp26
 70
     0
102
RTVSPropertyOp27
 70
     0
  0
XRECORD
  5
653
102
{ACAD_REACTORS
330
652
102
}
330
652
100
AcDbXrecord
280
     1
102
RTVSPropertyOp0
 70
     1
102
RTVSPropertyOp1
 70
     1
102
RTVSPropertyOp2
 70
     1
102
RTVSPropertyOp3
 70
     1
102
RTVSPropertyOp4
 70
     1
102
RTVSPropertyOp5
 70
     1
102
RTVSPropertyOp6
 70
     1
102
RTVSPropertyOp7
 70
     1
102
RTVSPropertyOp8
 70
     1
102
RTVSPropertyOp9
 70
     1
102
RTVSPropertyOp10
 70
     1
102
RTVSPropertyOp11
 70
     1
102
RTVSPropertyOp12
 70
     1
102
RTVSPropertyOp13
 70
     1
102
RTVSPropertyOp14
 70
     1
102
RTVSPropertyOp15
 70
     1
102
RTVSPropertyOp16
 70
     1
102
RTVSPropertyOp17
 70
     1
102
RTVSPropertyOp18
 70
     1
102
RTVSPropertyOp19
 70
     1
102
RTVSPropertyOp20
 70
     1
102
RTVSPropertyOp21
 70
     1
102
RTVSPropertyOp22
 70
     1
102
RTVSPropertyOp23
 70
     1
102
RTVSPropertyOp24
 70
     1
102
RTVSPropertyOp25
 70
     1
102
RTVSPropertyOp26
 70
     1
102
RTVSPropertyOp27
 70
     1
  0
XRECORD
  5
65B
102
{ACAD_REACTORS
330
65A
102
}
330
65A
100
AcDbXrecord
280
     1
102
RTVSPropertyOp0
 70
     0
102
RTVSPropertyOp1
 70
     0
102
RTVSPropertyOp2
 70
     0
102
RTVSPropertyOp3
 70
     0
102
RTVSPropertyOp4
 70
     0
102
RTVSPropertyOp5
 70
     0
102
RTVSPropertyOp6
 70
     0
102
RTVSPropertyOp7
 70
     0
102
RTVSPropertyOp8
 70
     0
102
RTVSPropertyOp9
 70
     0
102
RTVSPropertyOp10
 70
     0
102
RTVSPropertyOp11
 70
     0
102
RTVSPropertyOp12
 70
     0
102
RTVSPropertyOp13
 70
     0
102
RTVSPropertyOp14
 70
     2
102
RTVSPropertyOp15
 70
     0
102
RTVSPropertyOp16
 70
     0
102
RTVSPropertyOp17
 70
     0
102
RTVSPropertyOp18
 70
     0
102
RTVSPropertyOp19
 70
     0
102
RTVSPropertyOp20
 70
     0
102
RTVSPropertyOp21
 70
     0
102
RTVSPropertyOp22
 70
     0
102
RTVSPropertyOp23
 70
     0
102
RTVSPropertyOp24
 70
     0
102
RTVSPropertyOp25
 70
     0
102
RTVSPropertyOp26
 70
     0
102
RTVSPropertyOp27
 70
     0
  0
XRECORD
  5
64B
102
{ACAD_REACTORS
330
64A
102
}
330
64A
100
AcDbXrecord
280
     1
102
RTVSPropertyOp0
 70
     1
102
RTVSPropertyOp1
 70
     1
102
RTVSPropertyOp2
 70
     1
102
RTVSPropertyOp3
 70
     1
102
RTVSPropertyOp4
 70
     1
102
RTVSPropertyOp5
 70
     1
102
RTVSPropertyOp6
 70
     1
102
RTVSPropertyOp7
 70
     1
102
RTVSPropertyOp8
 70
     1
102
RTVSPropertyOp9
 70
     1
102
RTVSPropertyOp10
 70
     1
102
RTVSPropertyOp11
 70
     1
102
RTVSPropertyOp12
 70
     1
102
RTVSPropertyOp13
 70
     1
102
RTVSPropertyOp14
 70
     1
102
RTVSPropertyOp15
 70
     1
102
RTVSPropertyOp16
 70
     1
102
RTVSPropertyOp17
 70
     1
102
RTVSPropertyOp18
 70
     1
102
RTVSPropertyOp19
 70
     1
102
RTVSPropertyOp20
 70
     1
102
RTVSPropertyOp21
 70
     1
102
RTVSPropertyOp22
 70
     1
102
RTVSPropertyOp23
 70
     1
102
RTVSPropertyOp24
 70
     1
102
RTVSPropertyOp25
 70
     1
102
RTVSPropertyOp26
 70
     1
102
RTVSPropertyOp27
 70
     1
  0
XRECORD
  5
651
102
{ACAD_REACTORS
330
650
102
}
330
650
100
AcDbXrecord
280
     1
102
RTVSPropertyOp0
 70
     1
102
RTVSPropertyOp1
 70
     1
102
RTVSPropertyOp2
 70
     1
102
RTVSPropertyOp3
 70
     1
102
RTVSPropertyOp4
 70
     1
102
RTVSPropertyOp5
 70
     1
102
RTVSPropertyOp6
 70
     1
102
RTVSPropertyOp7
 70
     1
102
RTVSPropertyOp8
 70
     1
102
RTVSPropertyOp9
 70
     1
102
RTVSPropertyOp10
 70
     1
102
RTVSPropertyOp11
 70
     1
102
RTVSPropertyOp12
 70
     1
102
RTVSPropertyOp13
 70
     1
102
RTVSPropertyOp14
 70
     1
102
RTVSPropertyOp15
 70
     1
102
RTVSPropertyOp16
 70
     1
102
RTVSPropertyOp17
 70
     1
102
RTVSPropertyOp18
 70
     1
102
RTVSPropertyOp19
 70
     1
102
RTVSPropertyOp20
 70
     1
102
RTVSPropertyOp21
 70
     1
102
RTVSPropertyOp22
 70
     1
102
RTVSPropertyOp23
 70
     1
102
RTVSPropertyOp24
 70
     1
102
RTVSPropertyOp25
 70
     1
102
RTVSPropertyOp26
 70
     1
102
RTVSPropertyOp27
 70
     1
  0
ENDSEC
  0
EOF
