  0
SECTION
  2
HEADER
  9
$ACADVER
  1
AC1015
  9
$ACADMAINTVER
 70
    20
  9
$DWGCODEPAGE
  3
ANSI_932
  9
$INSBASE
 10
0.0
 20
0.0
 30
0.0
  9
$EXTMIN
 10
-21.9664437305306
 20
-9.995578412945178
 30
-0.00000001
  9
$EXTMAX
 10
379.3666677619876
 20
274.7568647384415
 30
0.00000001
  9
$LIMMIN
 10
-5.027069091796875
 20
-5.027082920074462
  9
$LIMMAX
 10
291.89892578125
 20
204.9462447166443
  9
$ORTHOMODE
 70
     1
  9
$REGENMODE
 70
     1
  9
$FILLMODE
 70
     1
  9
$QTEXTMODE
 70
     0
  9
$MIRRTEXT
 70
     0
  9
$LTSCALE
 40
1.0
  9
$ATTMODE
 70
     1
  9
$TEXTSIZE
 40
2.5
  9
$TRACEWID
 40
1.0
  9
$TEXTSTYLE
  7
STANDARD
  9
$CLAYER
  8
0
  9
$CELTYPE
  6
ByLayer
  9
$CECOLOR
 62
   256
  9
$CELTSCALE
 40
1.0
  9
$DISPSILH
 70
     0
  9
$DIMSCALE
 40
1.0
  9
$DIMASZ
 40
2.5
  9
$DIMEXO
 40
0.5
  9
$DIMDLI
 40
8.0
  9
$DIMRND
 40
0.0
  9
$DIMDLE
 40
0.0
  9
$DIMEXE
 40
1.0
  9
$DIMTP
 40
0.0
  9
$DIMTM
 40
0.0
  9
$DIMTXT
 40
3.5
  9
$DIMCEN
 40
0.0
  9
$DIMTSZ
 40
0.0
  9
$DIMTOL
 70
     0
  9
$DIMLIM
 70
     0
  9
$DIMTIH
 70
     0
  9
$DIMTOH
 70
     0
  9
$DIMSE1
 70
     0
  9
$DIMSE2
 70
     0
  9
$DIMTAD
 70
     3
  9
$DIMZIN
 70
     8
  9
$DIMBLK
  1
Open
  9
$DIMASO
 70
     1
  9
$DIMSHO
 70
     1
  9
$DIMPOST
  1

  9
$DIMAPOST
  1
"
  9
$DIMALT
 70
     0
  9
$DIMALTD
 70
     2
  9
$DIMALTF
 40
0.0393701
  9
$DIMLFAC
 40
1.0
  9
$DIMTOFL
 70
     1
  9
$DIMTVP
 40
0.0
  9
$DIMTIX
 70
     0
  9
$DIMSOXD
 70
     0
  9
$DIMSAH
 70
     0
  9
$DIMBLK1
  1

  9
$DIMBLK2
  1

  9
$DIMSTYLE
  2
AM_JIS
  9
$DIMCLRD
 70
   256
  9
$DIMCLRE
 70
   256
  9
$DIMCLRT
 70
   140
  9
$DIMTFAC
 40
0.55
  9
$DIMGAP
 40
0.8
  9
$DIMJUST
 70
     0
  9
$DIMSD1
 70
     0
  9
$DIMSD2
 70
     0
  9
$DIMTOLJ
 70
     0
  9
$DIMTZIN
 70
     8
  9
$DIMALTZ
 70
     0
  9
$DIMALTTZ
 70
     0
  9
$DIMUPT
 70
     0
  9
$DIMDEC
 70
     3
  9
$DIMTDEC
 70
     3
  9
$DIMALTU
 70
     2
  9
$DIMALTTD
 70
     2
  9
$DIMTXSTY
  7
STANDARD
  9
$DIMAUNIT
 70
     0
  9
$DIMADEC
 70
     0
  9
$DIMALTRND
 40
0.0
  9
$DIMAZIN
 70
     2
  9
$DIMDSEP
 70
    46
  9
$DIMATFIT
 70
     3
  9
$DIMFRAC
 70
     0
  9
$DIMLDRBLK
  1
Open
  9
$DIMLUNIT
 70
     2
  9
$DIMLWD
 70
    -1
  9
$DIMLWE
 70
    -1
  9
$DIMTMOVE
 70
     0
  9
$LUNITS
 70
     2
  9
$LUPREC
 70
     2
  9
$SKETCHINC
 40
1.0
  9
$FILLETRAD
 40
2.5
  9
$AUNITS
 70
     0
  9
$AUPREC
 70
     0
  9
$MENU
  1
.
  9
$ELEVATION
 40
0.0
  9
$PELEVATION
 40
0.0
  9
$THICKNESS
 40
0.0
  9
$LIMCHECK
 70
     0
  9
$CHAMFERA
 40
2.5
  9
$CHAMFERB
 40
2.5
  9
$CHAMFERC
 40
20.0
  9
$CHAMFERD
 40
0.0
  9
$SKPOLY
 70
     0
  9
$TDCREATE
 40
2456512.452534086
  9
$TDUCREATE
 40
2456512.077534086
  9
$TDUPDATE
 40
2457683.608166054
  9
$TDUUPDATE
 40
2457683.233166053
  9
$TDINDWG
 40
0.0290558218
  9
$TDUSRTIMER
 40
0.0290557870
  9
$USRTIMER
 70
     1
  9
$ANGBASE
 50
0.0
  9
$ANGDIR
 70
     0
  9
$PDMODE
 70
     0
  9
$PDSIZE
 40
0.0
  9
$PLINEWID
 40
0.0
  9
$SPLFRAME
 70
     0
  9
$SPLINETYPE
 70
     6
  9
$SPLINESEGS
 70
     8
  9
$HANDSEED
  5
102C
  9
$SURFTAB1
 70
     6
  9
$SURFTAB2
 70
     6
  9
$SURFTYPE
 70
     6
  9
$SURFU
 70
     6
  9
$SURFV
 70
     6
  9
$UCSBASE
  2

  9
$UCSNAME
  2

  9
$UCSORG
 10
0.0
 20
0.0
 30
0.0
  9
$UCSXDIR
 10
1.0
 20
0.0
 30
0.0
  9
$UCSYDIR
 10
0.0
 20
1.0
 30
0.0
  9
$UCSORTHOREF
  2

  9
$UCSORTHOVIEW
 70
     0
  9
$UCSORGTOP
 10
0.0
 20
0.0
 30
0.0
  9
$UCSORGBOTTOM
 10
0.0
 20
0.0
 30
0.0
  9
$UCSORGLEFT
 10
0.0
 20
0.0
 30
0.0
  9
$UCSORGRIGHT
 10
0.0
 20
0.0
 30
0.0
  9
$UCSORGFRONT
 10
0.0
 20
0.0
 30
0.0
  9
$UCSORGBACK
 10
0.0
 20
0.0
 30
0.0
  9
$PUCSBASE
  2

  9
$PUCSNAME
  2

  9
$PUCSORG
 10
0.0
 20
0.0
 30
0.0
  9
$PUCSXDIR
 10
1.0
 20
0.0
 30
0.0
  9
$PUCSYDIR
 10
0.0
 20
1.0
 30
0.0
  9
$PUCSORTHOREF
  2

  9
$PUCSORTHOVIEW
 70
     0
  9
$PUCSORGTOP
 10
0.0
 20
0.0
 30
0.0
  9
$PUCSORGBOTTOM
 10
0.0
 20
0.0
 30
0.0
  9
$PUCSORGLEFT
 10
0.0
 20
0.0
 30
0.0
  9
$PUCSORGRIGHT
 10
0.0
 20
0.0
 30
0.0
  9
$PUCSORGFRONT
 10
0.0
 20
0.0
 30
0.0
  9
$PUCSORGBACK
 10
0.0
 20
0.0
 30
0.0
  9
$USERI1
 70
     0
  9
$USERI2
 70
     0
  9
$USERI3
 70
     0
  9
$USERI4
 70
     0
  9
$USERI5
 70
     0
  9
$USERR1
 40
0.0
  9
$USERR2
 40
0.0
  9
$USERR3
 40
0.0
  9
$USERR4
 40
0.0
  9
$USERR5
 40
0.0
  9
$WORLDVIEW
 70
     1
  9
$SHADEDGE
 70
     3
  9
$SHADEDIF
 70
    70
  9
$TILEMODE
 70
     1
  9
$MAXACTVP
 70
    64
  9
$PINSBASE
 10
0.0
 20
0.0
 30
0.0
  9
$PLIMCHECK
 70
     0
  9
$PEXTMIN
 10
1.000000000000000E+20
 20
1.000000000000000E+20
 30
1.000000000000000E+20
  9
$PEXTMAX
 10
-1.000000000000000E+20
 20
-1.000000000000000E+20
 30
-1.000000000000000E+20
  9
$PLIMMIN
 10
0.0
 20
0.0
  9
$PLIMMAX
 10
12.0
 20
9.0
  9
$UNITMODE
 70
     0
  9
$VISRETAIN
 70
     1
  9
$PLINEGEN
 70
     0
  9
$PSLTSCALE
 70
     1
  9
$TREEDEPTH
 70
  3020
  9
$CMLSTYLE
  2
Standard
  9
$CMLJUST
 70
     0
  9
$CMLSCALE
 40
20.0
  9
$PROXYGRAPHICS
 70
     1
  9
$MEASUREMENT
 70
     1
  9
$CELWEIGHT
370
    -1
  9
$ENDCAPS
280
     0
  9
$JOINSTYLE
280
     0
  9
$LWDISPLAY
290
     0
  9
$INSUNITS
 70
     4
  9
$HYPERLINKBASE
  1

  9
$STYLESHEET
  1

  9
$XEDIT
290
     1
  9
$CEPSNTYPE
380
     0
  9
$PSTYLEMODE
290
     1
  9
$FINGERPRINTGUID
  2
{0DA4F147-F30F-4821-9587-9A3E0BC7DCF1}
  9
$VERSIONGUID
  2
{D08BD2DA-1029-4493-86ED-2E10677BC53F}
  9
$EXTNAMES
290
     1
  9
$PSVPSCALE
 40
0.0
  9
$OLESTARTUP
290
     0
  0
ENDSEC
  0
SECTION
  2
CLASSES
  0
CLASS
  1
ACDBDICTIONARYWDFLT
  2
AcDbDictionaryWithDefault
  3
ObjectDBX Classes
 90
        0
280
     0
281
     0
  0
CLASS
  1
MATERIAL
  2
AcDbMaterial
  3
ObjectDBX Classes
 90
     1153
280
     0
281
     0
  0
CLASS
  1
VISUALSTYLE
  2
AcDbVisualStyle
  3
ObjectDBX Classes
 90
     4095
280
     0
281
     0
  0
CLASS
  1
SCALE
  2
AcDbScale
  3
ObjectDBX Classes
 90
     1153
280
     0
281
     0
  0
CLASS
  1
TABLESTYLE
  2
AcDbTableStyle
  3
ObjectDBX Classes
 90
     4095
280
     0
281
     0
  0
CLASS
  1
MLEADERSTYLE
  2
AcDbMLeaderStyle
  3
ACDB_MLEADERSTYLE_CLASS
 90
     4095
280
     0
281
     0
  0
CLASS
  1
DIMASSOC
  2
AcDbDimAssoc
  3
"AcDbDimAssoc|Product Desc:     AcDim ARX App For Dimension|Company:          Autodesk, Inc.|WEB Address:      www.autodesk.com"
 90
        0
280
     0
281
     0
  0
CLASS
  1
SORTENTSTABLE
  2
AcDbSortentsTable
  3
ObjectDBX Classes
 90
        0
280
     0
281
     0
  0
CLASS
  1
DICTIONARYVAR
  2
AcDbDictionaryVar
  3
ObjectDBX Classes
 90
        0
280
     0
281
     0
  0
CLASS
  1
ACME_DOCUMENT
  2
AcMeDbDoc
  3
AcMeServices
 90
     1024
280
     0
281
     0
  0
CLASS
  1
AMGSETTINGSOBJ
  2
AmgSettingsObj
  3
"AcadM|Product Description: AutoCAD Mechanical|Company: Autodesk, Inc."
 90
     1024
280
     0
281
     0
  0
CLASS
  1
AMGOBJPROPCFG
  2
AmgObjPropCfg
  3
"AmgLay|Product Description: AutoCAD Mechanical|Company: Autodesk, Inc."
 90
     1025
280
     0
281
     0
  0
CLASS
  1
ACMESCOPE
  2
AcMeScope
  3
AcMeServices
 90
     1024
280
     0
281
     0
  0
CLASS
  1
ACGREFMASTER
  2
AcGrefMaster
  3
AcAttribServices
 90
     1024
280
     0
281
     0
  0
CLASS
  1
ACMECOMMANDHISTORY
  2
AcMeCommandHistory
  3
AcMeServices
 90
     1024
280
     0
281
     0
  0
CLASS
  1
ACIMSYSVARMAN
  2
AcImSysVarManager
  3
AcMeServices
 90
     1024
280
     0
281
     0
  0
CLASS
  1
ACIMINTSYSVAR
  2
AcImIntSysVar
  3
AcMeServices
 90
     1024
280
     0
281
     0
  0
CLASS
  1
ACMEDRAWINGMAN
  2
AcMeDrawingMan
  3
AcMeServices
 90
     1024
280
     0
281
     0
  0
CLASS
  1
ACMEVIEW
  2
AcMeView
  3
AcMeServices
 90
     1024
280
     0
281
     0
  0
CLASS
  1
ACDBENTITYCACHE
  2
AcMeEntityCache
  3
AcMeServices
 90
     1024
280
     0
281
     0
  0
CLASS
  1
ACMESTATEMGR
  2
AcMeStateMgr
  3
AcMeServices
 90
     1024
280
     0
281
     0
  0
CLASS
  1
AM_DRAWING_MGR
  2
AcDmDwgMgr
  3
AcMechDwgViewMgmt
 90
     1024
280
     0
281
     0
  0
CLASS
  1
AM_DWG_DOCUMENT
  2
AcDmDwgDocument
  3
AcMechDwgViewMgmt
 90
     1024
280
     0
281
     0
  0
CLASS
  1
AM_DWG_SHEET
  2
AcDmSheet
  3
AcMechDwgViewMgmt
 90
     1024
280
     0
281
     0
  0
CLASS
  1
AM_VIEWDIMPARMAP
  2
AcDmViewDimParMap
  3
AcMechDwgViewMgmt
 90
     1024
280
     0
281
     0
  0
CLASS
  1
AMDTINTERNALREACTOR
  2
AmdtInternalReactor
  3
AcMeServices
 90
     1024
280
     0
281
     0
  0
CLASS
  1
ACIMREALSYSVAR
  2
AcImRealSysVar
  3
AcMeServices
 90
     1024
280
     0
281
     0
  0
CLASS
  1
AM_DWGMGR_NAME
  2
AcDmDwgMgrName
  3
AcMechDwgViewMgmt
 90
     1024
280
     0
281
     0
  0
CLASS
  1
ACME_DATABASE
  2
AcMeDbDatabase
  3
AcMeServices
 90
     1024
280
     0
281
     0
  0
CLASS
  1
ACRFINSADJUSTERMGR
  2
AcRfInsAdjusterMgr
  3
AcMeServices
 90
     1024
280
     0
281
     0
  0
CLASS
  1
ACGREFACADMASTER
  2
AcGrefacadMaster
  3
AcGrefServices
 90
     1024
280
     0
281
     0
  0
CLASS
  1
AMDTMENUSTATEMGR
  2
AmdtMenuStateMgr
  3
McadcomServices
 90
     1024
280
     0
281
     0
  0
CLASS
  1
AMDTMCOMMENUSTATE
  2
AmdtMcomMenuState
  3
McadcomServices
 90
     1024
280
     0
281
     0
  0
CLASS
  1
AMIMASTER
  2
AmiMaster
  3
AmiServices
 90
     1024
280
     0
281
     0
  0
CLASS
  1
MAPIAMMOUDLE
  2
MApiAmModule
  3
MApiAmServices
 90
     1024
280
     0
281
     0
  0
CLASS
  1
AMDTWELDINGLIBRARY
  2
AmdtWeldingLibrary
  3
"AcmSymBB|Product Description: AutoCAD Mechanical|Company: Autodesk, Inc."
 90
    36863
280
     0
281
     0
  0
CLASS
  1
AMDTWELDINGLIBOBJECT
  2
AmdtWeldingLibObject
  3
"AcmSymBB|Product Description: AutoCAD Mechanical|Company: Autodesk, Inc."
 90
    36863
280
     0
281
     0
  0
CLASS
  1
AMDTEDGELIBRARY
  2
AmdtEdgeLibrary
  3
"AcmSymBB|Product Description: AutoCAD Mechanical|Company: Autodesk, Inc."
 90
    36863
280
     0
281
     0
  0
CLASS
  1
AMDTEDGELIBOBJECT
  2
AmdtEdgeLibObject
  3
"AcmSymBB|Product Description: AutoCAD Mechanical|Company: Autodesk, Inc."
 90
    36863
280
     0
281
     0
  0
CLASS
  1
AMDTFCFLIBRARY
  2
AmdtFCFLibrary
  3
"AcmSymBB|Product Description: AutoCAD Mechanical|Company: Autodesk, Inc."
 90
    36863
280
     0
281
     0
  0
CLASS
  1
AMDTFCFLIBOBJECT
  2
AmdtFCFLibObject
  3
"AcmSymBB|Product Description: AutoCAD Mechanical|Company: Autodesk, Inc."
 90
    36863
280
     0
281
     0
  0
CLASS
  1
ACMSTANDARDJIS
  2
AcmStandardJIS
  3
"Amdt_StdImp|Product Description: AutoCAD Mechanical|Company: Autodesk, Inc."
 90
     1024
280
     0
281
     0
  0
CLASS
  1
ACMSURFSTANDARDJIS2003
  2
AcmSurfTextStdJIS2003
  3
"Amdt_StdImp|Product Description: AutoCAD Mechanical|Company: Autodesk, Inc."
 90
     1024
280
     0
281
     0
  0
CLASS
  1
ACMFCFSTANDARDJIS98
  2
AcmFCFStdJIS98
  3
"Amdt_StdImp|Product Description: AutoCAD Mechanical|Company: Autodesk, Inc."
 90
     1024
280
     0
281
     0
  0
CLASS
  1
ACMWELDSTANDARDJIS
  2
AcmWeldingStdJIS
  3
"Amdt_StdImp|Product Description: AutoCAD Mechanical|Company: Autodesk, Inc."
 90
     1024
280
     0
281
     0
  0
CLASS
  1
ACMIDSTANDARDJIS
  2
AcmIdStdJIS
  3
"Amdt_StdImp|Product Description: AutoCAD Mechanical|Company: Autodesk, Inc."
 90
     1024
280
     0
281
     0
  0
CLASS
  1
ACMDATUMSTANDARDJIS
  2
AcmDatumStdJIS
  3
"Amdt_StdImp|Product Description: AutoCAD Mechanical|Company: Autodesk, Inc."
 90
     1024
280
     0
281
     0
  0
CLASS
  1
ACMBOMSTANDARDJIS
  2
AcmBOMStdJIS
  3
"Amdt_StdImp|Product Description: AutoCAD Mechanical|Company: Autodesk, Inc."
 90
     1024
280
     0
281
     0
  0
CLASS
  1
ACMDETAILSTANDARDJIS
  2
AmdtDetailSymStdJIS
  3
"Amdt_StdImp|Product Description: AutoCAD Mechanical|Company: Autodesk, Inc."
 90
     1024
280
     0
281
     0
  0
CLASS
  1
ACMSECTIONSTANDARDJIS
  2
AmdtSectionSymStdJIS
  3
"Amdt_StdImp|Product Description: AutoCAD Mechanical|Company: Autodesk, Inc."
 90
     1024
280
     0
281
     0
  0
CLASS
  1
ACMCENTERLINESTANDARDJIS
  2
AmdtCenterLineStdJIS
  3
"Amdt_StdImp|Product Description: AutoCAD Mechanical|Company: Autodesk, Inc."
 90
     1024
280
     0
281
     0
  0
CLASS
  1
ACMTHREADLINESTANDARDJIS
  2
AmdtThreadLineStdJIS
  3
"Amdt_StdImp|Product Description: AutoCAD Mechanical|Company: Autodesk, Inc."
 90
     1024
280
     0
281
     0
  0
CLASS
  1
ACAMGLAYSTD
  2
AcAmgLayStd
  3
"AmgLay|Product Description: AutoCAD Mechanical|Company: Autodesk, Inc."
 90
     1024
280
     0
281
     0
  0
CLASS
  1
ACAMGDIMSTD
  2
AcAmgDimStd
  3
"AmgDim|Product Description: AutoCAD Mechanical|Company: Autodesk, Inc."
 90
     1024
280
     0
281
     0
  0
CLASS
  1
ACAMGTITLESTD
  2
AcAmgTitleStd
  3
"AmgTitle|Product Description: AutoCAD Mechanical|Company: Autodesk, Inc."
 90
     4095
280
     0
281
     0
  0
CLASS
  1
ACMNOTESTANDARDJIS
  2
AmdtNoteStdJIS
  3
"Amdt_StdImp|Product Description: AutoCAD Mechanical|Company: Autodesk, Inc."
 90
     1024
280
     0
281
     0
  0
CLASS
  1
AMDTNOTETEMPLATEDB
  2
AmdtNoteTemplateDB
  3
AcmSymBB|Product Description: AutoCAD Mechanical|Company: Autodesk, Inc.
 90
     1024
280
     0
281
     0
  0
CLASS
  1
ACAMGHOLECHARTSTDJIS
  2
AcAmgHoleChartStdJIS
  3
AmgDim|Product Description: AutoCAD Mechanical|Company: Autodesk, Inc.
 90
     1024
280
     0
281
     0
  0
CLASS
  1
ACMTAPERSTANDARDJIS
  2
AcmTaperStdJIS
  3
"Amdt_StdImp|Product Description: AutoCAD Mechanical|Company: Autodesk, Inc."
 90
     1024
280
     0
281
     0
  0
CLASS
  1
ACMANOOTATIONVIEWSTANDARDJIS
  2
AmdtAnViewStdJIS
  3
"Amdt_StdImp|Product Description: AutoCAD Mechanical|Company: Autodesk, Inc."
 90
     1024
280
     0
281
     0
  0
CLASS
  1
AMDTEDGESTANDARDJIS
  2
AmdtEdgeStdJIS
  3
"Amdt_StdImp|Product Description: AutoCAD Mechanical|Company: Autodesk, Inc."
 90
     1024
280
     0
281
     0
  0
CLASS
  1
ACIMSTRSYSVAR
  2
AcImStrSysVar
  3
AcMeServices
 90
     1024
280
     0
281
     0
  0
CLASS
  1
AMDTADMENUSTATE
  2
AmdtAdMenuState
  3
DesignerServices
 90
     1024
280
     0
281
     0
  0
CLASS
  1
ADAPPL
  2
AcAdAppl
  3
DesignerServices
 90
     1024
280
     0
281
     0
  0
CLASS
  1
DEPMGR
  2
AcAdDepMgr
  3
DesignerServices
 90
     1024
280
     0
281
     0
  0
CLASS
  1
PARAMMGR
  2
AcAdParamMgr
  3
DesignerServices
 90
     1024
280
     0
281
     0
  0
CLASS
  1
PARAMSCOPE
  2
AcAdParamScope
  3
DesignerServices
 90
     1024
280
     0
281
     0
  0
CLASS
  1
NAMEDAPPL
  2
AcAdNamedAppl
  3
DesignerServices
 90
     1024
280
     0
281
     0
  0
CLASS
  1
AMDTDMMENUSTATE
  2
AmdtDmMenuState
  3
AcMechDwgViewMgmt
 90
     1024
280
     0
281
     0
  0
CLASS
  1
AMDTAMMENUSTATE
  2
AmdtAmMenuState
  3
DesignerAssemblies
 90
     1024
280
     0
281
     0
  0
CLASS
  1
ACAMPROJECT
  2
AcAmProject
  3
DesignerAssemblies
 90
     1024
280
     0
281
     0
  0
CLASS
  1
ACAMGRCOMPDEF
  2
AcAmGrCompDef
  3
DesignerAssemblies
 90
     1024
280
     0
281
     0
  0
CLASS
  1
ACAMCOMPDEF
  2
AcAmCompDef
  3
DesignerAssemblies
 90
     1024
280
     0
281
     0
  0
CLASS
  1
ACAMCOMPDEFMGR
  2
AcAmCompDefMgr
  3
DesignerAssemblies
 90
     1024
280
     0
281
     0
  0
CLASS
  1
AMCONTEXTMGR
  2
AcAmContextMgr
  3
DesignerAssemblies
 90
     1024
280
     0
281
     0
  0
CLASS
  1
ACAMCONTEXTMODELER
  2
AcAmContextModeler
  3
DesignerAssemblies
 90
     1024
280
     0
281
     0
  0
CLASS
  1
ACMDATADICTIONARY
  2
AcmDataDictionary
  3
"AcmSymBB|Product Description: AutoCAD Mechanical|Company: Autodesk, Inc."
 90
     1024
280
     0
281
     0
  0
CLASS
  1
CATALOGSTATE
  2
AcAmCatalogState
  3
DesignerAssemblies
 90
     1024
280
     0
281
     0
  0
CLASS
  1
ACAMGRCOMPDEFSET
  2
AcAmGrCompDefSet
  3
DesignerAssemblies
 90
     1024
280
     0
281
     0
  0
CLASS
  1
AMDTBROWSERDBTAB
  2
AmdtBrowserDbTab
  3
McadcomServices
 90
     1024
280
     0
281
     0
  0
CLASS
  1
CBROWSERAPPOBJECT
  2
CBrowserAppObject
  3
McadcomServices
 90
     1024
280
     0
281
     0
  0
CLASS
  1
DM_PLACEHOLDER
  2
AcDmSelsetPlaceholder
  3
AcMechDwgViewMgmt
 90
     1024
280
     0
281
     0
  0
CLASS
  1
EXACXREFPANELOBJECT
  2
ExAcXREFPanelObject
  3
EXAC_ESW
 90
    33793
280
     0
281
     0
  0
CLASS
  1
NPOCOLLECTION
  2
AcDbImpNonPersistentObjectsCollection
  3
ObjectDBX Classes
 90
    33921
280
     0
281
     0
  0
CLASS
  1
ACAMGFILTERDAT
  2
AcAmgFilterDat
  3
"AcadM|Product Description: AutoCAD Mechanical|Company: Autodesk, Inc."
 90
    33792
280
     0
281
     0
  0
CLASS
  1
CELLSTYLEMAP
  2
AcDbCellStyleMap
  3
ObjectDBX Classes
 90
     1152
280
     0
281
     0
  0
CLASS
  1
ACDBPLACEHOLDER
  2
AcDbPlaceHolder
  3
ObjectDBX Classes
 90
        0
280
     0
281
     0
  0
CLASS
  1
LAYOUT
  2
AcDbLayout
  3
ObjectDBX Classes
 90
        0
280
     0
281
     0
  0
CLASS
  1
ACMSTANDARDISO
  2
AcmStandardISO
  3
"Amdt_StdImp|Product Description: AutoCAD Mechanical|Company: Autodesk, Inc."
 90
     1024
280
     0
281
     0
  0
CLASS
  1
AMDTEDGESTANDARDISO13715
  2
AmdtEdgeStdISO13715
  3
"Amdt_StdImp|Product Description: AutoCAD Mechanical|Company: Autodesk, Inc."
 90
     1024
280
     0
281
     0
  0
CLASS
  1
ACMSURFSTANDARDISO2002
  2
AcmSurfTextStdISO2002
  3
"Amdt_StdImp|Product Description: AutoCAD Mechanical|Company: Autodesk, Inc."
 90
     1024
280
     0
281
     0
  0
CLASS
  1
ACMFCFSTANDARDISO
  2
AcmFCFStdISO
  3
"Amdt_StdImp|Product Description: AutoCAD Mechanical|Company: Autodesk, Inc."
 90
     1024
280
     0
281
     0
  0
CLASS
  1
ACMWELDSTANDARDISO
  2
AcmWeldingStdISO
  3
"Amdt_StdImp|Product Description: AutoCAD Mechanical|Company: Autodesk, Inc."
 90
     1024
280
     0
281
     0
  0
CLASS
  1
ACMIDSTANDARDISO
  2
AcmIdStdISO
  3
"Amdt_StdImp|Product Description: AutoCAD Mechanical|Company: Autodesk, Inc."
 90
     1024
280
     0
281
     0
  0
CLASS
  1
ACMDATUMSTANDARDISO
  2
AcmDatumStdISO
  3
"Amdt_StdImp|Product Description: AutoCAD Mechanical|Company: Autodesk, Inc."
 90
     1024
280
     0
281
     0
  0
CLASS
  1
ACMBOMSTANDARDISO
  2
AcmBOMStdISO
  3
"Amdt_StdImp|Product Description: AutoCAD Mechanical|Company: Autodesk, Inc."
 90
     1024
280
     0
281
     0
  0
CLASS
  1
ACMDETAILSTANDARDISO
  2
AmdtDetailSymStdISO
  3
"Amdt_StdImp|Product Description: AutoCAD Mechanical|Company: Autodesk, Inc."
 90
     1024
280
     0
281
     0
  0
CLASS
  1
ACMSECTIONSTANDARDISO2001
  2
AmdtSectionSymStdISO2001
  3
"Amdt_StdImp|Product Description: AutoCAD Mechanical|Company: Autodesk, Inc."
 90
     1024
280
     0
281
     0
  0
CLASS
  1
ACMCENTERLINESTANDARDISO
  2
AmdtCenterLineStdISO
  3
"Amdt_StdImp|Product Description: AutoCAD Mechanical|Company: Autodesk, Inc."
 90
     1024
280
     0
281
     0
  0
CLASS
  1
ACMTHREADLINESTANDARDISO
  2
AmdtThreadLineStdISO
  3
"Amdt_StdImp|Product Description: AutoCAD Mechanical|Company: Autodesk, Inc."
 90
     1024
280
     0
281
     0
  0
CLASS
  1
ACMNOTESTANDARDISO
  2
AmdtNoteStdISO
  3
"Amdt_StdImp|Product Description: AutoCAD Mechanical|Company: Autodesk, Inc."
 90
     1024
280
     0
281
     0
  0
CLASS
  1
ACMTAPERSTANDARDISO
  2
AcmTaperStdISO
  3
"Amdt_StdImp|Product Description: AutoCAD Mechanical|Company: Autodesk, Inc."
 90
     1024
280
     0
281
     0
  0
CLASS
  1
ACMANOOTATIONVIEWSTANDARDISO
  2
AmdtAnViewStdISO
  3
"Amdt_StdImp|Product Description: AutoCAD Mechanical|Company: Autodesk, Inc."
 90
     1024
280
     0
281
     0
  0
CLASS
  1
ACAMGHOLECHARTSTDISO
  2
AcAmgHoleChartStdISO
  3
AmgDim|Product Description: AutoCAD Mechanical|Company: Autodesk, Inc.
 90
     1024
280
     0
281
     0
  0
CLASS
  1
AMDTNOTE
  2
AmdtNote
  3
"AcmSymBB|Product Description: AutoCAD Mechanical|Company: Autodesk, Inc."
 90
     4095
280
     0
281
     1
  0
CLASS
  1
ACDBCIRCARCRES
  2
AcDbCircArcRes
  3
AcGrefServices
 90
     1024
280
     0
281
     0
  0
CLASS
  1
ACMDATAENTRYBLOCK
  2
AcmDataEntryBlock
  3
AcmSymBB|Product Description: AutoCAD Mechanical|Company: Autodesk, Inc.
 90
     1024
280
     0
281
     0
  0
ENDSEC
  0
SECTION
  2
TABLES
  0
TABLE
  2
VPORT
  5
8
330
0
100
AcDbSymbolTable
 70
     1
  0
VPORT
  5
52
330
8
100
AcDbSymbolTableRecord
100
AcDbViewportTableRecord
  2
*Active
 70
     0
 10
0.0
 20
0.0
 11
1.0
 21
1.0
 12
187.7231951877245
 22
15.9170877133898
 13
0.0
 23
0.0
 14
10.0
 24
10.0
 15
10.0
 25
10.0
 16
0.0
 26
0.0
 36
1.0
 17
0.0
 27
0.0
 37
0.0
 40
245.8257823833808
 41
2.107986501687288
 42
50.0
 43
0.0
 44
0.0
 50
0.0
 51
0.0
 71
     0
 72
  1000
 73
     1
 74
     1
 75
     0
 76
     0
 77
     0
 78
     0
281
     0
 65
     0
110
0.0
120
0.0
130
0.0
111
1.0
121
0.0
131
0.0
112
0.0
122
1.0
132
0.0
 79
     0
146
0.0
  0
ENDTAB
  0
TABLE
  2
LTYPE
  5
5
330
0
100
AcDbSymbolTable
 70
    21
  0
LTYPE
  5
56
330
5
100
AcDbSymbolTableRecord
100
AcDbLinetypeTableRecord
  2
ByBlock
 70
     0
  3

 72
    65
 73
     0
 40
0.0
  0
LTYPE
  5
57
330
5
100
AcDbSymbolTableRecord
100
AcDbLinetypeTableRecord
  2
ByLayer
 70
     0
  3

 72
    65
 73
     0
 40
0.0
  0
LTYPE
  5
58
330
5
100
AcDbSymbolTableRecord
100
AcDbLinetypeTableRecord
  2
Continuous
 70
     0
  3
Solid line
 72
    65
 73
     0
 40
0.0
  0
LTYPE
  5
93
330
5
100
AcDbSymbolTableRecord
100
AcDbLinetypeTableRecord
  2
AM_ISO02W050
 70
     0
  3
__ __ __ __ __ __ __ __ __ __ __ __ __ __ __
 72
    65
 73
     2
 40
7.5
 49
6.0
 74
     0
 49
-1.5
 74
     0
  0
LTYPE
  5
94
330
5
100
AcDbSymbolTableRecord
100
AcDbLinetypeTableRecord
  2
AM_ISO08W050
 70
     0
  3
____ . ____ . ____ . ____ . ____ . ____ . ____
 72
    65
 73
     4
 40
18.0
 49
12.0
 74
     0
 49
-1.5
 74
     0
 49
3.0
 74
     0
 49
-1.5
 74
     0
  0
LTYPE
  5
95
330
5
100
AcDbSymbolTableRecord
100
AcDbLinetypeTableRecord
  2
AM_ISO09W050
 70
     0
  3
_____ . . _____ . . _____ . . ____ .. ____
 72
    65
 73
     6
 40
22.5
 49
12.0
 74
     0
 49
-1.5
 74
     0
 49
3.0
 74
     0
 49
-1.5
 74
     0
 49
3.0
 74
     0
 49
-1.5
 74
     0
  0
LTYPE
  5
96
330
5
100
AcDbSymbolTableRecord
100
AcDbLinetypeTableRecord
  2
Amconstr
 70
     0
  3
_______________________
 72
    65
 73
     2
 40
9999.0
 49
9999.0
 74
     0
 49
0.0
 74
     0
  0
LTYPE
  5
97
330
5
100
AcDbSymbolTableRecord
100
AcDbLinetypeTableRecord
  2
AM_ISO08W050x2
 70
     0
  3
__ . __ . __ . __ . __ . __
 72
    65
 73
     4
 40
9.0
 49
6.0
 74
     0
 49
-0.75
 74
     0
 49
1.5
 74
     0
 49
-0.75
 74
     0
  0
LTYPE
  5
98
330
5
100
AcDbSymbolTableRecord
100
AcDbLinetypeTableRecord
  2
AM_ISO02W050x2
 70
     0
  3
 _ _ _ _ _ _ _ _ _ _ _ _
 72
    65
 73
     2
 40
3.75
 49
3.0
 74
     0
 49
-0.75
 74
     0
  0
LTYPE
  5
99
330
5
100
AcDbSymbolTableRecord
100
AcDbLinetypeTableRecord
  2
Amzigzag
 70
     0
  3
/\/-/\/-/\/-/\/-/\/-/\/
 72
    65
 73
     2
 40
11.0001
 49
0.0001
 74
     4
 75
   136
340
8A
 46
0.04
 50
0.0
 44
0.0
 45
0.0
 49
-11.0
 74
     0
  0
LTYPE
  5
9A
330
5
100
AcDbSymbolTableRecord
100
AcDbLinetypeTableRecord
  2
ACJISTGB
 70
     0
  3
__ . . __ . .
 72
    65
 73
     6
 40
9.0
 49
4.0
 74
     0
 49
-1.0
 74
     0
 49
1.0
 74
     0
 49
-1.0
 74
     0
 49
1.0
 74
     0
 49
-1.0
 74
     0
  0
LTYPE
  5
9B
330
5
100
AcDbSymbolTableRecord
100
AcDbLinetypeTableRecord
  2
ACJISTGL
 70
     0
  3
_ _ _ _ _
 72
    65
 73
     2
 40
3.0
 49
2.0
 74
     0
 49
-1.0
 74
     0
  0
LTYPE
  5
9C
330
5
100
AcDbSymbolTableRecord
100
AcDbLinetypeTableRecord
  2
HIDDEN
 70
     0
  3
Hidden __ __ __ __ __ __ __ __ __ __ __ __ __ _
 72
    65
 73
     2
 40
9.524999999999996
 49
6.349999999999998
 74
     0
 49
-3.174999999999998
 74
     0
  0
LTYPE
  5
9D
330
5
100
AcDbSymbolTableRecord
100
AcDbLinetypeTableRecord
  2
ACJISWELD
 70
     0
  3
_ _ _ _ _
 72
    65
 73
     2
 40
2.0
 49
2.0
 74
     0
 49
-1.0
 74
     0
  0
LTYPE
  5
9E
330
5
100
AcDbSymbolTableRecord
100
AcDbLinetypeTableRecord
  2
DASH_DOT
 70
     0
  3
Dash dot __ . __ . __ . __ . __ . __ . __ . __
 72
    65
 73
     4
 40
0.37
 49
0.24
 74
     0
 49
-0.06
 74
     0
 49
0.01
 74
     0
 49
-0.06
 74
     0
  0
LTYPE
  5
9F
330
5
100
AcDbSymbolTableRecord
100
AcDbLinetypeTableRecord
  2
PHANTOM2
 70
     0
  3
Phantom (.5x) ___ _ _ ___ _ _ ___ _ _ ___ _ _
 72
    65
 73
     6
 40
31.75
 49
15.875
 74
     0
 49
-3.174999999999998
 74
     0
 49
3.174999999999998
 74
     0
 49
-3.174999999999998
 74
     0
 49
3.174999999999998
 74
     0
 49
-3.174999999999998
 74
     0
  0
LTYPE
  5
A0
330
5
100
AcDbSymbolTableRecord
100
AcDbLinetypeTableRecord
  2
CENTER
 70
     0
  3
Center ____ _ ____ _ ____ _ ____ _ ____ _ ____
 72
    65
 73
     4
 40
50.8
 49
31.75
 74
     0
 49
-6.349999999999998
 74
     0
 49
6.349999999999998
 74
     0
 49
-6.349999999999998
 74
     0
  0
LTYPE
  5
67A
330
5
100
AcDbSymbolTableRecord
100
AcDbLinetypeTableRecord
  2
ACISOWELD
 70
     0
  3
_ _ _ _ _
 72
    65
 73
     2
 40
2.0
 49
2.0
 74
     0
 49
-1.0
 74
     0
  0
LTYPE
  5
67B
330
5
100
AcDbSymbolTableRecord
100
AcDbLinetypeTableRecord
  2
ACISOTGB
 70
     0
  3
__ . . __ . .
 72
    65
 73
     6
 40
9.0
 49
4.0
 74
     0
 49
-1.0
 74
     0
 49
1.0
 74
     0
 49
-1.0
 74
     0
 49
1.0
 74
     0
 49
-1.0
 74
     0
  0
LTYPE
  5
67C
330
5
100
AcDbSymbolTableRecord
100
AcDbLinetypeTableRecord
  2
ACISOTGL
 70
     0
  3
_ _ _ _ _
 72
    65
 73
     2
 40
3.0
 49
2.0
 74
     0
 49
-1.0
 74
     0
  0
LTYPE
  5
781
330
5
100
AcDbSymbolTableRecord
100
AcDbLinetypeTableRecord
  2
CENTERX2
 70
     0
  3
Center (2x) ________  __  ________  __  _____
 72
    65
 73
     4
 40
20.32
 49
12.7
 74
     0
 49
-2.54
 74
     0
 49
2.54
 74
     0
 49
-2.54
 74
     0
  0
ENDTAB
  0
TABLE
  2
LAYER
  5
2
102
{ACAD_XDICTIONARY
360
782
102
}
330
0
100
AcDbSymbolTable
 70
     9
  0
LAYER
  5
4F
102
{ACAD_XDICTIONARY
360
5AD
102
}
330
2
100
AcDbSymbolTableRecord
100
AcDbLayerTableRecord
  2
0
 70
     0
 62
     7
  6
Continuous
370
    -3
390
F
1001
AcAecLayerStandard
1000

1000

  0
LAYER
  5
70
330
2
100
AcDbSymbolTableRecord
100
AcDbLayerTableRecord
  2
Defpoints
 70
     0
 62
     7
  6
Continuous
290
     0
370
    -3
390
F
1001
AcAecLayerStandard
1000

1000

  0
LAYER
  5
C8
102
{ACAD_XDICTIONARY
360
C9
102
}
330
2
100
AcDbSymbolTableRecord
100
AcDbLayerTableRecord
  2
AM_VIEWS
 70
     0
 62
     1
  6
Continuous
290
     0
370
    25
390
F
1001
AcAecLayerStandard
1000

1000

  0
LAYER
  5
D1
102
{ACAD_XDICTIONARY
360
D2
102
}
330
2
100
AcDbSymbolTableRecord
100
AcDbLayerTableRecord
  2
AM_5
 70
     0
 62
    92
  6
Continuous
370
    13
390
F
1001
AcAecLayerStandard
1000

1000

  0
LAYER
  5
F0
102
{ACAD_XDICTIONARY
360
F1
102
}
330
2
100
AcDbSymbolTableRecord
100
AcDbLayerTableRecord
  2
AM_0
 70
     0
 62
     7
  6
Continuous
370
    35
390
F
  0
LAYER
  5
187
102
{ACAD_XDICTIONARY
360
188
102
}
330
2
100
AcDbSymbolTableRecord
100
AcDbLayerTableRecord
  2
AM_7
 70
     0
 62
   142
  6
AM_ISO08W050x2
370
    13
390
F
1001
AcAecLayerStandard
1000

1000

  0
LAYER
  5
248
102
{ACAD_XDICTIONARY
360
5AF
102
}
330
2
100
AcDbSymbolTableRecord
100
AcDbLayerTableRecord
  2
Viewport2ForCustomObjects_0
 70
     0
 62
     7
  6
Continuous
370
    -3
390
F
  0
LAYER
  5
E7C
102
{ACAD_XDICTIONARY
360
E7D
102
}
330
2
100
AcDbSymbolTableRecord
100
AcDbLayerTableRecord
  2
AM_1
 70
     0
 62
    14
  6
Continuous
370
    50
390
F
1001
AcAecLayerStandard
1000

1000

  0
LAYER
  5
E7E
102
{ACAD_XDICTIONARY
360
E7F
102
}
330
2
100
AcDbSymbolTableRecord
100
AcDbLayerTableRecord
  2
AM_6
 70
     0
 62
   140
  6
Continuous
370
    35
390
F
1001
AcAecLayerStandard
1000

1000

  0
ENDTAB
  0
TABLE
  2
STYLE
  5
3
330
0
100
AcDbSymbolTable
 70
    14
  0
STYLE
  5
50
330
3
100
AcDbSymbolTableRecord
100
AcDbTextStyleTableRecord
  2
STANDARD
 70
     0
 40
0.0
 41
1.0
 50
0.0
 71
     0
 42
2.5
  3
TAHOMA.TTF
  4

1001
ACAD
1000
Tahoma
1071
       34
  0
STYLE
  5
55
330
3
100
AcDbSymbolTableRecord
100
AcDbTextStyleTableRecord
  2
Annotative
 70
     0
 40
0.0
 41
1.0
 50
0.0
 71
     0
 42
0.2
  3
txt
  4

1001
AcadAnnotative
1000
AnnotativeData
1002
{
1070
     1
1070
     1
1002
}
  0
STYLE
  5
89
330
3
100
AcDbSymbolTableRecord
100
AcDbTextStyleTableRecord
  2
ACJISGDT
 70
     0
 40
0.0
 41
1.0
 50
0.0
 71
     0
 42
2.5
  3
amgdt.shx
  4
extfont2.shx
  0
STYLE
  5
8A
330
3
100
AcDbSymbolTableRecord
100
AcDbTextStyleTableRecord
  2

 70
     1
 40
0.0
 41
1.0
 50
0.0
 71
     0
 42
2.5
  3
genltshp.shx
  4

  0
STYLE
  5
8B
330
3
100
AcDbSymbolTableRecord
100
AcDbTextStyleTableRecord
  2
Note Text (JIS)
 70
     0
 40
0.0
 41
1.0
 50
0.0
 71
     0
 42
0.2
  3
TAHOMA.TTF
  4

1001
ACAD
1000
Tahoma
1071
      256
  0
STYLE
  5
8C
330
3
100
AcDbSymbolTableRecord
100
AcDbTextStyleTableRecord
  2
CustomTextStyle0
 70
     0
 40
3.5
 41
1.0
 50
0.0
 71
     0
 42
2.5
  3
TAHOMA.TTF
  4

1001
ACAD
1000
Tahoma
1071
      290
  0
STYLE
  5
8D
330
3
100
AcDbSymbolTableRecord
100
AcDbTextStyleTableRecord
  2
CustomTextStyle1
 70
     0
 40
3.5
 41
1.0
 50
0.0
 71
     0
 42
2.5
  3
MS PGothic.ttf
  4

1001
ACAD
1000
MS PGothic
1071
      306
  0
STYLE
  5
8E
330
3
100
AcDbSymbolTableRecord
100
AcDbTextStyleTableRecord
  2
CustomTextStyle2
 70
     0
 40
3.5
 41
1.0
 50
0.0
 71
     0
 42
2.5
  3
MS PGothic.ttf
  4

1001
ACAD
1000
MS PGothic
1071
      306
  0
STYLE
  5
8F
330
3
100
AcDbSymbolTableRecord
100
AcDbTextStyleTableRecord
  2
CustomTextStyle3
 70
     0
 40
3.5
 41
1.0
 50
0.0
 71
     0
 42
2.5
  3
MS PGothic.ttf
  4

1001
ACAD
1000
MS PGothic
1071
      306
  0
STYLE
  5
90
330
3
100
AcDbSymbolTableRecord
100
AcDbTextStyleTableRecord
  2
CustomTextStyle4
 70
     0
 40
3.5
 41
1.0
 50
0.0
 71
     0
 42
2.5
  3
TAHOMA.TTF
  4

1001
ACAD
1000
Tahoma
1071
      290
  0
STYLE
  5
91
330
3
100
AcDbSymbolTableRecord
100
AcDbTextStyleTableRecord
  2
CustomTextStyle5
 70
     0
 40
3.5
 41
1.0
 50
0.0
 71
     0
 42
2.5
  3
MS PGothic.ttf
  4

1001
ACAD
1000
MS PGothic
1071
      306
  0
STYLE
  5
92
330
3
100
AcDbSymbolTableRecord
100
AcDbTextStyleTableRecord
  2
CustomTextStyle6
 70
     0
 40
3.5
 41
1.0
 50
0.0
 71
     0
 42
2.5
  3
TAHOMA.TTF
  4

1001
ACAD
1000
Tahoma
1071
      290
  0
STYLE
  5
678
330
3
100
AcDbSymbolTableRecord
100
AcDbTextStyleTableRecord
  2
ACISOTS
 70
     0
 40
1.0
 41
1.0
 50
0.0
 71
     0
 42
2.5
  3
isocp.shx
  4
extfont.shx
  0
STYLE
  5
679
330
3
100
AcDbSymbolTableRecord
100
AcDbTextStyleTableRecord
  2
ACISOGDT
 70
     0
 40
0.0
 41
1.0
 50
0.0
 71
     0
 42
2.5
  3
amgdt.shx
  4

  0
ENDTAB
  0
TABLE
  2
VIEW
  5
6
330
0
100
AcDbSymbolTable
 70
     0
  0
ENDTAB
  0
TABLE
  2
UCS
  5
7
330
0
100
AcDbSymbolTable
 70
     0
  0
ENDTAB
  0
TABLE
  2
APPID
  5
9
330
0
100
AcDbSymbolTable
 70
    44
  0
APPID
  5
51
330
9
100
AcDbSymbolTableRecord
100
AcDbRegAppTableRecord
  2
ACAD
 70
     0
  0
APPID
  5
59
330
9
100
AcDbSymbolTableRecord
100
AcDbRegAppTableRecord
  2
AcadAnnotative
 70
     0
  0
APPID
  5
6F
330
9
100
AcDbSymbolTableRecord
100
AcDbRegAppTableRecord
  2
ACAD_PSEXT
 70
     0
  0
APPID
  5
71
330
9
100
AcDbSymbolTableRecord
100
AcDbRegAppTableRecord
  2
ACAD_DSTYLE_DIMJOGGED_JOGANGLE_SYMBOL
 70
     0
  0
APPID
  5
72
330
9
100
AcDbSymbolTableRecord
100
AcDbRegAppTableRecord
  2
ACAD_DSTYLE_DIMJAG
 70
     0
  0
APPID
  5
73
330
9
100
AcDbSymbolTableRecord
100
AcDbRegAppTableRecord
  2
ACAD_DSTYLE_DIMBREAK
 70
     0
  0
APPID
  5
74
330
9
100
AcDbSymbolTableRecord
100
AcDbRegAppTableRecord
  2
AcAecLayerStandard
 70
     0
  0
APPID
  5
75
330
9
100
AcDbSymbolTableRecord
100
AcDbRegAppTableRecord
  2
GENIUS_GENREC_14
 70
     0
  0
APPID
  5
76
330
9
100
AcDbSymbolTableRecord
100
AcDbRegAppTableRecord
  2
GENIUS_GENODEF_13
 70
     0
  0
APPID
  5
77
330
9
100
AcDbSymbolTableRecord
100
AcDbRegAppTableRecord
  2
GENIUS_GENOBJ-N-REC_13
 70
     0
  0
APPID
  5
78
330
9
100
AcDbSymbolTableRecord
100
AcDbRegAppTableRecord
  2
ACAD_DSTYLE_DIMTALN
 70
     0
  0
APPID
  5
79
330
9
100
AcDbSymbolTableRecord
100
AcDbRegAppTableRecord
  2
GENIUS_GENOENT_13
 70
     0
  0
APPID
  5
7A
330
9
100
AcDbSymbolTableRecord
100
AcDbRegAppTableRecord
  2
GENIUS_GENOBJ-N-FITL_13
 70
     0
  0
APPID
  5
7B
330
9
100
AcDbSymbolTableRecord
100
AcDbRegAppTableRecord
  2
GENIUS_GENOLIS_13
 70
     0
  0
APPID
  5
7C
330
9
100
AcDbSymbolTableRecord
100
AcDbRegAppTableRecord
  2
GENIUS_GENFITL_13
 70
     0
  0
APPID
  5
7D
330
9
100
AcDbSymbolTableRecord
100
AcDbRegAppTableRecord
  2
GENIUS_GENOREF_13
 70
     0
  0
APPID
  5
7E
330
9
100
AcDbSymbolTableRecord
100
AcDbRegAppTableRecord
  2
GENIUS_GENOBJ-N-RSSYM_13
 70
     0
  0
APPID
  5
7F
330
9
100
AcDbSymbolTableRecord
100
AcDbRegAppTableRecord
  2
GENIUS_GENSYMENT_13
 70
     0
  0
APPID
  5
80
330
9
100
AcDbSymbolTableRecord
100
AcDbRegAppTableRecord
  2
ACAD_DSTYLE_DIMINSPECT
 70
     0
  0
APPID
  5
81
330
9
100
AcDbSymbolTableRecord
100
AcDbRegAppTableRecord
  2
GENIUS_GENSCREG_15
 70
     0
  0
APPID
  5
82
330
9
100
AcDbSymbolTableRecord
100
AcDbRegAppTableRecord
  2
GENIUS_GENOBJ-N-SDF_13
 70
     0
  0
APPID
  5
83
330
9
100
AcDbSymbolTableRecord
100
AcDbRegAppTableRecord
  2
GENIUS_GENOBJ-N-CRS_13
 70
     0
  0
APPID
  5
84
330
9
100
AcDbSymbolTableRecord
100
AcDbRegAppTableRecord
  2
AcDbDynamicBlockGUID
 70
     0
  0
APPID
  5
85
330
9
100
AcDbSymbolTableRecord
100
AcDbRegAppTableRecord
  2
GENIUS_AMGTXT_16
 70
     0
  0
APPID
  5
86
330
9
100
AcDbSymbolTableRecord
100
AcDbRegAppTableRecord
  2
GENIUS_GENOBJ-N-CEN_13
 70
     0
  0
APPID
  5
87
330
9
100
AcDbSymbolTableRecord
100
AcDbRegAppTableRecord
  2
GENIUS_GENCEN_19
 70
     0
  0
APPID
  5
88
330
9
100
AcDbSymbolTableRecord
100
AcDbRegAppTableRecord
  2
ACATTRIBSERVICES
 70
     0
  0
APPID
  5
500
330
9
100
AcDbSymbolTableRecord
100
AcDbRegAppTableRecord
  2
MCAD_NO_VIS
 70
     0
  0
APPID
  5
501
330
9
100
AcDbSymbolTableRecord
100
AcDbRegAppTableRecord
  2
ACAD_TEMP_GRAPHIC
 70
     0
  0
APPID
  5
502
330
9
100
AcDbSymbolTableRecord
100
AcDbRegAppTableRecord
  2
AD_DRAW
 70
     0
  0
APPID
  5
503
330
9
100
AcDbSymbolTableRecord
100
AcDbRegAppTableRecord
  2
DESIGNERASSEMBLIES
 70
     0
  0
APPID
  5
504
330
9
100
AcDbSymbolTableRecord
100
AcDbRegAppTableRecord
  2
ACADM_DIM_EDIT
 70
     0
  0
APPID
  5
505
330
9
100
AcDbSymbolTableRecord
100
AcDbRegAppTableRecord
  2
AMDT_DM_ADJ
 70
     0
  0
APPID
  5
506
330
9
100
AcDbSymbolTableRecord
100
AcDbRegAppTableRecord
  2
ACAD_DSTYLE_DIMARC_LENGTH_SYMBOL
 70
     0
  0
APPID
  5
507
330
9
100
AcDbSymbolTableRecord
100
AcDbRegAppTableRecord
  2
ACAD_MLEADERVER
 70
     0
  0
APPID
  5
508
330
9
100
AcDbSymbolTableRecord
100
AcDbRegAppTableRecord
  2
ACAD_EXEMPT_FROM_CAD_STANDARDS
 70
     0
  0
APPID
  5
509
330
9
100
AcDbSymbolTableRecord
100
AcDbRegAppTableRecord
  2
AcadAnnoPO
 70
     0
  0
APPID
  5
50A
330
9
100
AcDbSymbolTableRecord
100
AcDbRegAppTableRecord
  2
GENIUS_GENTRA_14
 70
     0
  0
APPID
  5
50B
330
9
100
AcDbSymbolTableRecord
100
AcDbRegAppTableRecord
  2
GENIUS_GENSCSYM_13
 70
     0
  0
APPID
  5
50C
330
9
100
AcDbSymbolTableRecord
100
AcDbRegAppTableRecord
  2
ACAD_DSTYLE_DIMRADIAL_EXTENSION
 70
     0
  0
APPID
  5
5F6
330
9
100
AcDbSymbolTableRecord
100
AcDbRegAppTableRecord
  2
ACAD_DSTYLE_DIM_LINETYPE
 70
     0
  0
APPID
  5
5F7
330
9
100
AcDbSymbolTableRecord
100
AcDbRegAppTableRecord
  2
ACAD_DSTYLE_DIM_EXT1_LINETYPE
 70
     0
  0
APPID
  5
5F8
330
9
100
AcDbSymbolTableRecord
100
AcDbRegAppTableRecord
  2
ACAD_DSTYLE_DIM_EXT2_LINETYPE
 70
     0
  0
APPID
  5
101D
330
9
100
AcDbSymbolTableRecord
100
AcDbRegAppTableRecord
  2
ACAD_DSTYLE_DIMFLIPARROW_WHICH_SYMBOL
 70
     0
  0
ENDTAB
  0
TABLE
  2
DIMSTYLE
  5
A
330
0
100
AcDbSymbolTable
 70
    20
100
AcDbDimStyleTable
 71
     1
340
A2
  0
DIMSTYLE
105
53
330
A
100
AcDbSymbolTableRecord
100
AcDbDimStyleTableRecord
  2
Standard
 70
     0
340
50
  0
DIMSTYLE
105
54
330
A
100
AcDbSymbolTableRecord
100
AcDbDimStyleTableRecord
  2
Annotative
 70
     0
340
50
1001
AcadAnnotative
1000
AnnotativeData
1002
{
1070
     1
1070
     1
1002
}
  0
DIMSTYLE
105
A1
330
A
100
AcDbSymbolTableRecord
100
AcDbDimStyleTableRecord
  2
ISO-25
 70
     0
 41
2.5
 42
0.625
 43
3.75
 44
1.25
 73
     0
 74
     0
 77
     1
 78
     8
140
2.5
141
2.5
143
0.03937007874016
147
0.625
171
     3
172
     1
271
     2
272
     2
274
     3
278
    44
283
     0
284
     8
340
50
  0
DIMSTYLE
105
A2
330
A
100
AcDbSymbolTableRecord
100
AcDbDimStyleTableRecord
  2
AM_JIS
 70
     0
  4
"
 41
2.5
 42
0.5
 43
8.0
 44
1.0
 47
0.1
 48
0.1000000001
 73
     0
 74
     0
 77
     3
 78
     8
 79
     2
140
3.5
141
0.0
143
0.0393701
146
0.55
147
0.8
172
     1
176
   256
177
   256
178
   140
271
     3
272
     3
283
     0
284
     8
340
50
341
A3
342
A3
371
    -1
372
    -1
1001
ACAD_DSTYLE_DIMJOGGED_JOGANGLE_SYMBOL
1070
   384
1040
0.7853981633974483
1001
ACAD_DSTYLE_DIMBREAK
1070
   391
1040
3.75
1001
ACAD_DSTYLE_DIMJAG
1070
   388
1040
1.5
1001
ACAD_DSTYLE_DIMTALN
1070
   392
1070
     0
1001
ACAD_DSTYLE_DIMARC_LENGTH_SYMBOL
1070
   379
1070
     1
1001
ACAD_DSTYLE_DIM_LINETYPE
1070
   380
1005
56
1001
ACAD_DSTYLE_DIM_EXT1_LINETYPE
1070
   381
1005
56
1001
ACAD_DSTYLE_DIM_EXT2_LINETYPE
1070
   382
1005
56
  0
DIMSTYLE
105
A9
330
A
100
AcDbSymbolTableRecord
100
AcDbDimStyleTableRecord
  2
AM_JIS$3
 70
     0
  4
"
 41
2.5
 42
0.5
 43
8.0
 44
1.0
 47
0.1
 48
0.1000000001
 73
     0
 77
     3
 78
     8
 79
     2
140
3.5
141
0.0
143
0.0393701
146
0.55
147
0.8
176
   256
177
   256
178
   140
271
     3
272
     3
283
     0
284
     8
288
     1
289
     0
340
50
341
A3
342
A3
371
    -1
372
    -1
1001
ACAD_DSTYLE_DIMJOGGED_JOGANGLE_SYMBOL
1070
   384
1040
0.7853981633974483
1001
ACAD_DSTYLE_DIMBREAK
1070
   391
1040
3.75
1001
ACAD_DSTYLE_DIMJAG
1070
   388
1040
1.5
1001
ACAD_DSTYLE_DIMTALN
1070
   392
1070
     0
1001
ACAD_DSTYLE_DIMARC_LENGTH_SYMBOL
1070
   379
1070
     1
1001
ACAD_DSTYLE_DIM_LINETYPE
1070
   380
1005
56
1001
ACAD_DSTYLE_DIM_EXT1_LINETYPE
1070
   381
1005
56
1001
ACAD_DSTYLE_DIM_EXT2_LINETYPE
1070
   382
1005
56
  0
DIMSTYLE
105
AA
330
A
100
AcDbSymbolTableRecord
100
AcDbDimStyleTableRecord
  2
AM_JIS$4
 70
     0
  4
"
 41
2.5
 42
0.5
 43
8.0
 44
1.0
 47
0.1
 48
0.1000000001
 73
     0
 74
     0
 77
     3
 78
     8
 79
     2
140
3.5
141
0.0
143
0.0393701
146
0.55
147
0.8
172
     1
176
   256
177
   256
178
   140
271
     3
272
     3
283
     0
284
     8
340
50
341
A3
342
A3
371
    -1
372
    -1
1001
ACAD_DSTYLE_DIMJOGGED_JOGANGLE_SYMBOL
1070
   384
1040
0.7853981633974483
1001
ACAD_DSTYLE_DIMBREAK
1070
   391
1040
3.75
1001
ACAD_DSTYLE_DIMJAG
1070
   388
1040
1.5
1001
ACAD_DSTYLE_DIMTALN
1070
   392
1070
     0
1001
ACAD_DSTYLE_DIMARC_LENGTH_SYMBOL
1070
   379
1070
     1
1001
ACAD_DSTYLE_DIM_LINETYPE
1070
   380
1005
56
1001
ACAD_DSTYLE_DIM_EXT1_LINETYPE
1070
   381
1005
56
1001
ACAD_DSTYLE_DIM_EXT2_LINETYPE
1070
   382
1005
56
  0
DIMSTYLE
105
AB
330
A
100
AcDbSymbolTableRecord
100
AcDbDimStyleTableRecord
  2
AM_JIS$6
 70
     0
  4
"
 41
2.5
 42
0.5
 43
8.0
 44
1.0
 47
0.1
 48
0.1000000001
 73
     0
 74
     0
 78
     8
 79
     2
140
3.5
141
0.0
143
0.0393701
146
0.55
147
0.8
172
     1
176
   256
177
   256
178
   140
271
     3
272
     3
283
     0
284
     8
340
50
341
A3
342
A3
371
    -1
372
    -1
1001
ACAD_DSTYLE_DIMJOGGED_JOGANGLE_SYMBOL
1070
   384
1040
0.7853981633974483
1001
ACAD_DSTYLE_DIMBREAK
1070
   391
1040
3.75
1001
ACAD_DSTYLE_DIMJAG
1070
   388
1040
1.5
1001
ACAD_DSTYLE_DIMTALN
1070
   392
1070
     0
1001
ACAD_DSTYLE_DIMARC_LENGTH_SYMBOL
1070
   379
1070
     1
1001
ACAD_DSTYLE_DIM_LINETYPE
1070
   380
1005
56
1001
ACAD_DSTYLE_DIM_EXT1_LINETYPE
1070
   381
1005
56
1001
ACAD_DSTYLE_DIM_EXT2_LINETYPE
1070
   382
1005
56
  0
DIMSTYLE
105
AC
330
A
100
AcDbSymbolTableRecord
100
AcDbDimStyleTableRecord
  2
AM_JIS$7
 70
     0
  4
"
 41
2.5
 42
0.5
 43
8.0
 44
1.0
 47
0.1
 48
0.1000000001
 73
     0
 74
     0
 77
     3
 78
     8
 79
     2
140
3.5
141
0.0
143
0.0393701
146
0.55
147
0.8
172
     1
176
   256
177
   256
178
   140
271
     3
272
     3
283
     0
284
     8
340
50
341
A3
342
A3
371
    -1
372
    -1
1001
ACAD_DSTYLE_DIMJOGGED_JOGANGLE_SYMBOL
1070
   384
1040
0.7853981633974483
1001
ACAD_DSTYLE_DIMBREAK
1070
   391
1040
3.75
1001
ACAD_DSTYLE_DIMJAG
1070
   388
1040
1.5
1001
ACAD_DSTYLE_DIMTALN
1070
   392
1070
     0
1001
ACAD_DSTYLE_DIMARC_LENGTH_SYMBOL
1070
   379
1070
     1
1001
ACAD_DSTYLE_DIM_LINETYPE
1070
   380
1005
56
1001
ACAD_DSTYLE_DIM_EXT1_LINETYPE
1070
   381
1005
56
1001
ACAD_DSTYLE_DIM_EXT2_LINETYPE
1070
   382
1005
56
  0
DIMSTYLE
105
AD
330
A
100
AcDbSymbolTableRecord
100
AcDbDimStyleTableRecord
  2
AM_JIS$SF
 70
     0
  4
"
 41
2.5
 42
0.5
 43
8.0
 44
1.0
 47
0.1
 48
0.1000000001
 73
     0
 74
     0
 75
     1
 76
     1
 77
     3
 78
     8
 79
     2
140
3.5
141
0.0
143
0.0393701
146
0.55
147
0.8
172
     1
176
   256
177
   256
178
   140
271
     3
272
     3
283
     0
284
     8
340
50
341
A3
342
A3
371
    -1
372
    -1
1001
ACAD_DSTYLE_DIMJOGGED_JOGANGLE_SYMBOL
1070
   384
1040
0.7853981633974483
1001
ACAD_DSTYLE_DIMBREAK
1070
   391
1040
3.75
1001
ACAD_DSTYLE_DIMJAG
1070
   388
1040
1.5
1001
ACAD_DSTYLE_DIMTALN
1070
   392
1070
     0
1001
ACAD_DSTYLE_DIMARC_LENGTH_SYMBOL
1070
   379
1070
     1
1001
ACAD_DSTYLE_DIM_LINETYPE
1070
   380
1005
56
1001
ACAD_DSTYLE_DIM_EXT1_LINETYPE
1070
   381
1005
56
1001
ACAD_DSTYLE_DIM_EXT2_LINETYPE
1070
   382
1005
56
  0
DIMSTYLE
105
AE
330
A
100
AcDbSymbolTableRecord
100
AcDbDimStyleTableRecord
  2
AM_JIS$SH
 70
     0
  4
"
 41
2.5
 42
0.5
 43
8.0
 44
1.0
 47
0.1
 48
0.1000000001
 73
     0
 74
     0
 75
     1
 76
     1
 77
     3
 78
     8
 79
     2
140
3.5
141
0.0
143
0.0393701
144
2.0
146
0.55
147
0.8
172
     1
173
     1
176
   256
177
   256
178
   140
271
     3
272
     3
283
     0
284
     8
340
50
341
A3
342
A3
343
AF
371
    -1
372
    -1
1001
ACAD_DSTYLE_DIMJOGGED_JOGANGLE_SYMBOL
1070
   384
1040
0.7853981633974483
1001
ACAD_DSTYLE_DIMBREAK
1070
   391
1040
3.75
1001
ACAD_DSTYLE_DIMJAG
1070
   388
1040
1.5
1001
ACAD_DSTYLE_DIMTALN
1070
   392
1070
     0
1001
ACAD_DSTYLE_DIMARC_LENGTH_SYMBOL
1070
   379
1070
     1
1001
ACAD_DSTYLE_DIM_LINETYPE
1070
   380
1005
56
1001
ACAD_DSTYLE_DIM_EXT1_LINETYPE
1070
   381
1005
56
1001
ACAD_DSTYLE_DIM_EXT2_LINETYPE
1070
   382
1005
56
  0
DIMSTYLE
105
B3
102
{ACAD_REACTORS
330
A44
330
A6F
330
A72
330
A75
330
A78
330
A7B
330
A7E
330
A81
330
A84
330
A87
330
C3A
330
E13
330
E2D
102
}
330
A
100
AcDbSymbolTableRecord
100
AcDbDimStyleTableRecord
  2
AM_JIS$0
 70
     0
  4
"
 41
2.5
 42
0.5
 43
8.0
 44
1.0
 47
0.1
 48
0.1000000001
 73
     0
 74
     0
 77
     3
 78
     8
 79
     2
140
3.5
141
0.0
143
0.0393701
146
0.55
147
0.8
172
     1
176
   256
177
   256
178
   140
271
     3
272
     3
283
     0
284
     8
340
50
341
A3
342
A3
371
    -1
372
    -1
1001
ACAD_DSTYLE_DIMBREAK
1070
   391
1040
3.75
1001
ACAD_DSTYLE_DIMJAG
1070
   388
1040
1.5
1001
ACAD_DSTYLE_DIMTALN
1070
   392
1070
     0
1001
ACAD_DSTYLE_DIMARC_LENGTH_SYMBOL
1070
   379
1070
     1
1001
ACAD_DSTYLE_DIM_LINETYPE
1070
   380
1005
56
1001
ACAD_DSTYLE_DIM_EXT1_LINETYPE
1070
   381
1005
56
1001
ACAD_DSTYLE_DIM_EXT2_LINETYPE
1070
   382
1005
56
  0
DIMSTYLE
105
B4
330
A
100
AcDbSymbolTableRecord
100
AcDbDimStyleTableRecord
  2
AM_JIS$2
 70
     0
  4
"
 41
2.5
 42
0.5
 43
8.0
 44
1.0
 47
0.1
 48
0.1000000001
 73
     0
 74
     0
 77
     3
 78
     8
 79
     2
140
3.5
141
0.0
143
0.0393701
146
0.55
147
0.8
172
     1
176
   256
177
   256
178
   140
271
     3
272
     3
283
     0
284
     8
340
50
341
A3
342
A3
371
    -1
372
    -1
1001
ACAD_DSTYLE_DIMJOGGED_JOGANGLE_SYMBOL
1070
   384
1040
0.7853981633974483
1001
ACAD_DSTYLE_DIMBREAK
1070
   391
1040
3.75
1001
ACAD_DSTYLE_DIMJAG
1070
   388
1040
1.5
1001
ACAD_DSTYLE_DIMTALN
1070
   392
1070
     0
1001
ACAD_DSTYLE_DIMARC_LENGTH_SYMBOL
1070
   379
1070
     1
1001
ACAD_DSTYLE_DIM_LINETYPE
1070
   380
1005
56
1001
ACAD_DSTYLE_DIM_EXT1_LINETYPE
1070
   381
1005
56
1001
ACAD_DSTYLE_DIM_EXT2_LINETYPE
1070
   382
1005
56
  0
DIMSTYLE
105
66E
102
{ACAD_REACTORS
330
65D
102
}
330
A
100
AcDbSymbolTableRecord
100
AcDbDimStyleTableRecord
  2
AM_ISO
 70
     0
  4
"
 41
3.5
 42
1.0
 43
10.0
 44
1.0
 47
0.1
 48
0.1
 73
     0
 74
     0
 77
     1
 78
     8
 79
     2
140
3.5
141
0.0
143
0.0393701
146
0.71
147
1.5
172
     1
176
   256
177
   256
178
   140
271
     2
272
     3
274
     4
283
     0
284
     8
340
50
371
    -1
372
    -1
1001
ACAD_DSTYLE_DIMJAG
1070
   388
1040
1.5
1001
ACAD_DSTYLE_DIMBREAK
1070
   391
1040
3.75
1001
ACAD_DSTYLE_DIMARC_LENGTH_SYMBOL
1070
   379
1070
     1
1001
ACAD_DSTYLE_DIM_LINETYPE
1070
   380
1005
56
1001
ACAD_DSTYLE_DIM_EXT1_LINETYPE
1070
   381
1005
56
1001
ACAD_DSTYLE_DIM_EXT2_LINETYPE
1070
   382
1005
56
  0
DIMSTYLE
105
670
330
A
100
AcDbSymbolTableRecord
100
AcDbDimStyleTableRecord
  2
AM_ISO$3
 70
     0
  4
"
 41
3.5
 42
1.0
 43
10.0
 44
1.0
 47
0.1
 48
0.1
 73
     0
 77
     1
 78
     8
 79
     2
140
3.5
141
0.0
143
0.0393701
146
0.71
147
1.5
176
   256
177
   256
178
   140
271
     2
272
     3
274
     4
283
     0
284
     8
288
     1
289
     0
340
50
371
    -1
372
    -1
1001
ACAD_DSTYLE_DIMBREAK
1070
   391
1040
3.75
1001
ACAD_DSTYLE_DIMJAG
1070
   388
1040
1.5
1001
ACAD_DSTYLE_DIMARC_LENGTH_SYMBOL
1070
   379
1070
     1
1001
ACAD_DSTYLE_DIM_LINETYPE
1070
   380
1005
56
1001
ACAD_DSTYLE_DIM_EXT1_LINETYPE
1070
   381
1005
56
1001
ACAD_DSTYLE_DIM_EXT2_LINETYPE
1070
   382
1005
56
  0
DIMSTYLE
105
671
330
A
100
AcDbSymbolTableRecord
100
AcDbDimStyleTableRecord
  2
AM_ISO$4
 70
     0
  4
"
 41
3.5
 42
1.0
 43
10.0
 44
1.0
 47
0.1
 48
0.1
 73
     0
 77
     1
 78
     8
 79
     2
140
3.5
141
0.0
143
0.0393701
146
0.71
147
1.5
176
   256
177
   256
178
   140
271
     2
272
     3
274
     4
283
     0
284
     8
288
     1
289
     0
340
50
371
    -1
372
    -1
1001
ACAD_DSTYLE_DIMBREAK
1070
   391
1040
3.75
1001
ACAD_DSTYLE_DIMJAG
1070
   388
1040
1.5
1001
ACAD_DSTYLE_DIMARC_LENGTH_SYMBOL
1070
   379
1070
     1
1001
ACAD_DSTYLE_DIM_LINETYPE
1070
   380
1005
56
1001
ACAD_DSTYLE_DIM_EXT1_LINETYPE
1070
   381
1005
56
1001
ACAD_DSTYLE_DIM_EXT2_LINETYPE
1070
   382
1005
56
  0
DIMSTYLE
105
672
330
A
100
AcDbSymbolTableRecord
100
AcDbDimStyleTableRecord
  2
AM_ISO$6
 70
     0
  4
"
 41
3.5
 42
1.0
 43
10.0
 44
1.0
 47
0.1
 48
0.1
 73
     0
 74
     0
 78
     8
 79
     2
140
3.5
141
0.0
143
0.0393701
146
0.71
147
1.5
172
     1
176
   256
177
   256
178
   140
271
     2
272
     3
274
     4
283
     0
284
     8
340
50
371
    -1
372
    -1
1001
ACAD_DSTYLE_DIMBREAK
1070
   391
1040
3.75
1001
ACAD_DSTYLE_DIMJAG
1070
   388
1040
1.5
1001
ACAD_DSTYLE_DIMARC_LENGTH_SYMBOL
1070
   379
1070
     1
1001
ACAD_DSTYLE_DIM_LINETYPE
1070
   380
1005
56
1001
ACAD_DSTYLE_DIM_EXT1_LINETYPE
1070
   381
1005
56
1001
ACAD_DSTYLE_DIM_EXT2_LINETYPE
1070
   382
1005
56
  0
DIMSTYLE
105
673
330
A
100
AcDbSymbolTableRecord
100
AcDbDimStyleTableRecord
  2
AM_ISO$7
 70
     0
  4
"
 41
3.5
 42
1.0
 43
10.0
 44
1.0
 47
0.1
 48
0.1
 73
     0
 74
     0
 77
     1
 78
     8
 79
     2
140
3.5
141
0.0
143
0.0393701
146
0.71
147
1.5
172
     1
176
   256
177
   256
178
   140
271
     2
272
     3
274
     4
283
     0
284
     8
340
50
371
    -1
372
    -1
1001
ACAD_DSTYLE_DIMBREAK
1070
   391
1040
3.75
1001
ACAD_DSTYLE_DIMJAG
1070
   388
1040
1.5
1001
ACAD_DSTYLE_DIMARC_LENGTH_SYMBOL
1070
   379
1070
     1
1001
ACAD_DSTYLE_DIM_LINETYPE
1070
   380
1005
56
1001
ACAD_DSTYLE_DIM_EXT1_LINETYPE
1070
   381
1005
56
1001
ACAD_DSTYLE_DIM_EXT2_LINETYPE
1070
   382
1005
56
  0
DIMSTYLE
105
674
330
A
100
AcDbSymbolTableRecord
100
AcDbDimStyleTableRecord
  2
AM_ISO$SF
 70
     0
  4
"
 41
3.5
 42
1.0
 43
10.0
 44
1.0
 47
0.1
 48
0.1
 73
     0
 74
     0
 75
     1
 76
     1
 77
     1
 78
     8
 79
     2
140
3.5
141
0.0
143
0.0393701
146
0.71
147
1.5
172
     1
176
   256
177
   256
178
   140
271
     2
272
     3
274
     4
283
     0
284
     8
340
50
371
    -1
372
    -1
1001
ACAD_DSTYLE_DIMBREAK
1070
   391
1040
3.75
1001
ACAD_DSTYLE_DIMJAG
1070
   388
1040
1.5
1001
ACAD_DSTYLE_DIMARC_LENGTH_SYMBOL
1070
   379
1070
     1
1001
ACAD_DSTYLE_DIM_LINETYPE
1070
   380
1005
56
1001
ACAD_DSTYLE_DIM_EXT1_LINETYPE
1070
   381
1005
56
1001
ACAD_DSTYLE_DIM_EXT2_LINETYPE
1070
   382
1005
56
  0
DIMSTYLE
105
675
330
A
100
AcDbSymbolTableRecord
100
AcDbDimStyleTableRecord
  2
AM_ISO$SH
 70
     0
  4
"
 41
3.5
 42
1.0
 43
10.0
 44
1.0
 47
0.1
 48
0.1
 73
     0
 74
     0
 75
     1
 76
     1
 77
     1
 78
     8
 79
     2
140
3.5
141
0.0
143
0.0393701
144
2.0
146
0.71
147
1.5
172
     1
173
     1
176
   256
177
   256
178
   140
271
     2
272
     3
274
     4
283
     0
284
     8
340
50
343
AF
371
    -1
372
    -1
1001
ACAD_DSTYLE_DIMBREAK
1070
   391
1040
3.75
1001
ACAD_DSTYLE_DIMJAG
1070
   388
1040
1.5
1001
ACAD_DSTYLE_DIMARC_LENGTH_SYMBOL
1070
   379
1070
     1
1001
ACAD_DSTYLE_DIM_LINETYPE
1070
   380
1005
56
1001
ACAD_DSTYLE_DIM_EXT1_LINETYPE
1070
   381
1005
56
1001
ACAD_DSTYLE_DIM_EXT2_LINETYPE
1070
   382
1005
56
  0
ENDTAB
  0
TABLE
  2
BLOCK_RECORD
  5
1
330
0
100
AcDbSymbolTable
 70
    71
  0
BLOCK_RECORD
  5
67
102
{ACAD_XDICTIONARY
360
47B
102
}
330
1
100
AcDbSymbolTableRecord
100
AcDbBlockTableRecord
  2
*Model_Space
340
6A
  0
BLOCK_RECORD
  5
63
330
1
100
AcDbSymbolTableRecord
100
AcDbBlockTableRecord
  2
*Paper_Space
340
66
  0
BLOCK_RECORD
  5
6B
330
1
100
AcDbSymbolTableRecord
100
AcDbBlockTableRecord
  2
*Paper_Space0
340
6E
  0
BLOCK_RECORD
  5
A3
330
1
100
AcDbSymbolTableRecord
100
AcDbBlockTableRecord
  2
_Open
340
0
102
{BLKREFS
331
4E3
331
4E2
331
4D9
331
4D8
331
4CE
331
4CD
331
4C5
331
4C4
331
4BC
331
4BB
331
4B2
331
4B1
331
4A9
331
4A8
331
4A0
331
49F
331
495
331
494
331
48C
331
48B
331
481
331
480
331
CEE
331
CEF
331
D50
331
D51
331
E0D
331
E0E
331
F40
331
F41
331
F4B
331
F4C
331
F54
331
F55
331
F5F
331
F60
331
F68
331
F69
331
F71
331
F72
331
F7C
331
F7D
331
F85
331
F86
331
F8E
331
F8F
331
F99
331
F9A
331
FA4
331
FA5
331
FAE
331
FAF
331
FB7
331
FB8
102
}
  0
BLOCK_RECORD
  5
AF
330
1
100
AcDbSymbolTableRecord
100
AcDbBlockTableRecord
  2
GENAXEH
340
0
  0
BLOCK_RECORD
  5
249
330
1
100
AcDbSymbolTableRecord
100
AcDbBlockTableRecord
  2
CustomObjectsInViewport2_0
340
0
  0
BLOCK_RECORD
  5
283
330
1
100
AcDbSymbolTableRecord
100
AcDbBlockTableRecord
  2
*D4
340
0
  0
BLOCK_RECORD
  5
28F
330
1
100
AcDbSymbolTableRecord
100
AcDbBlockTableRecord
  2
*D5
340
0
  0
BLOCK_RECORD
  5
29D
330
1
100
AcDbSymbolTableRecord
100
AcDbBlockTableRecord
  2
*D6
340
0
  0
BLOCK_RECORD
  5
2A9
330
1
100
AcDbSymbolTableRecord
100
AcDbBlockTableRecord
  2
*D7
340
0
  0
BLOCK_RECORD
  5
2B7
330
1
100
AcDbSymbolTableRecord
100
AcDbBlockTableRecord
  2
*D8
340
0
  0
BLOCK_RECORD
  5
2C3
330
1
100
AcDbSymbolTableRecord
100
AcDbBlockTableRecord
  2
*D9
340
0
  0
BLOCK_RECORD
  5
2CF
330
1
100
AcDbSymbolTableRecord
100
AcDbBlockTableRecord
  2
*D10
340
0
  0
BLOCK_RECORD
  5
2DC
330
1
100
AcDbSymbolTableRecord
100
AcDbBlockTableRecord
  2
*D11
340
0
  0
BLOCK_RECORD
  5
2E8
330
1
100
AcDbSymbolTableRecord
100
AcDbBlockTableRecord
  2
*D12
340
0
  0
BLOCK_RECORD
  5
2F4
330
1
100
AcDbSymbolTableRecord
100
AcDbBlockTableRecord
  2
*D13
340
0
  0
BLOCK_RECORD
  5
302
330
1
100
AcDbSymbolTableRecord
100
AcDbBlockTableRecord
  2
*D14
340
0
  0
BLOCK_RECORD
  5
6BC
330
1
100
AcDbSymbolTableRecord
100
AcDbBlockTableRecord
  2
_Open30
340
0
102
{BLKREFS
331
6C7
331
6C8
331
6D5
331
6D6
331
6E1
331
6E4
331
6F3
331
6F4
331
6FF
331
702
331
70F
331
710
331
71D
331
71E
331
72B
331
72C
331
737
331
738
331
743
331
746
331
754
331
755
331
760
331
761
331
76E
331
76F
331
77A
331
77B
331
9B2
331
9B3
331
9BD
331
9BE
331
9C6
331
9C9
331
9D5
331
9D6
331
9DE
331
9E1
331
9EB
331
9EC
331
9F6
331
9F7
331
A01
331
A02
331
A0A
331
A0B
331
A13
331
A16
331
A21
331
A22
331
A2A
331
A2B
331
A35
331
A36
331
A3E
331
A3F
102
}
  0
BLOCK_RECORD
  5
6C2
330
1
100
AcDbSymbolTableRecord
100
AcDbBlockTableRecord
  2
*D17
340
0
  0
BLOCK_RECORD
  5
6CE
330
1
100
AcDbSymbolTableRecord
100
AcDbBlockTableRecord
  2
*D18
340
0
  0
BLOCK_RECORD
  5
6DC
330
1
100
AcDbSymbolTableRecord
100
AcDbBlockTableRecord
  2
*D19
340
0
  0
BLOCK_RECORD
  5
6EC
330
1
100
AcDbSymbolTableRecord
100
AcDbBlockTableRecord
  2
*D20
340
0
  0
BLOCK_RECORD
  5
6FA
330
1
100
AcDbSymbolTableRecord
100
AcDbBlockTableRecord
  2
*D21
340
0
  0
BLOCK_RECORD
  5
70A
330
1
100
AcDbSymbolTableRecord
100
AcDbBlockTableRecord
  2
*D22
340
0
  0
BLOCK_RECORD
  5
716
330
1
100
AcDbSymbolTableRecord
100
AcDbBlockTableRecord
  2
*D23
340
0
  0
BLOCK_RECORD
  5
724
330
1
100
AcDbSymbolTableRecord
100
AcDbBlockTableRecord
  2
*D24
340
0
  0
BLOCK_RECORD
  5
732
330
1
100
AcDbSymbolTableRecord
100
AcDbBlockTableRecord
  2
*D25
340
0
  0
BLOCK_RECORD
  5
73E
330
1
100
AcDbSymbolTableRecord
100
AcDbBlockTableRecord
  2
*D26
340
0
  0
BLOCK_RECORD
  5
74E
330
1
100
AcDbSymbolTableRecord
100
AcDbBlockTableRecord
  2
*D27
340
0
  0
BLOCK_RECORD
  5
75B
330
1
100
AcDbSymbolTableRecord
100
AcDbBlockTableRecord
  2
*D28
340
0
  0
BLOCK_RECORD
  5
767
330
1
100
AcDbSymbolTableRecord
100
AcDbBlockTableRecord
  2
*D29
340
0
  0
BLOCK_RECORD
  5
775
330
1
100
AcDbSymbolTableRecord
100
AcDbBlockTableRecord
  2
*D30
340
0
  0
BLOCK_RECORD
  5
8F0
330
1
100
AcDbSymbolTableRecord
100
AcDbBlockTableRecord
  2
*D32
340
0
  0
BLOCK_RECORD
  5
8FC
330
1
100
AcDbSymbolTableRecord
100
AcDbBlockTableRecord
  2
*D33
340
0
  0
BLOCK_RECORD
  5
90A
330
1
100
AcDbSymbolTableRecord
100
AcDbBlockTableRecord
  2
*D34
340
0
  0
BLOCK_RECORD
  5
91A
330
1
100
AcDbSymbolTableRecord
100
AcDbBlockTableRecord
  2
*D35
340
0
  0
BLOCK_RECORD
  5
928
330
1
100
AcDbSymbolTableRecord
100
AcDbBlockTableRecord
  2
*D36
340
0
  0
BLOCK_RECORD
  5
938
330
1
100
AcDbSymbolTableRecord
100
AcDbBlockTableRecord
  2
*D37
340
0
  0
BLOCK_RECORD
  5
944
330
1
100
AcDbSymbolTableRecord
100
AcDbBlockTableRecord
  2
*D38
340
0
  0
BLOCK_RECORD
  5
952
330
1
100
AcDbSymbolTableRecord
100
AcDbBlockTableRecord
  2
*D39
340
0
  0
BLOCK_RECORD
  5
960
330
1
100
AcDbSymbolTableRecord
100
AcDbBlockTableRecord
  2
*D40
340
0
  0
BLOCK_RECORD
  5
96C
330
1
100
AcDbSymbolTableRecord
100
AcDbBlockTableRecord
  2
*D41
340
0
  0
BLOCK_RECORD
  5
97C
330
1
100
AcDbSymbolTableRecord
100
AcDbBlockTableRecord
  2
*D42
340
0
  0
BLOCK_RECORD
  5
989
330
1
100
AcDbSymbolTableRecord
100
AcDbBlockTableRecord
  2
*D43
340
0
  0
BLOCK_RECORD
  5
995
330
1
100
AcDbSymbolTableRecord
100
AcDbBlockTableRecord
  2
*D44
340
0
  0
BLOCK_RECORD
  5
9A3
330
1
100
AcDbSymbolTableRecord
100
AcDbBlockTableRecord
  2
*D45
340
0
  0
BLOCK_RECORD
  5
A48
330
1
100
AcDbSymbolTableRecord
100
AcDbBlockTableRecord
  2
*D46
340
0
  0
BLOCK_RECORD
  5
A8A
330
1
100
AcDbSymbolTableRecord
100
AcDbBlockTableRecord
  2
*D47
340
0
  0
BLOCK_RECORD
  5
A98
330
1
100
AcDbSymbolTableRecord
100
AcDbBlockTableRecord
  2
*D48
340
0
  0
BLOCK_RECORD
  5
AA4
330
1
100
AcDbSymbolTableRecord
100
AcDbBlockTableRecord
  2
*D49
340
0
  0
BLOCK_RECORD
  5
AB2
330
1
100
AcDbSymbolTableRecord
100
AcDbBlockTableRecord
  2
*D50
340
0
  0
BLOCK_RECORD
  5
ABE
330
1
100
AcDbSymbolTableRecord
100
AcDbBlockTableRecord
  2
*D51
340
0
  0
BLOCK_RECORD
  5
ACA
330
1
100
AcDbSymbolTableRecord
100
AcDbBlockTableRecord
  2
*D52
340
0
  0
BLOCK_RECORD
  5
AD7
330
1
100
AcDbSymbolTableRecord
100
AcDbBlockTableRecord
  2
*D53
340
0
  0
BLOCK_RECORD
  5
AE3
330
1
100
AcDbSymbolTableRecord
100
AcDbBlockTableRecord
  2
*D54
340
0
  0
BLOCK_RECORD
  5
AEF
330
1
100
AcDbSymbolTableRecord
100
AcDbBlockTableRecord
  2
*D55
340
0
  0
BLOCK_RECORD
  5
C3B
330
1
100
AcDbSymbolTableRecord
100
AcDbBlockTableRecord
  2
*D56
340
0
  0
BLOCK_RECORD
  5
CB6
330
1
100
AcDbSymbolTableRecord
100
AcDbBlockTableRecord
  2
*D57
340
0
  0
BLOCK_RECORD
  5
D24
330
1
100
AcDbSymbolTableRecord
100
AcDbBlockTableRecord
  2
*D58
340
0
  0
BLOCK_RECORD
  5
D98
330
1
100
AcDbSymbolTableRecord
100
AcDbBlockTableRecord
  2
*D59
340
0
  0
BLOCK_RECORD
  5
E16
330
1
100
AcDbSymbolTableRecord
100
AcDbBlockTableRecord
  2
*D60
340
0
  0
BLOCK_RECORD
  5
E2E
330
1
100
AcDbSymbolTableRecord
100
AcDbBlockTableRecord
  2
*D61
340
0
  0
BLOCK_RECORD
  5
FBD
330
1
100
AcDbSymbolTableRecord
100
AcDbBlockTableRecord
  2
*S67
340
0
  0
BLOCK_RECORD
  5
FC8
330
1
100
AcDbSymbolTableRecord
100
AcDbBlockTableRecord
  2
*S68
340
0
  0
BLOCK_RECORD
  5
FD2
330
1
100
AcDbSymbolTableRecord
100
AcDbBlockTableRecord
  2
*S69
340
0
  0
BLOCK_RECORD
  5
FDC
330
1
100
AcDbSymbolTableRecord
100
AcDbBlockTableRecord
  2
*S70
340
0
  0
ENDTAB
  0
ENDSEC
  0
SECTION
  2
BLOCKS
  0
BLOCK
  5
68
330
67
100
AcDbEntity
  8
0
100
AcDbBlockBegin
  2
*Model_Space
 70
     0
 10
0.0
 20
0.0
 30
0.0
  3
*Model_Space
  1

  0
ENDBLK
  5
69
330
67
100
AcDbEntity
  8
0
100
AcDbBlockEnd
  0
BLOCK
  5
64
330
63
100
AcDbEntity
 67
     1
  8
0
100
AcDbBlockBegin
  2
*Paper_Space
 70
     0
 10
0.0
 20
0.0
 30
0.0
  3
*Paper_Space
  1

  0
ENDBLK
  5
65
330
63
100
AcDbEntity
 67
     1
  8
0
100
AcDbBlockEnd
  0
BLOCK
  5
6C
330
6B
100
AcDbEntity
 67
     1
  8
0
100
AcDbBlockBegin
  2
*Paper_Space0
 70
     0
 10
0.0
 20
0.0
 30
0.0
  3
*Paper_Space0
  1

  0
ENDBLK
  5
6D
330
6B
100
AcDbEntity
 67
     1
  8
0
100
AcDbBlockEnd
  0
BLOCK
  5
56F
330
A3
100
AcDbEntity
  8
0
100
AcDbBlockBegin
  2
_Open
 70
     0
 10
0.0
 20
0.0
 30
0.0
  3
_Open
  1

  0
LINE
  5
570
330
A3
100
AcDbEntity
  8
0
  6
ByBlock
 62
     0
370
    -2
100
AcDbLine
 10
-1.0
 20
0.1666666666666666
 30
0.0
 11
0.0
 21
0.0
 31
0.0
  0
LINE
  5
571
330
A3
100
AcDbEntity
  8
0
  6
ByBlock
 62
     0
370
    -2
100
AcDbLine
 10
-1.0
 20
-0.1666666666666666
 30
0.0
 11
0.0
 21
0.0
 31
0.0
  0
LINE
  5
572
330
A3
100
AcDbEntity
  8
0
  6
ByBlock
 62
     0
370
    -2
100
AcDbLine
 10
0.0
 20
0.0
 30
0.0
 11
-1.0
 21
0.0
 31
0.0
  0
ENDBLK
  5
573
330
A3
100
AcDbEntity
  8
0
100
AcDbBlockEnd
  0
BLOCK
  5
57C
330
AF
100
AcDbEntity
  8
0
100
AcDbBlockBegin
  2
GENAXEH
 70
     0
 10
0.0
 20
0.0
 30
0.0
  3
GENAXEH
  1

  0
LINE
  5
57D
330
AF
100
AcDbEntity
  8
0
100
AcDbLine
 10
-1.0
 20
0.0
 30
0.0
 11
1.0
 21
0.0
 31
0.0
  0
ENDBLK
  5
57E
330
AF
100
AcDbEntity
  8
0
100
AcDbBlockEnd
  0
BLOCK
  5
24A
330
249
100
AcDbEntity
  8
0
100
AcDbBlockBegin
  2
CustomObjectsInViewport2_0
 70
     0
 10
0.0
 20
0.0
 30
0.0
  3
CustomObjectsInViewport2_0
  1

  0
LINE
  5
24B
330
249
100
AcDbEntity
  8
AM_5
100
AcDbLine
 10
154.5105885874255
 20
57.45766194678514
 30
0.0
 11
137.9937549132086
 21
57.45766194678514
 31
0.0
  0
LINE
  5
24C
330
249
100
AcDbEntity
  8
AM_5
100
AcDbLine
 10
137.9937549132086
 20
57.45766194678514
 30
0.0
 11
140.0065932813378
 21
35.35673568854305
 31
0.0
  0
LINE
  5
24D
330
249
100
AcDbEntity
  8
AM_5
  6
Continuous
100
AcDbLine
 10
140.0065932813378
 20
35.35673568854305
 30
0.0
 11
140.2333419307608
 21
32.86703991395838
 31
0.0
  0
LINE
  5
24E
330
249
100
AcDbEntity
  8
AM_5
  6
Continuous
100
AcDbLine
 10
139.5916440021716
 20
35.31894424848422
 30
0.0
 11
140.2333419307608
 21
32.86703991395838
 31
0.0
  0
LINE
  5
24F
330
249
100
AcDbEntity
  8
AM_5
  6
Continuous
100
AcDbLine
 10
140.2333419307608
 20
32.86703991395838
 30
0.0
 11
140.421542560504
 21
35.39452712860189
 31
0.0
  0
TEXT
  5
250
330
249
100
AcDbEntity
  8
AM_5
 62
   140
100
AcDbText
 10
141.1247152892999
 20
59.64516194678514
 30
0.0
 40
3.5
  1
+
  7
CustomTextStyle0
100
AcDbText
  0
TEXT
  5
251
330
249
100
AcDbEntity
  8
AM_5
 62
   140
100
AcDbText
 10
144.6270658601528
 20
59.64516194678514
 30
0.0
 40
3.5
  1
端子
  7
CustomTextStyle1
100
AcDbText
  0
LINE
  5
252
330
249
100
AcDbEntity
  8
AM_5
100
AcDbLine
 10
100.5163712687104
 20
48.23879409098687
 30
0.0
 11
77.26921217780136
 21
48.23879409098687
 31
0.0
  0
LINE
  5
253
330
249
100
AcDbEntity
  8
AM_5
100
AcDbLine
 10
77.26921217780136
 20
48.23879409098687
 30
0.0
 11
83.3134316718756
 21
42.24399670545643
 31
0.0
  0
LWPOLYLINE
  5
254
330
249
100
AcDbEntity
  8
AM_5
  6
Continuous
100
AcDbPolyline
 90
        2
 70
   129
 43
0.446428571428572
 10
84.86522635148293
 20
40.48350155549781
 42
1.0
 10
85.31165492291149
 20
40.48350155549781
 42
1.0
  0
LINE
  5
255
330
249
100
AcDbEntity
  8
AM_5
  6
Continuous
100
AcDbLine
 10
84.77147475053262
 20
40.79787568941899
 30
0.0
 11
83.3134316718756
 21
42.24399670545643
 31
0.0
  0
TEXT
  5
256
330
249
100
AcDbEntity
  8
AM_5
 62
   140
100
AcDbText
 10
80.43114399598319
 20
50.50583954553231
 30
0.0
 40
3.5
  1
定格銘板
  7
CustomTextStyle2
100
AcDbText
  0
LINE
  5
257
330
249
100
AcDbEntity
  8
AM_5
100
AcDbLine
 10
140.6330537380194
 20
8.928302410662865
 30
0.0
 11
117.3858946471104
 21
8.928302410662865
 31
0.0
  0
LINE
  5
258
330
249
100
AcDbEntity
  8
AM_5
100
AcDbLine
 10
117.3858946471104
 20
8.928302410662865
 30
0.0
 11
110.5344885961763
 21
27.41217618753081
 31
0.0
  0
LINE
  5
259
330
249
100
AcDbEntity
  8
AM_5
  6
Continuous
100
AcDbLine
 10
110.5344885961763
 20
27.41217618753081
 30
0.0
 11
109.6655863633628
 21
29.75631972191854
 31
0.0
  0
LINE
  5
25A
330
249
100
AcDbEntity
  8
AM_5
  6
Continuous
100
AcDbLine
 10
110.9251791696133
 20
27.55699322054037
 30
0.0
 11
109.6655863633628
 21
29.75631972191854
 31
0.0
  0
LINE
  5
25B
330
249
100
AcDbEntity
  8
AM_5
  6
Continuous
100
AcDbLine
 10
109.6655863633628
 20
29.75631972191854
 30
0.0
 11
110.1437980227393
 21
27.26735915452125
 31
0.0
  0
TEXT
  5
25C
330
249
100
AcDbEntity
  8
AM_5
 62
   140
100
AcDbText
 10
120.5677128289285
 20
11.11580241066286
 30
0.0
 40
3.5
  1
入力端子
  7
CustomTextStyle3
100
AcDbText
  0
LINE
  5
25D
330
249
100
AcDbEntity
  8
AM_5
100
AcDbLine
 10
32.290041999437
 20
59.91622212824493
 30
0.0
 11
7.542724550264269
 21
59.91622212824493
 31
0.0
  0
LINE
  5
25E
330
249
100
AcDbEntity
  8
AM_5
100
AcDbLine
 10
7.542724550264269
 20
59.91622212824493
 30
0.0
 11
13.52220129417254
 21
34.8257139625154
 31
0.0
  0
LINE
  5
25F
330
249
100
AcDbEntity
  8
AM_5
  6
Continuous
100
AcDbLine
 10
13.52220129417254
 20
34.8257139625154
 30
0.0
 11
14.10176132779061
 21
32.39381960472915
 31
0.0
  0
LINE
  5
260
330
249
100
AcDbEntity
  8
AM_5
  6
Continuous
100
AcDbLine
 10
13.11688558408746
 20
34.72912062744278
 30
0.0
 11
14.10176132779061
 21
32.39381960472915
 31
0.0
  0
LINE
  5
261
330
249
100
AcDbEntity
  8
AM_5
  6
Continuous
100
AcDbLine
 10
14.10176132779061
 20
32.39381960472915
 30
0.0
 11
13.92751700425762
 21
34.92230729758801
 31
0.0
  0
TEXT
  5
262
330
249
100
AcDbEntity
  8
AM_5
 62
   140
100
AcDbText
 10
10.78651232729583
 20
60.63079566753304
 30
0.0
 40
3.5
  1
2-M2.6
  7
CustomTextStyle4
100
AcDbText
  0
TEXT
  5
263
330
249
100
AcDbEntity
  8
AM_5
 62
   140
100
AcDbText
 10
10.76431545935518
 20
54.16109869783607
 30
0.0
 40
3.5
  1
有効深さ
  7
CustomTextStyle5
100
AcDbText
  0
TEXT
  5
264
330
249
100
AcDbEntity
  8
AM_5
 62
   140
100
AcDbText
 10
29.93477000480973
 20
54.16109869783607
 30
0.0
 40
3.5
  1
3
  7
CustomTextStyle6
100
AcDbText
  0
LINE
  5
265
330
249
100
AcDbEntity
  8
AM_5
100
AcDbLine
 10
11.04272455026427
 20
59.91622212824493
 30
0.0
 11
32.290041999437
 21
59.91622212824493
 31
0.0
  0
ENDBLK
  5
266
330
249
100
AcDbEntity
  8
0
100
AcDbBlockEnd
  0
BLOCK
  5
284
330
283
100
AcDbEntity
  8
0
100
AcDbBlockBegin
  2
*D4
 70
     1
 10
0.0
 20
0.0
 30
0.0
  3
*D4
  1

  0
LINE
  5
47D
330
283
100
AcDbEntity
  8
AM_5
  6
ByBlock
100
AcDbLine
 10
14.49999999999971
 20
26.59981972191818
 30
0.0
 11
14.49999999999971
 21
8.306318711918187
 31
0.0
  0
LINE
  5
47E
330
283
100
AcDbEntity
  8
AM_5
  6
ByBlock
100
AcDbLine
 10
30.49999999999972
 20
26.59981972191818
 30
0.0
 11
30.49999999999972
 21
8.306318711918187
 31
0.0
  0
LINE
  5
47F
330
283
100
AcDbEntity
  8
AM_5
  6
ByBlock
100
AcDbLine
 10
16.99999999999971
 20
9.306318711918184
 30
0.0
 11
27.99999999999972
 21
9.306318711918184
 31
0.0
  0
INSERT
  5
480
330
283
100
AcDbEntity
  8
AM_5
100
AcDbBlockReference
  2
_Open
 10
14.49999999999971
 20
9.306318711918184
 30
0.0
 41
2.5
 42
2.5
 43
2.5
 50
180.0
  0
INSERT
  5
481
330
283
100
AcDbEntity
  8
AM_5
100
AcDbBlockReference
  2
_Open
 10
30.49999999999972
 20
9.306318711918184
 30
0.0
 41
2.5
 42
2.5
 43
2.5
  0
MTEXT
  5
482
330
283
100
AcDbEntity
  8
AM_5
 62
   140
100
AcDbMText
 10
22.49999999999972
 20
11.92566055207937
 30
0.0
 40
3.5
 41
0.0
 71
     5
 72
     1
  1
16
 73
     1
 44
1.0
1001
ACAD
1000
MTEXTBEGIN
1070
    73
1070
     1
1070
    44
1040
1.0
1070
    74
1070
     0
1000
MTEXTEND
  0
POINT
  5
483
330
283
100
AcDbEntity
  8
Defpoints
 62
     0
100
AcDbPoint
 10
14.49999999999971
 20
27.09981972191818
 30
0.0
  0
POINT
  5
484
330
283
100
AcDbEntity
  8
Defpoints
 62
     0
100
AcDbPoint
 10
30.49999999999972
 20
27.09981972191818
 30
0.0
  0
POINT
  5
485
330
283
100
AcDbEntity
  8
Defpoints
 62
     0
100
AcDbPoint
 10
30.49999999999972
 20
9.306318711918184
 30
0.0
  0
ENDBLK
  5
285
330
283
100
AcDbEntity
  8
0
100
AcDbBlockEnd
  0
BLOCK
  5
290
330
28F
100
AcDbEntity
  8
0
100
AcDbBlockBegin
  2
*D5
 70
     1
 10
0.0
 20
0.0
 30
0.0
  3
*D5
  1

  0
LINE
  5
486
330
28F
100
AcDbEntity
  8
AM_5
  6
ByBlock
100
AcDbLine
 10
62.35612771899122
 20
30.00381972191876
 30
0.0
 11
53.65612670899121
 21
30.00381972191877
 31
0.0
  0
LINE
  5
487
330
28F
100
AcDbEntity
  8
AM_5
  6
ByBlock
100
AcDbLine
 10
62.35612771899122
 20
32.30881972191851
 30
0.0
 11
53.65612670899121
 21
32.30881972191851
 31
0.0
  0
LINE
  5
488
330
28F
100
AcDbEntity
  8
AM_5
  6
ByBlock
100
AcDbLine
 10
54.65612670899123
 20
27.50381972191877
 30
0.0
 11
54.65612670899123
 21
25.00381972191877
 31
0.0
  0
LINE
  5
489
330
28F
100
AcDbEntity
  8
AM_5
  6
ByBlock
100
AcDbLine
 10
54.65612670899123
 20
34.80881972191851
 30
0.0
 11
54.65612670899123
 21
53.42641542373181
 31
0.0
  0
LINE
  5
48A
330
28F
100
AcDbEntity
  8
AM_5
  6
ByBlock
100
AcDbLine
 10
54.65612670899123
 20
30.00381972191877
 30
0.0
 11
54.65612670899123
 21
32.30881972191851
 31
0.0
  0
INSERT
  5
48B
330
28F
100
AcDbEntity
  8
AM_5
100
AcDbBlockReference
  2
_Open
 10
54.65612670899123
 20
30.00381972191877
 30
0.0
 41
2.5
 42
2.5
 43
2.5
 50
90.0
  0
INSERT
  5
48C
330
28F
100
AcDbEntity
  8
AM_5
100
AcDbBlockReference
  2
_Open
 10
54.65612670899123
 20
32.30881972191851
 30
0.0
 41
2.5
 42
2.5
 43
2.5
 50
270.0
  0
MTEXT
  5
48D
330
28F
100
AcDbEntity
  8
AM_5
 62
   140
100
AcDbMText
 10
52.03325901255063
 20
45.36761757282517
 30
0.0
 40
3.5
 41
0.0
 71
     5
 72
     1
  1
%%c2.305
 11
0.0000000000000001
 21
1.0
 31
0.0
 73
     1
 44
1.0
1001
ACAD
1000
MTEXTBEGIN
1070
    73
1070
     1
1070
    44
1040
1.0
1070
    74
1070
     0
1000
MTEXTEND
  0
POINT
  5
48E
330
28F
100
AcDbEntity
  8
Defpoints
 62
     0
100
AcDbPoint
 10
62.85612771899121
 20
30.00381972191876
 30
0.0
  0
POINT
  5
48F
330
28F
100
AcDbEntity
  8
Defpoints
 62
     0
100
AcDbPoint
 10
62.85612771899121
 20
32.30881972191851
 30
0.0
  0
POINT
  5
490
330
28F
100
AcDbEntity
  8
Defpoints
 62
     0
100
AcDbPoint
 10
54.65612670899123
 20
32.30881972191851
 30
0.0
  0
ENDBLK
  5
291
330
28F
100
AcDbEntity
  8
0
100
AcDbBlockEnd
  0
BLOCK
  5
29E
330
29D
100
AcDbEntity
  8
0
100
AcDbBlockBegin
  2
*D6
 70
     1
 10
0.0
 20
0.0
 30
0.0
  3
*D6
  1

  0
LINE
  5
491
330
29D
100
AcDbEntity
  8
AM_5
  6
ByBlock
100
AcDbLine
 10
69.05612771899121
 20
26.15631972191909
 30
0.0
 11
45.65612670899121
 21
26.15631972191911
 31
0.0
  0
LINE
  5
492
330
29D
100
AcDbEntity
  8
AM_5
  6
ByBlock
100
AcDbLine
 10
69.05612771899121
 20
36.15631972191909
 30
0.0
 11
45.65612670899121
 21
36.15631972191911
 31
0.0
  0
LINE
  5
493
330
29D
100
AcDbEntity
  8
AM_5
  6
ByBlock
100
AcDbLine
 10
46.65612670899121
 20
28.65631972191911
 30
0.0
 11
46.65612670899121
 21
33.65631972191911
 31
0.0
  0
INSERT
  5
494
330
29D
100
AcDbEntity
  8
AM_5
100
AcDbBlockReference
  2
_Open
 10
46.65612670899121
 20
26.15631972191911
 30
0.0
 41
2.5
 42
2.5
 43
2.5
 50
270.0
  0
INSERT
  5
495
330
29D
100
AcDbEntity
  8
AM_5
100
AcDbBlockReference
  2
_Open
 10
46.65612670899121
 20
36.15631972191911
 30
0.0
 41
2.5
 42
2.5
 43
2.5
 50
90.0
  0
MTEXT
  5
496
330
29D
100
AcDbEntity
  8
AM_5
 62
   140
100
AcDbMText
 10
44.0344342979771
 20
31.15631972191911
 30
0.0
 40
3.5
 41
0.0
 71
     5
 72
     1
  1
%%c10
 11
0.0000000000000001
 21
1.0
 31
0.0
 73
     1
 44
1.0
1001
ACAD
1000
MTEXTBEGIN
1070
    73
1070
     1
1070
    44
1040
1.0
1070
    74
1070
     0
1000
MTEXTEND
  0
POINT
  5
497
330
29D
100
AcDbEntity
  8
Defpoints
 62
     0
100
AcDbPoint
 10
69.5561277189912
 20
26.15631972191909
 30
0.0
  0
POINT
  5
498
330
29D
100
AcDbEntity
  8
Defpoints
 62
     0
100
AcDbPoint
 10
69.5561277189912
 20
36.15631972191909
 30
0.0
  0
POINT
  5
499
330
29D
100
AcDbEntity
  8
Defpoints
 62
     0
100
AcDbPoint
 10
46.65612670899121
 20
36.15631972191911
 30
0.0
  0
ENDBLK
  5
29F
330
29D
100
AcDbEntity
  8
0
100
AcDbBlockEnd
  0
BLOCK
  5
2AA
330
2A9
100
AcDbEntity
  8
0
100
AcDbBlockBegin
  2
*D7
 70
     1
 10
0.0
 20
0.0
 30
0.0
  3
*D7
  1

  0
LINE
  5
49A
330
2A9
100
AcDbEntity
  8
AM_5
  6
ByBlock
100
AcDbLine
 10
72.15612771899123
 20
44.50631972191853
 30
0.0
 11
72.15612771899123
 21
58.00632072191853
 31
0.0
  0
LINE
  5
49B
330
2A9
100
AcDbEntity
  8
AM_5
  6
ByBlock
100
AcDbLine
 10
69.5561277189912
 20
36.65631972191909
 30
0.0
 11
69.5561277189912
 21
58.00632072191853
 31
0.0
  0
LINE
  5
49C
330
2A9
100
AcDbEntity
  8
AM_5
  6
ByBlock
100
AcDbLine
 10
74.65612771899123
 20
57.00632072191853
 30
0.0
 11
77.15612771899123
 21
57.00632072191853
 31
0.0
  0
LINE
  5
49D
330
2A9
100
AcDbEntity
  8
AM_5
  6
ByBlock
100
AcDbLine
 10
67.0561277189912
 20
57.00632072191853
 30
0.0
 11
53.65441944666557
 21
57.00632072191853
 31
0.0
  0
LINE
  5
49E
330
2A9
100
AcDbEntity
  8
AM_5
  6
ByBlock
100
AcDbLine
 10
72.15612771899123
 20
57.00632072191853
 30
0.0
 11
69.5561277189912
 21
57.00632072191853
 31
0.0
  0
INSERT
  5
49F
330
2A9
100
AcDbEntity
  8
AM_5
100
AcDbBlockReference
  2
_Open
 10
72.15612771899123
 20
57.00632072191853
 30
0.0
 41
2.5
 42
2.5
 43
2.5
 50
180.0
  0
INSERT
  5
4A0
330
2A9
100
AcDbEntity
  8
AM_5
100
AcDbBlockReference
  2
_Open
 10
69.5561277189912
 20
57.00632072191853
 30
0.0
 41
2.5
 42
2.5
 43
2.5
  0
MTEXT
  5
4A1
330
2A9
100
AcDbEntity
  8
AM_5
 62
   140
100
AcDbMText
 10
57.60418438958026
 20
59.62918841835911
 30
0.0
 40
3.5
 41
0.0
 71
     5
 72
     1
  1
2.6
 73
     1
 44
1.0
1001
ACAD
1000
MTEXTBEGIN
1070
    73
1070
     1
1070
    44
1040
1.0
1070
    74
1070
     0
1000
MTEXTEND
  0
POINT
  5
4A2
330
2A9
100
AcDbEntity
  8
Defpoints
 62
     0
100
AcDbPoint
 10
72.15612771899123
 20
44.00631972191853
 30
0.0
  0
POINT
  5
4A3
330
2A9
100
AcDbEntity
  8
Defpoints
 62
     0
100
AcDbPoint
 10
69.5561277189912
 20
36.15631972191909
 30
0.0
  0
POINT
  5
4A4
330
2A9
100
AcDbEntity
  8
Defpoints
 62
     0
100
AcDbPoint
 10
69.5561277189912
 20
57.00632072191853
 30
0.0
  0
ENDBLK
  5
2AB
330
2A9
100
AcDbEntity
  8
0
100
AcDbBlockEnd
  0
BLOCK
  5
2B8
330
2B7
100
AcDbEntity
  8
0
100
AcDbBlockBegin
  2
*D8
 70
     1
 10
0.0
 20
0.0
 30
0.0
  3
*D8
  1

  0
LINE
  5
4A5
330
2B7
100
AcDbEntity
  8
AM_5
  6
ByBlock
100
AcDbLine
 10
72.15612771899123
 20
44.50631972191853
 30
0.0
 11
72.15612771899123
 21
66.00632072191851
 31
0.0
  0
LINE
  5
4A6
330
2B7
100
AcDbEntity
  8
AM_5
  6
ByBlock
100
AcDbLine
 10
62.65612771899121
 20
32.60881972191852
 30
0.0
 11
62.65612771899121
 21
66.00632072191851
 31
0.0
  0
LINE
  5
4A7
330
2B7
100
AcDbEntity
  8
AM_5
  6
ByBlock
100
AcDbLine
 10
69.65612771899123
 20
65.00632072191852
 30
0.0
 11
65.15612771899121
 21
65.00632072191852
 31
0.0
  0
INSERT
  5
4A8
330
2B7
100
AcDbEntity
  8
AM_5
100
AcDbBlockReference
  2
_Open
 10
72.15612771899123
 20
65.00632072191852
 30
0.0
 41
2.5
 42
2.5
 43
2.5
  0
INSERT
  5
4A9
330
2B7
100
AcDbEntity
  8
AM_5
100
AcDbBlockReference
  2
_Open
 10
62.65612771899121
 20
65.00632072191852
 30
0.0
 41
2.5
 42
2.5
 43
2.5
 50
180.0
  0
MTEXT
  5
4AA
330
2B7
100
AcDbEntity
  8
AM_5
 62
   140
100
AcDbMText
 10
67.40612771899122
 20
67.62801313293261
 30
0.0
 40
3.5
 41
0.0
 71
     5
 72
     1
  1
9.5
 73
     1
 44
1.0
1001
ACAD
1000
MTEXTBEGIN
1070
    73
1070
     1
1070
    44
1040
1.0
1070
    74
1070
     0
1000
MTEXTEND
  0
POINT
  5
4AB
330
2B7
100
AcDbEntity
  8
Defpoints
 62
     0
100
AcDbPoint
 10
72.15612771899123
 20
44.00631972191853
 30
0.0
  0
POINT
  5
4AC
330
2B7
100
AcDbEntity
  8
Defpoints
 62
     0
100
AcDbPoint
 10
62.65612771899121
 20
32.10881972191852
 30
0.0
  0
POINT
  5
4AD
330
2B7
100
AcDbEntity
  8
Defpoints
 62
     0
100
AcDbPoint
 10
62.65612771899121
 20
65.00632072191852
 30
0.0
  0
ENDBLK
  5
2B9
330
2B7
100
AcDbEntity
  8
0
100
AcDbBlockEnd
  0
BLOCK
  5
2C4
330
2C3
100
AcDbEntity
  8
0
100
AcDbBlockBegin
  2
*D9
 70
     1
 10
0.0
 20
0.0
 30
0.0
  3
*D9
  1

  0
LINE
  5
4AE
330
2C3
100
AcDbEntity
  8
AM_5
  6
ByBlock
100
AcDbLine
 10
72.15612771899123
 20
44.50631972191853
 30
0.0
 11
72.15612771899123
 21
66.00632072191847
 31
0.0
  0
LINE
  5
4AF
330
2C3
100
AcDbEntity
  8
AM_5
  6
ByBlock
100
AcDbLine
 10
104.7561277189912
 20
40.85631972191889
 30
0.0
 11
104.7561277189912
 21
66.00632072191847
 31
0.0
  0
LINE
  5
4B0
330
2C3
100
AcDbEntity
  8
AM_5
  6
ByBlock
100
AcDbLine
 10
74.65612771899123
 20
65.00632072191847
 30
0.0
 11
102.2561277189911
 21
65.00632072191847
 31
0.0
  0
INSERT
  5
4B1
330
2C3
100
AcDbEntity
  8
AM_5
100
AcDbBlockReference
  2
_Open
 10
72.15612771899123
 20
65.00632072191847
 30
0.0
 41
2.5
 42
2.5
 43
2.5
 50
180.0
  0
INSERT
  5
4B2
330
2C3
100
AcDbEntity
  8
AM_5
100
AcDbBlockReference
  2
_Open
 10
104.7561277189912
 20
65.00632072191847
 30
0.0
 41
2.5
 42
2.5
 43
2.5
  0
MTEXT
  5
4B3
330
2C3
100
AcDbEntity
  8
AM_5
 62
   140
100
AcDbMText
 10
88.45612771899119
 20
67.62918841835904
 30
0.0
 40
3.5
 41
0.0
 71
     5
 72
     1
  1
32.6
 73
     1
 44
1.0
1001
ACAD
1000
MTEXTBEGIN
1070
    73
1070
     1
1070
    44
1040
1.0
1070
    74
1070
     0
1000
MTEXTEND
  0
POINT
  5
4B4
330
2C3
100
AcDbEntity
  8
Defpoints
 62
     0
100
AcDbPoint
 10
72.15612771899123
 20
44.00631972191853
 30
0.0
  0
POINT
  5
4B5
330
2C3
100
AcDbEntity
  8
Defpoints
 62
     0
100
AcDbPoint
 10
104.7561277189912
 20
40.3563197219189
 30
0.0
  0
POINT
  5
4B6
330
2C3
100
AcDbEntity
  8
Defpoints
 62
     0
100
AcDbPoint
 10
104.7561277189912
 20
65.00632072191847
 30
0.0
  0
ENDBLK
  5
2C5
330
2C3
100
AcDbEntity
  8
0
100
AcDbBlockEnd
  0
BLOCK
  5
2D0
330
2CF
100
AcDbEntity
  8
0
100
AcDbBlockBegin
  2
*D10
 70
     1
 10
0.0
 20
0.0
 30
0.0
  3
*D10
  1

  0
LINE
  5
4B7
330
2CF
100
AcDbEntity
  8
AM_5
  6
ByBlock
100
AcDbLine
 10
104.7561277189912
 20
40.85631972191889
 30
0.0
 11
104.7561277189912
 21
66.0063207219184
 31
0.0
  0
LINE
  5
4B8
330
2CF
100
AcDbEntity
  8
AM_5
  6
ByBlock
100
AcDbLine
 10
113.6561277189912
 20
32.60881972191852
 30
0.0
 11
113.6561277189912
 21
66.0063207219184
 31
0.0
  0
LINE
  5
4B9
330
2CF
100
AcDbEntity
  8
AM_5
  6
ByBlock
100
AcDbLine
 10
107.2561277189912
 20
65.0063207219184
 30
0.0
 11
111.1561277189912
 21
65.0063207219184
 31
0.0
  0
LINE
  5
4BA
330
2CF
100
AcDbEntity
  8
AM_5
  6
ByBlock
100
AcDbLine
 10
113.6561277189912
 20
65.0063207219184
 30
0.0
 11
127.6473298680846
 21
65.0063207219184
 31
0.0
  0
INSERT
  5
4BB
330
2CF
100
AcDbEntity
  8
AM_5
100
AcDbBlockReference
  2
_Open
 10
104.7561277189912
 20
65.0063207219184
 30
0.0
 41
2.5
 42
2.5
 43
2.5
 50
180.0
  0
INSERT
  5
4BC
330
2CF
100
AcDbEntity
  8
AM_5
100
AcDbBlockReference
  2
_Open
 10
113.6561277189912
 20
65.0063207219184
 30
0.0
 41
2.5
 42
2.5
 43
2.5
  0
MTEXT
  5
4BD
330
2CF
100
AcDbEntity
  8
AM_5
 62
   140
100
AcDbMText
 10
121.9017287935379
 20
68.11928244119309
 30
0.0
 40
3.5
 41
0.0
 71
     5
 72
     1
  1
(8.9)
 73
     1
 44
1.0
1001
ACAD
1000
MTEXTBEGIN
1070
    73
1070
     1
1070
    44
1040
1.0
1070
    74
1070
     0
1000
MTEXTEND
  0
POINT
  5
4BE
330
2CF
100
AcDbEntity
  8
Defpoints
 62
     0
100
AcDbPoint
 10
104.7561277189912
 20
40.3563197219189
 30
0.0
  0
POINT
  5
4BF
330
2CF
100
AcDbEntity
  8
Defpoints
 62
     0
100
AcDbPoint
 10
113.6561277189912
 20
32.10881972191852
 30
0.0
  0
POINT
  5
4C0
330
2CF
100
AcDbEntity
  8
Defpoints
 62
     0
100
AcDbPoint
 10
113.6561277189912
 20
65.0063207219184
 30
0.0
  0
ENDBLK
  5
2D1
330
2CF
100
AcDbEntity
  8
0
100
AcDbBlockEnd
  0
BLOCK
  5
2DD
330
2DC
100
AcDbEntity
  8
0
100
AcDbBlockBegin
  2
*D11
 70
     1
 10
0.0
 20
0.0
 30
0.0
  3
*D11
  1

  0
LINE
  5
4C1
330
2DC
100
AcDbEntity
  8
AM_5
  6
ByBlock
100
AcDbLine
 10
107.8561277189912
 20
26.15631972191909
 30
0.0
 11
122.6561287289912
 21
26.15631972191909
 31
0.0
  0
LINE
  5
4C2
330
2DC
100
AcDbEntity
  8
AM_5
  6
ByBlock
100
AcDbLine
 10
107.8561277189912
 20
36.15631972191909
 30
0.0
 11
122.6561287289912
 21
36.15631972191908
 31
0.0
  0
LINE
  5
4C3
330
2DC
100
AcDbEntity
  8
AM_5
  6
ByBlock
100
AcDbLine
 10
121.6561287289912
 20
28.65631972191909
 30
0.0
 11
121.6561287289912
 21
33.65631972191908
 31
0.0
  0
INSERT
  5
4C4
330
2DC
100
AcDbEntity
  8
AM_5
100
AcDbBlockReference
  2
_Open
 10
121.6561287289912
 20
26.15631972191909
 30
0.0
 41
2.5
 42
2.5
 43
2.5
 50
270.0
  0
INSERT
  5
4C5
330
2DC
100
AcDbEntity
  8
AM_5
100
AcDbBlockReference
  2
_Open
 10
121.6561287289912
 20
36.15631972191908
 30
0.0
 41
2.5
 42
2.5
 43
2.5
 50
90.0
  0
MTEXT
  5
4C6
330
2DC
100
AcDbEntity
  8
AM_5
 62
   140
100
AcDbMText
 10
119.0344363179771
 20
31.15631972191911
 30
0.0
 40
3.5
 41
0.0
 71
     5
 72
     1
  1
%%c10
 11
0.0000000000000001
 21
1.0
 31
0.0
 73
     1
 44
1.0
1001
ACAD
1000
MTEXTBEGIN
1070
    73
1070
     1
1070
    44
1040
1.0
1070
    74
1070
     0
1000
MTEXTEND
  0
POINT
  5
4C7
330
2DC
100
AcDbEntity
  8
Defpoints
 62
     0
100
AcDbPoint
 10
107.3561277189912
 20
26.15631972191909
 30
0.0
  0
POINT
  5
4C8
330
2DC
100
AcDbEntity
  8
Defpoints
 62
     0
100
AcDbPoint
 10
107.3561277189912
 20
36.15631972191909
 30
0.0
  0
POINT
  5
4C9
330
2DC
100
AcDbEntity
  8
Defpoints
 62
     0
100
AcDbPoint
 10
121.6561287289912
 20
36.15631972191908
 30
0.0
  0
ENDBLK
  5
2DE
330
2DC
100
AcDbEntity
  8
0
100
AcDbBlockEnd
  0
BLOCK
  5
2E9
330
2E8
100
AcDbEntity
  8
0
100
AcDbBlockBegin
  2
*D12
 70
     1
 10
0.0
 20
0.0
 30
0.0
  3
*D12
  1

  0
LINE
  5
4CA
330
2E8
100
AcDbEntity
  8
AM_5
  6
ByBlock
100
AcDbLine
 10
104.9561277189912
 20
17.30631972191872
 30
0.0
 11
130.6561287289912
 21
17.30631972191872
 31
0.0
  0
LINE
  5
4CB
330
2E8
100
AcDbEntity
  8
AM_5
  6
ByBlock
100
AcDbLine
 10
104.9561277189912
 20
45.00631972191853
 30
0.0
 11
130.6561287289912
 21
45.00631972191853
 31
0.0
  0
LINE
  5
4CC
330
2E8
100
AcDbEntity
  8
AM_5
  6
ByBlock
100
AcDbLine
 10
129.6561287289912
 20
19.80631972191872
 30
0.0
 11
129.6561287289912
 21
42.50631972191853
 31
0.0
  0
INSERT
  5
4CD
330
2E8
100
AcDbEntity
  8
AM_5
100
AcDbBlockReference
  2
_Open
 10
129.6561287289912
 20
17.30631972191872
 30
0.0
 41
2.5
 42
2.5
 43
2.5
 50
270.0
  0
INSERT
  5
4CE
330
2E8
100
AcDbEntity
  8
AM_5
100
AcDbBlockReference
  2
_Open
 10
129.6561287289912
 20
45.00631972191853
 30
0.0
 41
2.5
 42
2.5
 43
2.5
 50
90.0
  0
MTEXT
  5
4CF
330
2E8
100
AcDbEntity
  8
AM_5
 62
   140
100
AcDbMText
 10
127.0696948807709
 20
31.15631972191865
 30
0.0
 40
3.5
 41
0.0
 71
     5
 72
     1
  1
%%c27.7
 11
0.0000000000000001
 21
1.0
 31
0.0
 73
     1
 44
1.0
1001
ACAD
1000
MTEXTBEGIN
1070
    73
1070
     1
1070
    44
1040
1.0
1070
    74
1070
     0
1000
MTEXTEND
  0
POINT
  5
4D0
330
2E8
100
AcDbEntity
  8
Defpoints
 62
     0
100
AcDbPoint
 10
104.4561277189911
 20
17.30631972191872
 30
0.0
  0
POINT
  5
4D1
330
2E8
100
AcDbEntity
  8
Defpoints
 62
     0
100
AcDbPoint
 10
104.4561277189911
 20
45.00631972191853
 30
0.0
  0
POINT
  5
4D2
330
2E8
100
AcDbEntity
  8
Defpoints
 62
     0
100
AcDbPoint
 10
129.6561287289912
 20
45.00631972191853
 30
0.0
  0
ENDBLK
  5
2EA
330
2E8
100
AcDbEntity
  8
0
100
AcDbBlockEnd
  0
BLOCK
  5
2F5
330
2F4
100
AcDbEntity
  8
0
100
AcDbBlockBegin
  2
*D13
 70
     1
 10
0.0
 20
0.0
 30
0.0
  3
*D13
  1

  0
LINE
  5
4D3
330
2F4
100
AcDbEntity
  8
AM_5
  6
ByBlock
100
AcDbLine
 10
107.3561277189912
 20
36.65631972191909
 30
0.0
 11
107.3561277189912
 21
59.00632072191854
 31
0.0
  0
LINE
  5
4D4
330
2F4
100
AcDbEntity
  8
AM_5
  6
ByBlock
100
AcDbLine
 10
104.7561277189912
 20
40.85631972191889
 30
0.0
 11
104.7561277189912
 21
59.00632072191854
 31
0.0
  0
LINE
  5
4D5
330
2F4
100
AcDbEntity
  8
AM_5
  6
ByBlock
100
AcDbLine
 10
109.8561277189912
 20
58.00632072191853
 30
0.0
 11
112.3561277189912
 21
58.00632072191853
 31
0.0
  0
LINE
  5
4D6
330
2F4
100
AcDbEntity
  8
AM_5
  6
ByBlock
100
AcDbLine
 10
102.2561277189911
 20
58.00632072191853
 30
0.0
 11
88.2649255698978
 21
58.00632072191853
 31
0.0
  0
LINE
  5
4D7
330
2F4
100
AcDbEntity
  8
AM_5
  6
ByBlock
100
AcDbLine
 10
107.3561277189912
 20
58.00632072191853
 30
0.0
 11
104.7561277189912
 21
58.00632072191853
 31
0.0
  0
INSERT
  5
4D8
330
2F4
100
AcDbEntity
  8
AM_5
100
AcDbBlockReference
  2
_Open
 10
107.3561277189912
 20
58.00632072191853
 30
0.0
 41
2.5
 42
2.5
 43
2.5
 50
180.0
  0
INSERT
  5
4D9
330
2F4
100
AcDbEntity
  8
AM_5
100
AcDbBlockReference
  2
_Open
 10
104.7561277189912
 20
58.00632072191853
 30
0.0
 41
2.5
 42
2.5
 43
2.5
  0
MTEXT
  5
4DA
330
2F4
100
AcDbEntity
  8
AM_5
 62
   140
100
AcDbMText
 10
94.01052664444453
 20
61.11928244119322
 30
0.0
 40
3.5
 41
0.0
 71
     5
 72
     1
  1
(2.6)
 73
     1
 44
1.0
1001
ACAD
1000
MTEXTBEGIN
1070
    73
1070
     1
1070
    44
1040
1.0
1070
    74
1070
     0
1000
MTEXTEND
  0
POINT
  5
4DB
330
2F4
100
AcDbEntity
  8
Defpoints
 62
     0
100
AcDbPoint
 10
107.3561277189912
 20
36.15631972191909
 30
0.0
  0
POINT
  5
4DC
330
2F4
100
AcDbEntity
  8
Defpoints
 62
     0
100
AcDbPoint
 10
104.7561277189912
 20
40.3563197219189
 30
0.0
  0
POINT
  5
4DD
330
2F4
100
AcDbEntity
  8
Defpoints
 62
     0
100
AcDbPoint
 10
104.7561277189912
 20
58.00632072191853
 30
0.0
  0
ENDBLK
  5
2F6
330
2F4
100
AcDbEntity
  8
0
100
AcDbBlockEnd
  0
BLOCK
  5
303
330
302
100
AcDbEntity
  8
0
100
AcDbBlockBegin
  2
*D14
 70
     1
 10
0.0
 20
0.0
 30
0.0
  3
*D14
  1

  0
LINE
  5
4DE
330
302
100
AcDbEntity
  8
AM_5
  6
ByBlock
100
AcDbLine
 10
111.6561277189912
 20
30.00631972191854
 30
0.0
 11
111.6561277189912
 21
8.306318721918726
 31
0.0
  0
LINE
  5
4DF
330
302
100
AcDbEntity
  8
AM_5
  6
ByBlock
100
AcDbLine
 10
104.7561277189912
 20
21.45631972191836
 30
0.0
 11
104.7561277189912
 21
8.306318721918726
 31
0.0
  0
LINE
  5
4E0
330
302
100
AcDbEntity
  8
AM_5
  6
ByBlock
100
AcDbLine
 10
109.1561277189912
 20
9.306318721918726
 30
0.0
 11
107.2561277189912
 21
9.306318721918726
 31
0.0
  0
LINE
  5
4E1
330
302
100
AcDbEntity
  8
AM_5
  6
ByBlock
100
AcDbLine
 10
104.7561277189912
 20
9.306318721918726
 30
0.0
 11
90.76492556989789
 21
9.306318721918726
 31
0.0
  0
INSERT
  5
4E2
330
302
100
AcDbEntity
  8
AM_5
100
AcDbBlockReference
  2
_Open
 10
111.6561277189912
 20
9.306318721918726
 30
0.0
 41
2.5
 42
2.5
 43
2.5
  0
INSERT
  5
4E3
330
302
100
AcDbEntity
  8
AM_5
100
AcDbBlockReference
  2
_Open
 10
104.7561277189912
 20
9.306318721918726
 30
0.0
 41
2.5
 42
2.5
 43
2.5
 50
180.0
  0
MTEXT
  5
4E4
330
302
100
AcDbEntity
  8
AM_5
 62
   140
100
AcDbMText
 10
96.51052664444458
 20
12.41928044119341
 30
0.0
 40
3.5
 41
0.0
 71
     5
 72
     1
  1
(6.9)
 73
     1
 44
1.0
1001
ACAD
1000
MTEXTBEGIN
1070
    73
1070
     1
1070
    44
1040
1.0
1070
    74
1070
     0
1000
MTEXTEND
  0
POINT
  5
4E5
330
302
100
AcDbEntity
  8
Defpoints
 62
     0
100
AcDbPoint
 10
111.6561277189912
 20
30.50631972191855
 30
0.0
  0
POINT
  5
4E6
330
302
100
AcDbEntity
  8
Defpoints
 62
     0
100
AcDbPoint
 10
104.7561277189912
 20
21.95631972191836
 30
0.0
  0
POINT
  5
4E7
330
302
100
AcDbEntity
  8
Defpoints
 62
     0
100
AcDbPoint
 10
104.7561277189912
 20
9.306318721918726
 30
0.0
  0
ENDBLK
  5
304
330
302
100
AcDbEntity
  8
0
100
AcDbBlockEnd
  0
BLOCK
  5
6BD
330
6BC
100
AcDbEntity
  8
0
100
AcDbBlockBegin
  2
_Open30
 70
     0
 10
0.0
 20
0.0
 30
0.0
  3
_Open30
  1

  0
LINE
  5
6BE
330
6BC
100
AcDbEntity
  8
0
  6
ByBlock
 62
     0
370
    -2
100
AcDbLine
 10
-1.0
 20
0.26794919
 30
0.0
 11
0.0
 21
0.0
 31
0.0
  0
LINE
  5
6BF
330
6BC
100
AcDbEntity
  8
0
  6
ByBlock
 62
     0
370
    -2
100
AcDbLine
 10
0.0
 20
0.0
 30
0.0
 11
-1.0
 21
-0.26794919
 31
0.0
  0
LINE
  5
6C0
330
6BC
100
AcDbEntity
  8
0
  6
ByBlock
 62
     0
370
    -2
100
AcDbLine
 10
0.0
 20
0.0
 30
0.0
 11
-1.0
 21
0.0
 31
0.0
  0
ENDBLK
  5
6C1
330
6BC
100
AcDbEntity
  8
0
100
AcDbBlockEnd
  0
BLOCK
  5
6C3
330
6C2
100
AcDbEntity
  8
0
370
    30
100
AcDbBlockBegin
  2
*D17
 70
     1
 10
0.0
 20
0.0
 30
0.0
  3
*D17
  1

  0
LINE
  5
6C4
330
6C2
100
AcDbEntity
  8
0
 62
     0
370
     0
100
AcDbLine
 10
511.4838145450554
 20
4145.454823547606
 30
0.0
 11
511.4838145450554
 21
4110.181469544412
 31
0.0
  0
LINE
  5
6C5
330
6C2
100
AcDbEntity
  8
0
 62
     0
370
     0
100
AcDbLine
 10
543.4838145450567
 20
4145.454823547606
 30
0.0
 11
543.4838145450567
 21
4110.181469544412
 31
0.0
  0
LINE
  5
6C6
330
6C2
100
AcDbEntity
  8
0
 62
     0
370
     0
100
AcDbLine
 10
516.4838145450554
 20
4112.181469544412
 30
0.0
 11
538.4838145450567
 21
4112.181469544412
 31
0.0
  0
INSERT
  5
6C7
330
6C2
100
AcDbEntity
  8
0
 62
     0
370
     0
100
AcDbBlockReference
  2
_Open30
 10
511.4838145450554
 20
4112.181469544412
 30
0.0
 41
5.0
 42
5.0
 43
5.0
 50
180.0
  0
INSERT
  5
6C8
330
6C2
100
AcDbEntity
  8
0
 62
     0
370
     0
100
AcDbBlockReference
  2
_Open30
 10
543.4838145450567
 20
4112.181469544412
 30
0.0
 41
5.0
 42
5.0
 43
5.0
  0
MTEXT
  5
6C9
330
6C2
100
AcDbEntity
  8
0
 62
     0
100
AcDbMText
 10
527.4838145450559
 20
4116.681469544412
 30
0.0
 40
7.0
 41
0.0
 71
     5
 72
     1
  1
16
 73
     1
 44
1.0
1001
ACAD
1000
MTEXTBEGIN
1070
    73
1070
     1
1070
    44
1040
1.0
1070
    74
1070
     0
1000
MTEXTEND
  0
POINT
  5
6CA
330
6C2
100
AcDbEntity
  8
Defpoints
 62
     0
370
    30
100
AcDbPoint
 10
511.4838145450554
 20
4146.454823547606
 30
0.0
  0
POINT
  5
6CB
330
6C2
100
AcDbEntity
  8
Defpoints
 62
     0
370
    30
100
AcDbPoint
 10
543.4838145450567
 20
4146.454823547606
 30
0.0
  0
POINT
  5
6CC
330
6C2
100
AcDbEntity
  8
Defpoints
 62
     0
370
    30
100
AcDbPoint
 10
543.4838145450567
 20
4112.181469544412
 30
0.0
  0
ENDBLK
  5
6CD
330
6C2
100
AcDbEntity
  8
0
370
    30
100
AcDbBlockEnd
  0
BLOCK
  5
6CF
330
6CE
100
AcDbEntity
  8
0
370
    30
100
AcDbBlockBegin
  2
*D18
 70
     1
 10
0.0
 20
0.0
 30
0.0
  3
*D18
  1

  0
LINE
  5
6D0
330
6CE
100
AcDbEntity
  8
0
 62
     0
370
     0
100
AcDbLine
 10
598.5556187039196
 20
4156.359823547608
 30
0.0
 11
586.1556187039203
 21
4156.359823547608
 31
0.0
  0
LINE
  5
6D1
330
6CE
100
AcDbEntity
  8
0
 62
     0
370
     0
100
AcDbLine
 10
598.5556187039196
 20
4151.749823547609
 30
0.0
 11
586.1556187039203
 21
4151.749823547609
 31
0.0
  0
LINE
  5
6D2
330
6CE
100
AcDbEntity
  8
0
 62
     0
370
     0
100
AcDbLine
 10
588.1556187039203
 20
4146.749823547608
 30
0.0
 11
588.1556187039203
 21
4141.749823547608
 31
0.0
  0
LINE
  5
6D3
330
6CE
100
AcDbEntity
  8
0
 62
     0
370
     0
100
AcDbLine
 10
588.1556187039203
 20
4161.359823547607
 30
0.0
 11
588.1556187039203
 21
4202.193156880944
 31
0.0
  0
LINE
  5
6D4
330
6CE
100
AcDbEntity
  8
0
 62
     0
370
     0
100
AcDbLine
 10
588.1556187039203
 20
4151.749823547609
 30
0.0
 11
588.1556187039203
 21
4156.359823547608
 31
0.0
  0
INSERT
  5
6D5
330
6CE
100
AcDbEntity
  8
0
 62
     0
370
     0
100
AcDbBlockReference
  2
_Open30
 10
588.1556187039203
 20
4151.749823547609
 30
0.0
 41
5.0
 42
5.0
 43
5.0
 50
90.0
  0
INSERT
  5
6D6
330
6CE
100
AcDbEntity
  8
0
 62
     0
370
     0
100
AcDbBlockReference
  2
_Open30
 10
588.1556187039203
 20
4156.359823547608
 30
0.0
 41
5.0
 42
5.0
 43
5.0
 50
270.0
  0
MTEXT
  5
6D7
330
6CE
100
AcDbEntity
  8
0
 62
     0
100
AcDbMText
 10
583.6556187039197
 20
4184.276490214277
 30
0.0
 40
7.0
 41
0.0
 71
     5
 72
     1
  1
%%C2.305
 11
0.0000000000000001
 21
1.0
 31
0.0
 73
     1
 44
1.0
1001
ACAD
1000
MTEXTBEGIN
1070
    73
1070
     1
1070
    44
1040
1.0
1070
    74
1070
     0
1000
MTEXTEND
  0
POINT
  5
6D8
330
6CE
100
AcDbEntity
  8
Defpoints
 62
     0
370
    30
100
AcDbPoint
 10
599.5556187039197
 20
4156.359823547608
 30
0.0
  0
POINT
  5
6D9
330
6CE
100
AcDbEntity
  8
Defpoints
 62
     0
370
    30
100
AcDbPoint
 10
599.5556187039197
 20
4151.749823547609
 30
0.0
  0
POINT
  5
6DA
330
6CE
100
AcDbEntity
  8
Defpoints
 62
     0
370
    30
100
AcDbPoint
 10
588.1556187039203
 20
4151.749823547609
 30
0.0
  0
ENDBLK
  5
6DB
330
6CE
100
AcDbEntity
  8
0
370
    30
100
AcDbBlockEnd
  0
BLOCK
  5
6DD
330
6DC
100
AcDbEntity
  8
0
370
    30
100
AcDbBlockBegin
  2
*D19
 70
     1
 10
0.0
 20
0.0
 30
0.0
  3
*D19
  1

  0
LINE
  5
6DE
330
6DC
100
AcDbEntity
  8
0
 62
     0
370
     0
100
AcDbLine
 10
611.9556187039194
 20
4164.054823547609
 30
0.0
 11
574.1556187039208
 21
4164.054823547609
 31
0.0
  0
LINE
  5
6DF
330
6DC
100
AcDbEntity
  8
0
 62
     0
370
     0
100
AcDbLine
 10
611.9556187039196
 20
4144.054823547609
 30
0.0
 11
574.1556187039208
 21
4144.054823547609
 31
0.0
  0
LINE
  5
6E0
330
6DC
100
AcDbEntity
  8
0
 62
     0
370
     0
100
AcDbLine
 10
576.1556187039208
 20
4159.054823547609
 30
0.0
 11
576.1556187039208
 21
4149.054823547609
 31
0.0
  0
INSERT
  5
6E1
330
6DC
100
AcDbEntity
  8
0
 62
     0
370
     0
100
AcDbBlockReference
  2
_Open30
 10
576.1556187039208
 20
4164.054823547609
 30
0.0
 41
5.0
 42
5.0
 43
5.0
 50
270.0
  0
LINE
  5
6E2
330
6DC
100
AcDbEntity
  8
0
 62
     0
370
     0
100
AcDbLine
 10
576.1556187039208
 20
4169.05482354761
 30
0.0
 11
576.1556187039208
 21
4174.054823547609
 31
0.0
  0
LINE
  5
6E3
330
6DC
100
AcDbEntity
  8
0
 62
     0
370
     0
100
AcDbLine
 10
576.1556187039208
 20
4164.054823547609
 30
0.0
 11
576.1556187039208
 21
4159.054823547609
 31
0.0
  0
INSERT
  5
6E4
330
6DC
100
AcDbEntity
  8
0
 62
     0
370
     0
100
AcDbBlockReference
  2
_Open30
 10
576.1556187039208
 20
4144.054823547609
 30
0.0
 41
5.0
 42
5.0
 43
5.0
 50
90.0
  0
LINE
  5
6E5
330
6DC
100
AcDbEntity
  8
0
 62
     0
370
     0
100
AcDbLine
 10
576.1556187039208
 20
4139.054823547609
 30
0.0
 11
576.1556187039208
 21
4134.054823547609
 31
0.0
  0
LINE
  5
6E6
330
6DC
100
AcDbEntity
  8
0
 62
     0
370
     0
100
AcDbLine
 10
576.1556187039208
 20
4144.054823547609
 30
0.0
 11
576.1556187039208
 21
4149.054823547609
 31
0.0
  0
MTEXT
  5
6E7
330
6DC
100
AcDbEntity
  8
0
 62
     0
100
AcDbMText
 10
571.6556187039201
 20
4154.05482354761
 30
0.0
 40
7.0
 41
0.0
 71
     5
 72
     1
  1
%%C10
 11
0.0000000000000001
 21
1.0
 31
0.0
 73
     1
 44
1.0
1001
ACAD
1000
MTEXTBEGIN
1070
    73
1070
     1
1070
    44
1040
1.0
1070
    74
1070
     0
1000
MTEXTEND
  0
POINT
  5
6E8
330
6DC
100
AcDbEntity
  8
Defpoints
 62
     0
370
    30
100
AcDbPoint
 10
612.9556187039193
 20
4164.054823547609
 30
0.0
  0
POINT
  5
6E9
330
6DC
100
AcDbEntity
  8
Defpoints
 62
     0
370
    30
100
AcDbPoint
 10
612.9556187039196
 20
4144.054823547609
 30
0.0
  0
POINT
  5
6EA
330
6DC
100
AcDbEntity
  8
Defpoints
 62
     0
370
    30
100
AcDbPoint
 10
576.1556187039208
 20
4144.054823547609
 30
0.0
  0
ENDBLK
  5
6EB
330
6DC
100
AcDbEntity
  8
0
370
    30
100
AcDbBlockEnd
  0
BLOCK
  5
6ED
330
6EC
100
AcDbEntity
  8
0
370
    30
100
AcDbBlockBegin
  2
*D20
 70
     1
 10
0.0
 20
0.0
 30
0.0
  3
*D20
  1

  0
LINE
  5
6EE
330
6EC
100
AcDbEntity
  8
0
 62
     0
370
     0
100
AcDbLine
 10
618.1556187039197
 20
4180.55482354761
 30
0.0
 11
618.1556187039197
 21
4231.255923927936
 31
0.0
  0
LINE
  5
6EF
330
6EC
100
AcDbEntity
  8
0
 62
     0
370
     0
100
AcDbLine
 10
612.9556187039196
 20
4165.054823547609
 30
0.0
 11
612.9556187039196
 21
4231.255923927936
 31
0.0
  0
LINE
  5
6F0
330
6EC
100
AcDbEntity
  8
0
 62
     0
370
     0
100
AcDbLine
 10
623.1556187039196
 20
4229.255923927936
 30
0.0
 11
628.1556187039196
 21
4229.255923927936
 31
0.0
  0
LINE
  5
6F1
330
6EC
100
AcDbEntity
  8
0
 62
     0
370
     0
100
AcDbLine
 10
607.9556187039196
 20
4229.255923927936
 30
0.0
 11
582.023363484207
 21
4229.255923927936
 31
0.0
  0
LINE
  5
6F2
330
6EC
100
AcDbEntity
  8
0
 62
     0
370
     0
100
AcDbLine
 10
618.1556187039197
 20
4229.255923927936
 30
0.0
 11
612.9556187039196
 21
4229.255923927936
 31
0.0
  0
INSERT
  5
6F3
330
6EC
100
AcDbEntity
  8
0
 62
     0
370
     0
100
AcDbBlockReference
  2
_Open30
 10
618.1556187039197
 20
4229.255923927936
 30
0.0
 41
5.0
 42
5.0
 43
5.0
 50
180.0
  0
INSERT
  5
6F4
330
6EC
100
AcDbEntity
  8
0
 62
     0
370
     0
100
AcDbBlockReference
  2
_Open30
 10
612.9556187039196
 20
4229.255923927936
 30
0.0
 41
5.0
 42
5.0
 43
5.0
  0
MTEXT
  5
6F5
330
6EC
100
AcDbEntity
  8
0
 62
     0
100
AcDbMText
 10
590.023363484207
 20
4233.755923927936
 30
0.0
 40
7.0
 41
0.0
 71
     5
 72
     1
  1
2.6
 73
     1
 44
1.0
1001
ACAD
1000
MTEXTBEGIN
1070
    73
1070
     1
1070
    44
1040
1.0
1070
    74
1070
     0
1000
MTEXTEND
  0
POINT
  5
6F6
330
6EC
100
AcDbEntity
  8
Defpoints
 62
     0
370
    30
100
AcDbPoint
 10
618.1556187039197
 20
4179.55482354761
 30
0.0
  0
POINT
  5
6F7
330
6EC
100
AcDbEntity
  8
Defpoints
 62
     0
370
    30
100
AcDbPoint
 10
612.9556187039196
 20
4164.054823547608
 30
0.0
  0
POINT
  5
6F8
330
6EC
100
AcDbEntity
  8
Defpoints
 62
     0
370
    30
100
AcDbPoint
 10
612.9556187039196
 20
4229.255923927936
 30
0.0
  0
ENDBLK
  5
6F9
330
6EC
100
AcDbEntity
  8
0
370
    30
100
AcDbBlockEnd
  0
BLOCK
  5
6FB
330
6FA
100
AcDbEntity
  8
0
370
    30
100
AcDbBlockBegin
  2
*D21
 70
     1
 10
0.0
 20
0.0
 30
0.0
  3
*D21
  1

  0
LINE
  5
6FC
330
6FA
100
AcDbEntity
  8
0
 62
     0
370
     0
100
AcDbLine
 10
618.1556187039197
 20
4180.55482354761
 30
0.0
 11
618.1556187039197
 21
4244.208531802593
 31
0.0
  0
LINE
  5
6FD
330
6FA
100
AcDbEntity
  8
0
 62
     0
370
     0
100
AcDbLine
 10
599.1556187039196
 20
4156.959823547608
 30
0.0
 11
599.1556187039196
 21
4244.208531802593
 31
0.0
  0
LINE
  5
6FE
330
6FA
100
AcDbEntity
  8
0
 62
     0
370
     0
100
AcDbLine
 10
613.1556187039197
 20
4242.208531802592
 30
0.0
 11
604.1556187039197
 21
4242.208531802592
 31
0.0
  0
INSERT
  5
6FF
330
6FA
100
AcDbEntity
  8
0
 62
     0
370
     0
100
AcDbBlockReference
  2
_Open30
 10
618.1556187039197
 20
4242.208531802592
 30
0.0
 41
5.0
 42
5.0
 43
5.0
 50
180.0
  0
LINE
  5
700
330
6FA
100
AcDbEntity
  8
0
 62
     0
370
     0
100
AcDbLine
 10
623.1556187039196
 20
4242.208531802592
 30
0.0
 11
628.1556187039196
 21
4242.208531802592
 31
0.0
  0
LINE
  5
701
330
6FA
100
AcDbEntity
  8
0
 62
     0
370
     0
100
AcDbLine
 10
618.1556187039197
 20
4242.208531802592
 30
0.0
 11
613.1556187039197
 21
4242.208531802592
 31
0.0
  0
INSERT
  5
702
330
6FA
100
AcDbEntity
  8
0
 62
     0
370
     0
100
AcDbBlockReference
  2
_Open30
 10
599.1556187039196
 20
4242.208531802592
 30
0.0
 41
5.0
 42
5.0
 43
5.0
  0
LINE
  5
703
330
6FA
100
AcDbEntity
  8
0
 62
     0
370
     0
100
AcDbLine
 10
594.1556187039196
 20
4242.208531802592
 30
0.0
 11
589.1556187039197
 21
4242.208531802592
 31
0.0
  0
LINE
  5
704
330
6FA
100
AcDbEntity
  8
0
 62
     0
370
     0
100
AcDbLine
 10
599.1556187039196
 20
4242.208531802592
 30
0.0
 11
604.1556187039197
 21
4242.208531802592
 31
0.0
  0
MTEXT
  5
705
330
6FA
100
AcDbEntity
  8
0
 62
     0
100
AcDbMText
 10
608.6556187039197
 20
4246.708531802593
 30
0.0
 40
7.0
 41
0.0
 71
     5
 72
     1
  1
9.5
 73
     1
 44
1.0
1001
ACAD
1000
MTEXTBEGIN
1070
    73
1070
     1
1070
    44
1040
1.0
1070
    74
1070
     0
1000
MTEXTEND
  0
POINT
  5
706
330
6FA
100
AcDbEntity
  8
Defpoints
 62
     0
370
    30
100
AcDbPoint
 10
618.1556187039197
 20
4179.55482354761
 30
0.0
  0
POINT
  5
707
330
6FA
100
AcDbEntity
  8
Defpoints
 62
     0
370
    30
100
AcDbPoint
 10
599.1556187039196
 20
4155.959823547608
 30
0.0
  0
POINT
  5
708
330
6FA
100
AcDbEntity
  8
Defpoints
 62
     0
370
    30
100
AcDbPoint
 10
599.1556187039196
 20
4242.208531802592
 30
0.0
  0
ENDBLK
  5
709
330
6FA
100
AcDbEntity
  8
0
370
    30
100
AcDbBlockEnd
  0
BLOCK
  5
70B
330
70A
100
AcDbEntity
  8
0
370
    30
100
AcDbBlockBegin
  2
*D22
 70
     1
 10
0.0
 20
0.0
 30
0.0
  3
*D22
  1

  0
LINE
  5
70C
330
70A
100
AcDbEntity
  8
0
 62
     0
370
     0
100
AcDbLine
 10
618.1556187039197
 20
4180.554823547608
 30
0.0
 11
618.1556187039197
 21
4244.208531802593
 31
0.0
  0
LINE
  5
70D
330
70A
100
AcDbEntity
  8
0
 62
     0
370
     0
100
AcDbLine
 10
693.7556187039198
 20
4173.454823547609
 30
0.0
 11
693.7556187039198
 21
4244.208531802593
 31
0.0
  0
LINE
  5
70E
330
70A
100
AcDbEntity
  8
0
 62
     0
370
     0
100
AcDbLine
 10
623.1556187039196
 20
4242.208531802592
 30
0.0
 11
688.7556187039198
 21
4242.208531802592
 31
0.0
  0
INSERT
  5
70F
330
70A
100
AcDbEntity
  8
0
 62
     0
370
     0
100
AcDbBlockReference
  2
_Open30
 10
618.1556187039197
 20
4242.208531802592
 30
0.0
 41
5.0
 42
5.0
 43
5.0
 50
180.0
  0
INSERT
  5
710
330
70A
100
AcDbEntity
  8
0
 62
     0
370
     0
100
AcDbBlockReference
  2
_Open30
 10
693.7556187039198
 20
4242.208531802592
 30
0.0
 41
5.0
 42
5.0
 43
5.0
  0
MTEXT
  5
711
330
70A
100
AcDbEntity
  8
0
 62
     0
100
AcDbMText
 10
655.9556187039198
 20
4246.708531802593
 30
0.0
 40
7.0
 41
0.0
 71
     5
 72
     1
  1
37.8
 73
     1
 44
1.0
1001
ACAD
1000
MTEXTBEGIN
1070
    73
1070
     1
1070
    44
1040
1.0
1070
    74
1070
     0
1000
MTEXTEND
  0
POINT
  5
712
330
70A
100
AcDbEntity
  8
Defpoints
 62
     0
370
    30
100
AcDbPoint
 10
618.1556187039197
 20
4179.554823547608
 30
0.0
  0
POINT
  5
713
330
70A
100
AcDbEntity
  8
Defpoints
 62
     0
370
    30
100
AcDbPoint
 10
693.7556187039198
 20
4172.454823547608
 30
0.0
  0
POINT
  5
714
330
70A
100
AcDbEntity
  8
Defpoints
 62
     0
370
    30
100
AcDbPoint
 10
693.7556187039198
 20
4242.208531802592
 30
0.0
  0
ENDBLK
  5
715
330
70A
100
AcDbEntity
  8
0
370
    30
100
AcDbBlockEnd
  0
BLOCK
  5
717
330
716
100
AcDbEntity
  8
0
370
    30
100
AcDbBlockBegin
  2
*D23
 70
     1
 10
0.0
 20
0.0
 30
0.0
  3
*D23
  1

  0
LINE
  5
718
330
716
100
AcDbEntity
  8
0
 62
     0
370
     0
100
AcDbLine
 10
698.9556187039197
 20
4165.054823547609
 30
0.0
 11
698.9556187039197
 21
4230.851150732953
 31
0.0
  0
LINE
  5
719
330
716
100
AcDbEntity
  8
0
 62
     0
370
     0
100
AcDbLine
 10
693.7556187039198
 20
4173.454823547609
 30
0.0
 11
693.7556187039198
 21
4230.851150732953
 31
0.0
  0
LINE
  5
71A
330
716
100
AcDbEntity
  8
0
 62
     0
370
     0
100
AcDbLine
 10
703.9556187039197
 20
4228.851150732952
 30
0.0
 11
708.9556187039197
 21
4228.851150732952
 31
0.0
  0
LINE
  5
71B
330
716
100
AcDbEntity
  8
0
 62
     0
370
     0
100
AcDbLine
 10
688.7556187039198
 20
4228.851150732952
 30
0.0
 11
658.4222853705864
 21
4228.851150732952
 31
0.0
  0
LINE
  5
71C
330
716
100
AcDbEntity
  8
0
 62
     0
370
     0
100
AcDbLine
 10
698.9556187039197
 20
4228.851150732952
 30
0.0
 11
693.7556187039198
 21
4228.851150732952
 31
0.0
  0
INSERT
  5
71D
330
716
100
AcDbEntity
  8
0
 62
     0
370
     0
100
AcDbBlockReference
  2
_Open30
 10
698.9556187039197
 20
4228.851150732952
 30
0.0
 41
5.0
 42
5.0
 43
5.0
 50
180.0
  0
INSERT
  5
71E
330
716
100
AcDbEntity
  8
0
 62
     0
370
     0
100
AcDbBlockReference
  2
_Open30
 10
693.7556187039198
 20
4228.851150732952
 30
0.0
 41
5.0
 42
5.0
 43
5.0
  0
MTEXT
  5
71F
330
716
100
AcDbEntity
  8
0
 62
     0
100
AcDbMText
 10
671.0889520372532
 20
4233.351150732953
 30
0.0
 40
7.0
 41
0.0
 71
     5
 72
     1
  1
(2.6)
 73
     1
 44
1.0
1001
ACAD
1000
MTEXTBEGIN
1070
    73
1070
     1
1070
    44
1040
1.0
1070
    74
1070
     0
1000
MTEXTEND
  0
POINT
  5
720
330
716
100
AcDbEntity
  8
Defpoints
 62
     0
370
    30
100
AcDbPoint
 10
698.9556187039197
 20
4164.054823547608
 30
0.0
  0
POINT
  5
721
330
716
100
AcDbEntity
  8
Defpoints
 62
     0
370
    30
100
AcDbPoint
 10
693.7556187039198
 20
4172.454823547608
 30
0.0
  0
POINT
  5
722
330
716
100
AcDbEntity
  8
Defpoints
 62
     0
370
    30
100
AcDbPoint
 10
693.7556187039198
 20
4228.851150732952
 30
0.0
  0
ENDBLK
  5
723
330
716
100
AcDbEntity
  8
0
370
    30
100
AcDbBlockEnd
  0
BLOCK
  5
725
330
724
100
AcDbEntity
  8
0
370
    30
100
AcDbBlockBegin
  2
*D24
 70
     1
 10
0.0
 20
0.0
 30
0.0
  3
*D24
  1

  0
LINE
  5
726
330
724
100
AcDbEntity
  8
0
 62
     0
370
     0
100
AcDbLine
 10
693.7556187039198
 20
4173.454823547609
 30
0.0
 11
693.7556187039198
 21
4244.208531802593
 31
0.0
  0
LINE
  5
727
330
724
100
AcDbEntity
  8
0
 62
     0
370
     0
100
AcDbLine
 10
702.9556187039196
 20
4156.554823547607
 30
0.0
 11
702.9556187039196
 21
4244.208531802593
 31
0.0
  0
LINE
  5
728
330
724
100
AcDbEntity
  8
0
 62
     0
370
     0
100
AcDbLine
 10
688.7556187039198
 20
4242.208531802592
 30
0.0
 11
683.7556187039198
 21
4242.208531802592
 31
0.0
  0
LINE
  5
729
330
724
100
AcDbEntity
  8
0
 62
     0
370
     0
100
AcDbLine
 10
707.9556187039196
 20
4242.208531802592
 30
0.0
 11
738.288952037253
 21
4242.208531802592
 31
0.0
  0
LINE
  5
72A
330
724
100
AcDbEntity
  8
0
 62
     0
370
     0
100
AcDbLine
 10
693.7556187039198
 20
4242.208531802592
 30
0.0
 11
702.9556187039196
 21
4242.208531802592
 31
0.0
  0
INSERT
  5
72B
330
724
100
AcDbEntity
  8
0
 62
     0
370
     0
100
AcDbBlockReference
  2
_Open30
 10
693.7556187039198
 20
4242.208531802592
 30
0.0
 41
5.0
 42
5.0
 43
5.0
  0
INSERT
  5
72C
330
724
100
AcDbEntity
  8
0
 62
     0
370
     0
100
AcDbBlockReference
  2
_Open30
 10
702.9556187039196
 20
4242.208531802592
 30
0.0
 41
5.0
 42
5.0
 43
5.0
 50
180.0
  0
MTEXT
  5
72D
330
724
100
AcDbEntity
  8
0
 62
     0
100
AcDbMText
 10
725.6222853705862
 20
4246.708531802593
 30
0.0
 40
7.0
 41
0.0
 71
     5
 72
     1
  1
(4.6)
 73
     1
 44
1.0
1001
ACAD
1000
MTEXTBEGIN
1070
    73
1070
     1
1070
    44
1040
1.0
1070
    74
1070
     0
1000
MTEXTEND
  0
POINT
  5
72E
330
724
100
AcDbEntity
  8
Defpoints
 62
     0
370
    30
100
AcDbPoint
 10
693.7556187039198
 20
4172.454823547608
 30
0.0
  0
POINT
  5
72F
330
724
100
AcDbEntity
  8
Defpoints
 62
     0
370
    30
100
AcDbPoint
 10
702.9556187039196
 20
4155.554823547607
 30
0.0
  0
POINT
  5
730
330
724
100
AcDbEntity
  8
Defpoints
 62
     0
370
    30
100
AcDbPoint
 10
702.9556187039196
 20
4242.208531802592
 30
0.0
  0
ENDBLK
  5
731
330
724
100
AcDbEntity
  8
0
370
    30
100
AcDbBlockEnd
  0
BLOCK
  5
733
330
732
100
AcDbEntity
  8
0
370
    30
100
AcDbBlockBegin
  2
*D25
 70
     1
 10
0.0
 20
0.0
 30
0.0
  3
*D25
  1

  0
LINE
  5
734
330
732
100
AcDbEntity
  8
0
 62
     0
370
     0
100
AcDbLine
 10
694.1556187039196
 20
4126.354823547608
 30
0.0
 11
744.3808050016031
 21
4126.354823547608
 31
0.0
  0
LINE
  5
735
330
732
100
AcDbEntity
  8
0
 62
     0
370
     0
100
AcDbLine
 10
694.1556187039196
 20
4181.754823547608
 30
0.0
 11
744.3808050016031
 21
4181.754823547608
 31
0.0
  0
LINE
  5
736
330
732
100
AcDbEntity
  8
0
 62
     0
370
     0
100
AcDbLine
 10
742.3808050016032
 20
4131.354823547608
 30
0.0
 11
742.3808050016032
 21
4176.754823547607
 31
0.0
  0
INSERT
  5
737
330
732
100
AcDbEntity
  8
0
 62
     0
370
     0
100
AcDbBlockReference
  2
_Open30
 10
742.3808050016032
 20
4126.354823547608
 30
0.0
 41
5.0
 42
5.0
 43
5.0
 50
270.0
  0
INSERT
  5
738
330
732
100
AcDbEntity
  8
0
 62
     0
370
     0
100
AcDbBlockReference
  2
_Open30
 10
742.3808050016032
 20
4181.754823547608
 30
0.0
 41
5.0
 42
5.0
 43
5.0
 50
90.0
  0
MTEXT
  5
739
330
732
100
AcDbEntity
  8
0
 62
     0
100
AcDbMText
 10
737.8808050016025
 20
4154.054823547608
 30
0.0
 40
7.0
 41
0.0
 71
     5
 72
     1
  1
%%C27.7
 11
0.0000000000000001
 21
1.0
 31
0.0
 73
     1
 44
1.0
1001
ACAD
1000
MTEXTBEGIN
1070
    73
1070
     1
1070
    44
1040
1.0
1070
    74
1070
     0
1000
MTEXTEND
  0
POINT
  5
73A
330
732
100
AcDbEntity
  8
Defpoints
 62
     0
370
    30
100
AcDbPoint
 10
693.1556187039197
 20
4126.354823547608
 30
0.0
  0
POINT
  5
73B
330
732
100
AcDbEntity
  8
Defpoints
 62
     0
370
    30
100
AcDbPoint
 10
693.1556187039197
 20
4181.754823547608
 30
0.0
  0
POINT
  5
73C
330
732
100
AcDbEntity
  8
Defpoints
 62
     0
370
    30
100
AcDbPoint
 10
742.3808050016032
 20
4181.754823547608
 30
0.0
  0
ENDBLK
  5
73D
330
732
100
AcDbEntity
  8
0
370
    30
100
AcDbBlockEnd
  0
BLOCK
  5
73F
330
73E
100
AcDbEntity
  8
0
370
    30
100
AcDbBlockBegin
  2
*D26
 70
     1
 10
0.0
 20
0.0
 30
0.0
  3
*D26
  1

  0
LINE
  5
740
330
73E
100
AcDbEntity
  8
0
 62
     0
370
     0
100
AcDbLine
 10
699.9556187039197
 20
4164.054823547608
 30
0.0
 11
728.5556187039206
 21
4164.054823547608
 31
0.0
  0
LINE
  5
741
330
73E
100
AcDbEntity
  8
0
 62
     0
370
     0
100
AcDbLine
 10
699.9556187039197
 20
4144.054823547609
 30
0.0
 11
728.5556187039206
 21
4144.054823547609
 31
0.0
  0
LINE
  5
742
330
73E
100
AcDbEntity
  8
0
 62
     0
370
     0
100
AcDbLine
 10
726.5556187039205
 20
4159.054823547609
 30
0.0
 11
726.5556187039205
 21
4149.054823547609
 31
0.0
  0
INSERT
  5
743
330
73E
100
AcDbEntity
  8
0
 62
     0
370
     0
100
AcDbBlockReference
  2
_Open30
 10
726.5556187039205
 20
4164.054823547608
 30
0.0
 41
5.0
 42
5.0
 43
5.0
 50
270.0
  0
LINE
  5
744
330
73E
100
AcDbEntity
  8
0
 62
     0
370
     0
100
AcDbLine
 10
726.5556187039205
 20
4169.054823547609
 30
0.0
 11
726.5556187039205
 21
4174.054823547609
 31
0.0
  0
LINE
  5
745
330
73E
100
AcDbEntity
  8
0
 62
     0
370
     0
100
AcDbLine
 10
726.5556187039205
 20
4164.054823547608
 30
0.0
 11
726.5556187039205
 21
4159.054823547609
 31
0.0
  0
INSERT
  5
746
330
73E
100
AcDbEntity
  8
0
 62
     0
370
     0
100
AcDbBlockReference
  2
_Open30
 10
726.5556187039205
 20
4144.054823547609
 30
0.0
 41
5.0
 42
5.0
 43
5.0
 50
90.0
  0
LINE
  5
747
330
73E
100
AcDbEntity
  8
0
 62
     0
370
     0
100
AcDbLine
 10
726.5556187039205
 20
4139.054823547609
 30
0.0
 11
726.5556187039205
 21
4134.054823547609
 31
0.0
  0
LINE
  5
748
330
73E
100
AcDbEntity
  8
0
 62
     0
370
     0
100
AcDbLine
 10
726.5556187039205
 20
4144.054823547609
 30
0.0
 11
726.5556187039205
 21
4149.054823547609
 31
0.0
  0
MTEXT
  5
749
330
73E
100
AcDbEntity
  8
0
 62
     0
100
AcDbMText
 10
722.0556187039199
 20
4154.054823547609
 30
0.0
 40
7.0
 41
0.0
 71
     5
 72
     1
  1
%%C10
 11
0.0000000000000001
 21
1.0
 31
0.0
 73
     1
 44
1.0
1001
ACAD
1000
MTEXTBEGIN
1070
    73
1070
     1
1070
    44
1040
1.0
1070
    74
1070
     0
1000
MTEXTEND
  0
POINT
  5
74A
330
73E
100
AcDbEntity
  8
Defpoints
 62
     0
370
    30
100
AcDbPoint
 10
698.9556187039197
 20
4164.054823547608
 30
0.0
  0
POINT
  5
74B
330
73E
100
AcDbEntity
  8
Defpoints
 62
     0
370
    30
100
AcDbPoint
 10
698.9556187039197
 20
4144.054823547609
 30
0.0
  0
POINT
  5
74C
330
73E
100
AcDbEntity
  8
Defpoints
 62
     0
370
    30
100
AcDbPoint
 10
726.5556187039205
 20
4144.054823547609
 30
0.0
  0
ENDBLK
  5
74D
330
73E
100
AcDbEntity
  8
0
370
    30
100
AcDbBlockEnd
  0
BLOCK
  5
74F
330
74E
100
AcDbEntity
  8
0
370
    30
100
AcDbBlockBegin
  2
*D27
 70
     1
 10
0.0
 20
0.0
 30
0.0
  3
*D27
  1

  0
LINE
  5
750
330
74E
100
AcDbEntity
  8
0
 62
     0
370
     0
100
AcDbLine
 10
693.7556187039198
 20
4134.654823547608
 30
0.0
 11
693.7556187039198
 21
4108.313966165544
 31
0.0
  0
LINE
  5
751
330
74E
100
AcDbEntity
  8
0
 62
     0
370
     0
100
AcDbLine
 10
707.5556187039198
 20
4151.754823547608
 30
0.0
 11
707.5556187039198
 21
4108.313966165544
 31
0.0
  0
LINE
  5
752
330
74E
100
AcDbEntity
  8
0
 62
     0
370
     0
100
AcDbLine
 10
702.5556187039198
 20
4110.313966165544
 30
0.0
 11
698.7556187039198
 21
4110.313966165544
 31
0.0
  0
LINE
  5
753
330
74E
100
AcDbEntity
  8
0
 62
     0
370
     0
100
AcDbLine
 10
693.7556187039198
 20
4110.313966165544
 30
0.0
 11
663.4222853705864
 21
4110.313966165544
 31
0.0
  0
INSERT
  5
754
330
74E
100
AcDbEntity
  8
0
 62
     0
370
     0
100
AcDbBlockReference
  2
_Open30
 10
707.5556187039198
 20
4110.313966165544
 30
0.0
 41
5.0
 42
5.0
 43
5.0
  0
INSERT
  5
755
330
74E
100
AcDbEntity
  8
0
 62
     0
370
     0
100
AcDbBlockReference
  2
_Open30
 10
693.7556187039198
 20
4110.313966165544
 30
0.0
 41
5.0
 42
5.0
 43
5.0
 50
180.0
  0
MTEXT
  5
756
330
74E
100
AcDbEntity
  8
0
 62
     0
100
AcDbMText
 10
676.0889520372532
 20
4114.813966165544
 30
0.0
 40
7.0
 41
0.0
 71
     5
 72
     1
  1
(6.9)
 73
     1
 44
1.0
1001
ACAD
1000
MTEXTBEGIN
1070
    73
1070
     1
1070
    44
1040
1.0
1070
    74
1070
     0
1000
MTEXTEND
  0
POINT
  5
757
330
74E
100
AcDbEntity
  8
Defpoints
 62
     0
370
    30
100
AcDbPoint
 10
693.7556187039198
 20
4135.654823547607
 30
0.0
  0
POINT
  5
758
330
74E
100
AcDbEntity
  8
Defpoints
 62
     0
370
    30
100
AcDbPoint
 10
707.5556187039198
 20
4152.754823547608
 30
0.0
  0
POINT
  5
759
330
74E
100
AcDbEntity
  8
Defpoints
 62
     0
370
    30
100
AcDbPoint
 10
707.5556187039198
 20
4110.313966165544
 30
0.0
  0
ENDBLK
  5
75A
330
74E
100
AcDbEntity
  8
0
370
    30
100
AcDbBlockEnd
  0
BLOCK
  5
75C
330
75B
100
AcDbEntity
  8
0
370
    30
100
AcDbBlockBegin
  2
*D28
 70
     1
 10
0.0
 20
0.0
 30
0.0
  3
*D28
  1

  0
LINE
  5
75D
330
75B
100
AcDbEntity
  8
0
 62
     0
370
     0
100
AcDbLine
 10
759.4448161859594
 20
4153.054823547607
 30
0.0
 11
759.4448161859594
 21
4109.515325074709
 31
0.0
  0
LINE
  5
75E
330
75B
100
AcDbEntity
  8
0
 62
     0
370
     0
100
AcDbLine
 10
817.8448161859595
 20
4153.054823547607
 30
0.0
 11
817.8448161859595
 21
4109.515325074709
 31
0.0
  0
LINE
  5
75F
330
75B
100
AcDbEntity
  8
0
 62
     0
370
     0
100
AcDbLine
 10
764.4448161859594
 20
4111.51532507471
 30
0.0
 11
812.8448161859594
 21
4111.51532507471
 31
0.0
  0
INSERT
  5
760
330
75B
100
AcDbEntity
  8
0
 62
     0
370
     0
100
AcDbBlockReference
  2
_Open30
 10
759.4448161859594
 20
4111.51532507471
 30
0.0
 41
5.0
 42
5.0
 43
5.0
 50
180.0
  0
INSERT
  5
761
330
75B
100
AcDbEntity
  8
0
 62
     0
370
     0
100
AcDbBlockReference
  2
_Open30
 10
817.8448161859595
 20
4111.51532507471
 30
0.0
 41
5.0
 42
5.0
 43
5.0
  0
MTEXT
  5
762
330
75B
100
AcDbEntity
  8
0
 62
     0
100
AcDbMText
 10
788.6448161859697
 20
4116.01532507471
 30
0.0
 40
7.0
 41
0.0
 71
     5
 72
     1
  1
%%C29.2
 73
     1
 44
1.0
1001
ACAD
1000
MTEXTBEGIN
1070
    73
1070
     1
1070
    44
1040
1.0
1070
    74
1070
     0
1000
MTEXTEND
  0
POINT
  5
763
330
75B
100
AcDbEntity
  8
Defpoints
 62
     0
370
    30
100
AcDbPoint
 10
759.4448161859594
 20
4154.054823547607
 30
0.0
  0
POINT
  5
764
330
75B
100
AcDbEntity
  8
Defpoints
 62
     0
370
    30
100
AcDbPoint
 10
817.8448161859595
 20
4154.054823547607
 30
0.0
  0
POINT
  5
765
330
75B
100
AcDbEntity
  8
Defpoints
 62
     0
370
    30
100
AcDbPoint
 10
817.8448161859595
 20
4111.51532507471
 30
0.0
  0
ENDBLK
  5
766
330
75B
100
AcDbEntity
  8
0
370
    30
100
AcDbBlockEnd
  0
BLOCK
  5
768
330
767
100
AcDbEntity
  8
0
370
    30
100
AcDbBlockBegin
  2
*D29
 70
     1
 10
0.0
 20
0.0
 30
0.0
  3
*D29
  1

  0
LINE
  5
769
330
767
100
AcDbEntity
  8
0
 62
     0
370
     0
100
AcDbLine
 10
618.1556187039197
 20
4167.39898929705
 30
0.0
 11
618.1556187039197
 21
4218.100089677377
 31
0.0
  0
LINE
  5
76A
330
767
100
AcDbEntity
  8
0
 62
     0
370
     0
100
AcDbLine
 10
627.3556187039197
 20
4184.254823547608
 30
0.0
 11
627.3556187039197
 21
4218.100089677377
 31
0.0
  0
LINE
  5
76B
330
767
100
AcDbEntity
  8
0
 62
     0
370
     0
100
AcDbLine
 10
632.3556187039197
 20
4216.100089677376
 30
0.0
 11
637.3556187039197
 21
4216.100089677376
 31
0.0
  0
LINE
  5
76C
330
767
100
AcDbEntity
  8
0
 62
     0
370
     0
100
AcDbLine
 10
613.1556187039197
 20
4216.100089677376
 30
0.0
 11
582.023363484207
 21
4216.100089677376
 31
0.0
  0
LINE
  5
76D
330
767
100
AcDbEntity
  8
0
 62
     0
370
     0
100
AcDbLine
 10
627.3556187039197
 20
4216.100089677376
 30
0.0
 11
618.1556187039197
 21
4216.100089677376
 31
0.0
  0
INSERT
  5
76E
330
767
100
AcDbEntity
  8
0
 62
     0
370
     0
100
AcDbBlockReference
  2
_Open30
 10
627.3556187039197
 20
4216.100089677376
 30
0.0
 41
5.0
 42
5.0
 43
5.0
 50
180.0
  0
INSERT
  5
76F
330
767
100
AcDbEntity
  8
0
 62
     0
370
     0
100
AcDbBlockReference
  2
_Open30
 10
618.1556187039197
 20
4216.100089677376
 30
0.0
 41
5.0
 42
5.0
 43
5.0
  0
MTEXT
  5
770
330
767
100
AcDbEntity
  8
0
 62
     0
100
AcDbMText
 10
590.023363484207
 20
4220.600089677376
 30
0.0
 40
7.0
 41
0.0
 71
     5
 72
     1
  1
4.6
 73
     1
 44
1.0
1001
ACAD
1000
MTEXTBEGIN
1070
    73
1070
     1
1070
    44
1040
1.0
1070
    74
1070
     0
1000
MTEXTEND
  0
POINT
  5
771
330
767
100
AcDbEntity
  8
Defpoints
 62
     0
370
    30
100
AcDbPoint
 10
618.1556187039197
 20
4166.39898929705
 30
0.0
  0
POINT
  5
772
330
767
100
AcDbEntity
  8
Defpoints
 62
     0
370
    30
100
AcDbPoint
 10
627.3556187039197
 20
4183.254823547608
 30
0.0
  0
POINT
  5
773
330
767
100
AcDbEntity
  8
Defpoints
 62
     0
370
    30
100
AcDbPoint
 10
627.3556187039197
 20
4216.100089677376
 30
0.0
  0
ENDBLK
  5
774
330
767
100
AcDbEntity
  8
0
370
    30
100
AcDbBlockEnd
  0
BLOCK
  5
776
330
775
100
AcDbEntity
  8
0
370
    30
100
AcDbBlockBegin
  2
*D30
 70
     1
 10
0.0
 20
0.0
 30
0.0
  3
*D30
  1

  0
LINE
  5
777
330
775
100
AcDbEntity
  8
0
 62
     0
370
     0
100
AcDbLine
 10
627.3556187039197
 20
4184.254823547608
 30
0.0
 11
627.3556187039197
 21
4218.100089677377
 31
0.0
  0
LINE
  5
778
330
775
100
AcDbEntity
  8
0
 62
     0
370
     0
100
AcDbLine
 10
667.3556187039197
 20
4184.254823547608
 30
0.0
 11
667.3556187039197
 21
4218.100089677377
 31
0.0
  0
LINE
  5
779
330
775
100
AcDbEntity
  8
0
 62
     0
370
     0
100
AcDbLine
 10
632.3556187039197
 20
4216.100089677376
 30
0.0
 11
662.3556187039197
 21
4216.100089677376
 31
0.0
  0
INSERT
  5
77A
330
775
100
AcDbEntity
  8
0
 62
     0
370
     0
100
AcDbBlockReference
  2
_Open30
 10
627.3556187039197
 20
4216.100089677376
 30
0.0
 41
5.0
 42
5.0
 43
5.0
 50
180.0
  0
INSERT
  5
77B
330
775
100
AcDbEntity
  8
0
 62
     0
370
     0
100
AcDbBlockReference
  2
_Open30
 10
667.3556187039197
 20
4216.100089677376
 30
0.0
 41
5.0
 42
5.0
 43
5.0
  0
MTEXT
  5
77C
330
775
100
AcDbEntity
  8
0
 62
     0
100
AcDbMText
 10
647.3556187039197
 20
4220.600089677376
 30
0.0
 40
7.0
 41
0.0
 71
     5
 72
     1
  1
20
 73
     1
 44
1.0
1001
ACAD
1000
MTEXTBEGIN
1070
    73
1070
     1
1070
    44
1040
1.0
1070
    74
1070
     0
1000
MTEXTEND
  0
POINT
  5
77D
330
775
100
AcDbEntity
  8
Defpoints
 62
     0
370
    30
100
AcDbPoint
 10
627.3556187039197
 20
4183.254823547608
 30
0.0
  0
POINT
  5
77E
330
775
100
AcDbEntity
  8
Defpoints
 62
     0
370
    30
100
AcDbPoint
 10
667.3556187039197
 20
4183.254823547608
 30
0.0
  0
POINT
  5
77F
330
775
100
AcDbEntity
  8
Defpoints
 62
     0
370
    30
100
AcDbPoint
 10
667.3556187039197
 20
4216.100089677376
 30
0.0
  0
ENDBLK
  5
780
330
775
100
AcDbEntity
  8
0
370
    30
100
AcDbBlockEnd
  0
BLOCK
  5
8F1
330
8F0
100
AcDbEntity
  8
0
100
AcDbBlockBegin
  2
*D32
 70
     1
 10
0.0
 20
0.0
 30
0.0
  3
*D32
  1

  0
LINE
  5
9AF
330
8F0
100
AcDbEntity
  8
0
 62
     0
370
    -2
100
AcDbLine
 10
71.50566612107343
 20
165.4336467453761
 30
0.0
 11
71.50566612107343
 21
130.160292742182
 31
0.0
  0
LINE
  5
9B0
330
8F0
100
AcDbEntity
  8
0
 62
     0
370
    -2
100
AcDbLine
 10
103.5056661210747
 20
165.4336467453761
 30
0.0
 11
103.5056661210747
 21
130.160292742182
 31
0.0
  0
LINE
  5
9B1
330
8F0
100
AcDbEntity
  8
0
 62
     0
370
    -2
100
AcDbLine
 10
76.50566612107343
 20
132.160292742182
 30
0.0
 11
98.50566612107469
 21
132.160292742182
 31
0.0
  0
INSERT
  5
9B2
330
8F0
100
AcDbEntity
  8
0
 62
     0
370
    -2
100
AcDbBlockReference
  2
_Open30
 10
71.50566612107343
 20
132.160292742182
 30
0.0
 41
5.0
 42
5.0
 43
5.0
 50
180.0
  0
INSERT
  5
9B3
330
8F0
100
AcDbEntity
  8
0
 62
     0
370
    -2
100
AcDbBlockReference
  2
_Open30
 10
103.5056661210747
 20
132.160292742182
 30
0.0
 41
5.0
 42
5.0
 43
5.0
  0
MTEXT
  5
9B4
330
8F0
100
AcDbEntity
  8
0
 62
     0
100
AcDbMText
 10
87.505666121074
 20
136.7989764225044
 30
0.0
 40
7.0
 41
0.0
 71
     5
 72
     1
  1
16
 73
     1
 44
1.0
1001
ACAD
1000
MTEXTBEGIN
1070
    73
1070
     1
1070
    44
1040
1.0
1070
    74
1070
     0
1000
MTEXTEND
  0
POINT
  5
9B5
330
8F0
100
AcDbEntity
  8
Defpoints
 62
     0
100
AcDbPoint
 10
71.50566612107343
 20
166.4336467453761
 30
0.0
  0
POINT
  5
9B6
330
8F0
100
AcDbEntity
  8
Defpoints
 62
     0
100
AcDbPoint
 10
103.5056661210747
 20
166.4336467453761
 30
0.0
  0
POINT
  5
9B7
330
8F0
100
AcDbEntity
  8
Defpoints
 62
     0
100
AcDbPoint
 10
103.5056661210747
 20
132.160292742182
 30
0.0
  0
ENDBLK
  5
8F2
330
8F0
100
AcDbEntity
  8
0
100
AcDbBlockEnd
  0
BLOCK
  5
8FD
330
8FC
100
AcDbEntity
  8
0
100
AcDbBlockBegin
  2
*D33
 70
     1
 10
0.0
 20
0.0
 30
0.0
  3
*D33
  1

  0
LINE
  5
9B8
330
8FC
100
AcDbEntity
  8
0
 62
     0
370
    -2
100
AcDbLine
 10
158.5774702799376
 20
176.3386467453767
 30
0.0
 11
146.1774702799377
 21
176.3386467453767
 31
0.0
  0
LINE
  5
9B9
330
8FC
100
AcDbEntity
  8
0
 62
     0
370
    -2
100
AcDbLine
 10
158.5774702799376
 20
171.728646745378
 30
0.0
 11
146.1774702799377
 21
171.728646745378
 31
0.0
  0
LINE
  5
9BA
330
8FC
100
AcDbEntity
  8
0
 62
     0
370
    -2
100
AcDbLine
 10
148.1774702799377
 20
166.728646745378
 30
0.0
 11
148.1774702799377
 21
161.728646745378
 31
0.0
  0
LINE
  5
9BB
330
8FC
100
AcDbEntity
  8
0
 62
     0
370
    -2
100
AcDbLine
 10
148.1774702799377
 20
181.3386467453767
 30
0.0
 11
148.1774702799377
 21
219.7729091138597
 31
0.0
  0
LINE
  5
9BC
330
8FC
100
AcDbEntity
  8
0
 62
     0
370
    -2
100
AcDbLine
 10
148.1774702799377
 20
171.728646745378
 30
0.0
 11
148.1774702799377
 21
176.3386467453767
 31
0.0
  0
INSERT
  5
9BD
330
8FC
100
AcDbEntity
  8
0
 62
     0
370
    -2
100
AcDbBlockReference
  2
_Open30
 10
148.1774702799377
 20
171.728646745378
 30
0.0
 41
5.0
 42
5.0
 43
5.0
 50
90.0
  0
INSERT
  5
9BE
330
8FC
100
AcDbEntity
  8
0
 62
     0
370
    -2
100
AcDbBlockReference
  2
_Open30
 10
148.1774702799377
 20
176.3386467453767
 30
0.0
 41
5.0
 42
5.0
 43
5.0
 50
270.0
  0
MTEXT
  5
9BF
330
8FC
100
AcDbEntity
  8
0
 62
     0
100
AcDbMText
 10
143.5317348870565
 20
204.2553134120465
 30
0.0
 40
7.0
 41
0.0
 71
     5
 72
     1
  1
%%C2.305
 11
0.0000000000000001
 21
1.0
 31
0.0
 73
     1
 44
1.0
1001
ACAD
1000
MTEXTBEGIN
1070
    73
1070
     1
1070
    44
1040
1.0
1070
    74
1070
     0
1000
MTEXTEND
  0
POINT
  5
9C0
330
8FC
100
AcDbEntity
  8
Defpoints
 62
     0
100
AcDbPoint
 10
159.5774702799376
 20
176.3386467453767
 30
0.0
  0
POINT
  5
9C1
330
8FC
100
AcDbEntity
  8
Defpoints
 62
     0
100
AcDbPoint
 10
159.5774702799376
 20
171.728646745378
 30
0.0
  0
POINT
  5
9C2
330
8FC
100
AcDbEntity
  8
Defpoints
 62
     0
100
AcDbPoint
 10
148.1774702799377
 20
171.728646745378
 30
0.0
  0
ENDBLK
  5
8FE
330
8FC
100
AcDbEntity
  8
0
100
AcDbBlockEnd
  0
BLOCK
  5
90B
330
90A
100
AcDbEntity
  8
0
100
AcDbBlockBegin
  2
*D34
 70
     1
 10
0.0
 20
0.0
 30
0.0
  3
*D34
  1

  0
LINE
  5
9C3
330
90A
100
AcDbEntity
  8
0
 62
     0
370
    -2
100
AcDbLine
 10
171.9774702799374
 20
184.0336467453792
 30
0.0
 11
134.1774702799381
 21
184.0336467453792
 31
0.0
  0
LINE
  5
9C4
330
90A
100
AcDbEntity
  8
0
 62
     0
370
    -2
100
AcDbLine
 10
171.9774702799376
 20
164.0336467453783
 30
0.0
 11
134.1774702799381
 21
164.0336467453783
 31
0.0
  0
LINE
  5
9C5
330
90A
100
AcDbEntity
  8
0
 62
     0
370
    -2
100
AcDbLine
 10
136.1774702799381
 20
179.0336467453792
 30
0.0
 11
136.1774702799381
 21
169.0336467453783
 31
0.0
  0
INSERT
  5
9C6
330
90A
100
AcDbEntity
  8
0
 62
     0
370
    -2
100
AcDbBlockReference
  2
_Open30
 10
136.1774702799381
 20
184.0336467453792
 30
0.0
 41
5.0
 42
5.0
 43
5.0
 50
270.0
  0
LINE
  5
9C7
330
90A
100
AcDbEntity
  8
0
 62
     0
370
    -2
100
AcDbLine
 10
136.1774702799381
 20
189.0336467453792
 30
0.0
 11
136.1774702799382
 21
194.0336467453792
 31
0.0
  0
LINE
  5
9C8
330
90A
100
AcDbEntity
  8
0
 62
     0
370
    -2
100
AcDbLine
 10
136.1774702799381
 20
184.0336467453792
 30
0.0
 11
136.1774702799381
 21
179.0336467453792
 31
0.0
  0
INSERT
  5
9C9
330
90A
100
AcDbEntity
  8
0
 62
     0
370
    -2
100
AcDbBlockReference
  2
_Open30
 10
136.1774702799381
 20
164.0336467453783
 30
0.0
 41
5.0
 42
5.0
 43
5.0
 50
90.0
  0
LINE
  5
9CA
330
90A
100
AcDbEntity
  8
0
 62
     0
370
    -2
100
AcDbLine
 10
136.1774702799381
 20
159.0336467453783
 30
0.0
 11
136.1774702799381
 21
154.0336467453783
 31
0.0
  0
LINE
  5
9CB
330
90A
100
AcDbEntity
  8
0
 62
     0
370
    -2
100
AcDbLine
 10
136.1774702799381
 20
164.0336467453783
 30
0.0
 11
136.1774702799381
 21
169.0336467453783
 31
0.0
  0
MTEXT
  5
9CC
330
90A
100
AcDbEntity
  8
0
 62
     0
100
AcDbMText
 10
131.5340854579099
 20
174.0336467453801
 30
0.0
 40
7.0
 41
0.0
 71
     5
 72
     1
  1
%%C10
 11
0.0000000000000001
 21
1.0
 31
0.0
 73
     1
 44
1.0
1001
ACAD
1000
MTEXTBEGIN
1070
    73
1070
     1
1070
    44
1040
1.0
1070
    74
1070
     0
1000
MTEXTEND
  0
POINT
  5
9CD
330
90A
100
AcDbEntity
  8
Defpoints
 62
     0
100
AcDbPoint
 10
172.9774702799374
 20
184.0336467453792
 30
0.0
  0
POINT
  5
9CE
330
90A
100
AcDbEntity
  8
Defpoints
 62
     0
100
AcDbPoint
 10
172.9774702799376
 20
164.0336467453783
 30
0.0
  0
POINT
  5
9CF
330
90A
100
AcDbEntity
  8
Defpoints
 62
     0
100
AcDbPoint
 10
136.1774702799381
 20
164.0336467453783
 30
0.0
  0
ENDBLK
  5
90C
330
90A
100
AcDbEntity
  8
0
100
AcDbBlockEnd
  0
BLOCK
  5
91B
330
91A
100
AcDbEntity
  8
0
100
AcDbBlockBegin
  2
*D35
 70
     1
 10
0.0
 20
0.0
 30
0.0
  3
*D35
  1

  0
LINE
  5
9D0
330
91A
100
AcDbEntity
  8
0
 62
     0
370
    -2
100
AcDbLine
 10
178.1774702799376
 20
200.5336467453792
 30
0.0
 11
178.1774702799376
 21
251.2347471257056
 31
0.0
  0
LINE
  5
9D1
330
91A
100
AcDbEntity
  8
0
 62
     0
370
    -2
100
AcDbLine
 10
172.9774702799376
 20
185.0336467453783
 30
0.0
 11
172.9774702799376
 21
251.2347471257056
 31
0.0
  0
LINE
  5
9D2
330
91A
100
AcDbEntity
  8
0
 62
     0
370
    -2
100
AcDbLine
 10
183.1774702799376
 20
249.2347471257056
 30
0.0
 11
188.1774702799376
 21
249.2347471257056
 31
0.0
  0
LINE
  5
9D3
330
91A
100
AcDbEntity
  8
0
 62
     0
370
    -2
100
AcDbLine
 10
167.9774702799376
 20
249.2347471257056
 30
0.0
 11
142.7456851743956
 21
249.2347471257056
 31
0.0
  0
LINE
  5
9D4
330
91A
100
AcDbEntity
  8
0
 62
     0
370
    -2
100
AcDbLine
 10
178.1774702799376
 20
249.2347471257056
 30
0.0
 11
172.9774702799376
 21
249.2347471257056
 31
0.0
  0
INSERT
  5
9D5
330
91A
100
AcDbEntity
  8
0
 62
     0
370
    -2
100
AcDbBlockReference
  2
_Open30
 10
178.1774702799376
 20
249.2347471257056
 30
0.0
 41
5.0
 42
5.0
 43
5.0
 50
180.0
  0
INSERT
  5
9D6
330
91A
100
AcDbEntity
  8
0
 62
     0
370
    -2
100
AcDbBlockReference
  2
_Open30
 10
172.9774702799376
 20
249.2347471257056
 30
0.0
 41
5.0
 42
5.0
 43
5.0
  0
MTEXT
  5
9D7
330
91A
100
AcDbEntity
  8
0
 62
     0
100
AcDbMText
 10
150.045215060225
 20
253.8804825185867
 30
0.0
 40
7.0
 41
0.0
 71
     5
 72
     1
  1
2.6
 73
     1
 44
1.0
1001
ACAD
1000
MTEXTBEGIN
1070
    73
1070
     1
1070
    44
1040
1.0
1070
    74
1070
     0
1000
MTEXTEND
  0
POINT
  5
9D8
330
91A
100
AcDbEntity
  8
Defpoints
 62
     0
100
AcDbPoint
 10
178.1774702799376
 20
199.5336467453792
 30
0.0
  0
POINT
  5
9D9
330
91A
100
AcDbEntity
  8
Defpoints
 62
     0
100
AcDbPoint
 10
172.9774702799376
 20
184.0336467453783
 30
0.0
  0
POINT
  5
9DA
330
91A
100
AcDbEntity
  8
Defpoints
 62
     0
100
AcDbPoint
 10
172.9774702799376
 20
249.2347471257056
 30
0.0
  0
ENDBLK
  5
91C
330
91A
100
AcDbEntity
  8
0
100
AcDbBlockEnd
  0
BLOCK
  5
929
330
928
100
AcDbEntity
  8
0
100
AcDbBlockBegin
  2
*D36
 70
     1
 10
0.0
 20
0.0
 30
0.0
  3
*D36
  1

  0
LINE
  5
9DB
330
928
100
AcDbEntity
  8
0
 62
     0
370
    -2
100
AcDbLine
 10
178.1774702799376
 20
200.5336467453792
 30
0.0
 11
178.1774702799376
 21
264.1873550003623
 31
0.0
  0
LINE
  5
9DC
330
928
100
AcDbEntity
  8
0
 62
     0
370
    -2
100
AcDbLine
 10
159.1774702799376
 20
176.9386467453771
 30
0.0
 11
159.1774702799376
 21
264.1873550003623
 31
0.0
  0
LINE
  5
9DD
330
928
100
AcDbEntity
  8
0
 62
     0
370
    -2
100
AcDbLine
 10
173.1774702799376
 20
262.1873550003622
 30
0.0
 11
164.1774702799376
 21
262.1873550003622
 31
0.0
  0
INSERT
  5
9DE
330
928
100
AcDbEntity
  8
0
 62
     0
370
    -2
100
AcDbBlockReference
  2
_Open30
 10
178.1774702799376
 20
262.1873550003622
 30
0.0
 41
5.0
 42
5.0
 43
5.0
 50
180.0
  0
LINE
  5
9DF
330
928
100
AcDbEntity
  8
0
 62
     0
370
    -2
100
AcDbLine
 10
183.1774702799376
 20
262.1873550003622
 30
0.0
 11
188.1774702799376
 21
262.1873550003622
 31
0.0
  0
LINE
  5
9E0
330
928
100
AcDbEntity
  8
0
 62
     0
370
    -2
100
AcDbLine
 10
178.1774702799376
 20
262.1873550003622
 30
0.0
 11
173.1774702799376
 21
262.1873550003622
 31
0.0
  0
INSERT
  5
9E1
330
928
100
AcDbEntity
  8
0
 62
     0
370
    -2
100
AcDbBlockReference
  2
_Open30
 10
159.1774702799376
 20
262.1873550003622
 30
0.0
 41
5.0
 42
5.0
 43
5.0
  0
LINE
  5
9E2
330
928
100
AcDbEntity
  8
0
 62
     0
370
    -2
100
AcDbLine
 10
154.1774702799376
 20
262.1873550003622
 30
0.0
 11
149.1774702799376
 21
262.1873550003622
 31
0.0
  0
LINE
  5
9E3
330
928
100
AcDbEntity
  8
0
 62
     0
370
    -2
100
AcDbLine
 10
159.1774702799376
 20
262.1873550003622
 30
0.0
 11
164.1774702799376
 21
262.1873550003622
 31
0.0
  0
MTEXT
  5
9E4
330
928
100
AcDbEntity
  8
0
 62
     0
100
AcDbMText
 10
168.6774702799376
 20
266.8307398223904
 30
0.0
 40
7.0
 41
0.0
 71
     5
 72
     1
  1
9.5
 73
     1
 44
1.0
1001
ACAD
1000
MTEXTBEGIN
1070
    73
1070
     1
1070
    44
1040
1.0
1070
    74
1070
     0
1000
MTEXTEND
  0
POINT
  5
9E5
330
928
100
AcDbEntity
  8
Defpoints
 62
     0
100
AcDbPoint
 10
178.1774702799376
 20
199.5336467453792
 30
0.0
  0
POINT
  5
9E6
330
928
100
AcDbEntity
  8
Defpoints
 62
     0
100
AcDbPoint
 10
159.1774702799376
 20
175.9386467453771
 30
0.0
  0
POINT
  5
9E7
330
928
100
AcDbEntity
  8
Defpoints
 62
     0
100
AcDbPoint
 10
159.1774702799376
 20
262.1873550003622
 30
0.0
  0
ENDBLK
  5
92A
330
928
100
AcDbEntity
  8
0
100
AcDbBlockEnd
  0
BLOCK
  5
939
330
938
100
AcDbEntity
  8
0
100
AcDbBlockBegin
  2
*D37
 70
     1
 10
0.0
 20
0.0
 30
0.0
  3
*D37
  1

  0
LINE
  5
9E8
330
938
100
AcDbEntity
  8
0
 62
     0
370
    -2
100
AcDbLine
 10
178.1774702799376
 20
200.5336467453774
 30
0.0
 11
178.1774702799376
 21
264.1873550003623
 31
0.0
  0
LINE
  5
9E9
330
938
100
AcDbEntity
  8
0
 62
     0
370
    -2
100
AcDbLine
 10
253.7774702799378
 20
193.4336467453779
 30
0.0
 11
253.7774702799378
 21
264.1873550003623
 31
0.0
  0
LINE
  5
9EA
330
938
100
AcDbEntity
  8
0
 62
     0
370
    -2
100
AcDbLine
 10
183.1774702799376
 20
262.1873550003622
 30
0.0
 11
248.7774702799378
 21
262.1873550003622
 31
0.0
  0
INSERT
  5
9EB
330
938
100
AcDbEntity
  8
0
 62
     0
370
    -2
100
AcDbBlockReference
  2
_Open30
 10
178.1774702799376
 20
262.1873550003622
 30
0.0
 41
5.0
 42
5.0
 43
5.0
 50
180.0
  0
INSERT
  5
9EC
330
938
100
AcDbEntity
  8
0
 62
     0
370
    -2
100
AcDbBlockReference
  2
_Open30
 10
253.7774702799378
 20
262.1873550003622
 30
0.0
 41
5.0
 42
5.0
 43
5.0
  0
MTEXT
  5
9ED
330
938
100
AcDbEntity
  8
0
 62
     0
100
AcDbMText
 10
215.9774702799377
 20
266.8471938183609
 30
0.0
 40
7.0
 41
0.0
 71
     5
 72
     1
  1
37.8
 73
     1
 44
1.0
1001
ACAD
1000
MTEXTBEGIN
1070
    73
1070
     1
1070
    44
1040
1.0
1070
    74
1070
     0
1000
MTEXTEND
  0
POINT
  5
9EE
330
938
100
AcDbEntity
  8
Defpoints
 62
     0
100
AcDbPoint
 10
178.1774702799376
 20
199.5336467453774
 30
0.0
  0
POINT
  5
9EF
330
938
100
AcDbEntity
  8
Defpoints
 62
     0
100
AcDbPoint
 10
253.7774702799378
 20
192.4336467453779
 30
0.0
  0
POINT
  5
9F0
330
938
100
AcDbEntity
  8
Defpoints
 62
     0
100
AcDbPoint
 10
253.7774702799378
 20
262.1873550003622
 30
0.0
  0
ENDBLK
  5
93A
330
938
100
AcDbEntity
  8
0
100
AcDbBlockEnd
  0
BLOCK
  5
945
330
944
100
AcDbEntity
  8
0
100
AcDbBlockBegin
  2
*D38
 70
     1
 10
0.0
 20
0.0
 30
0.0
  3
*D38
  1

  0
LINE
  5
9F1
330
944
100
AcDbEntity
  8
0
 62
     0
370
    -2
100
AcDbLine
 10
258.9774702799378
 20
185.0336467453783
 30
0.0
 11
258.9774702799378
 21
250.8299739307224
 31
0.0
  0
LINE
  5
9F2
330
944
100
AcDbEntity
  8
0
 62
     0
370
    -2
100
AcDbLine
 10
253.7774702799378
 20
193.4336467453779
 30
0.0
 11
253.7774702799378
 21
250.8299739307224
 31
0.0
  0
LINE
  5
9F3
330
944
100
AcDbEntity
  8
0
 62
     0
370
    -2
100
AcDbLine
 10
263.9774702799377
 20
248.8299739307224
 30
0.0
 11
268.9774702799377
 21
248.8299739307224
 31
0.0
  0
LINE
  5
9F4
330
944
100
AcDbEntity
  8
0
 62
     0
370
    -2
100
AcDbLine
 10
248.7774702799378
 20
248.8299739307224
 30
0.0
 11
221.9950659817511
 21
248.8299739307224
 31
0.0
  0
LINE
  5
9F5
330
944
100
AcDbEntity
  8
0
 62
     0
370
    -2
100
AcDbLine
 10
258.9774702799378
 20
248.8299739307224
 30
0.0
 11
253.7774702799378
 21
248.8299739307224
 31
0.0
  0
INSERT
  5
9F6
330
944
100
AcDbEntity
  8
0
 62
     0
370
    -2
100
AcDbBlockReference
  2
_Open30
 10
258.9774702799378
 20
248.8299739307224
 30
0.0
 41
5.0
 42
5.0
 43
5.0
 50
180.0
  0
INSERT
  5
9F7
330
944
100
AcDbEntity
  8
0
 62
     0
370
    -2
100
AcDbBlockReference
  2
_Open30
 10
253.7774702799378
 20
248.8299739307224
 30
0.0
 41
5.0
 42
5.0
 43
5.0
  0
MTEXT
  5
9F8
330
944
100
AcDbEntity
  8
0
 62
     0
100
AcDbMText
 10
232.8862681308445
 20
254.4558973692718
 30
0.0
 40
7.0
 41
0.0
 71
     5
 72
     1
  1
(2.6)
 73
     1
 44
1.0
1001
ACAD
1000
MTEXTBEGIN
1070
    73
1070
     1
1070
    44
1040
1.0
1070
    74
1070
     0
1000
MTEXTEND
  0
POINT
  5
9F9
330
944
100
AcDbEntity
  8
Defpoints
 62
     0
100
AcDbPoint
 10
258.9774702799378
 20
184.0336467453783
 30
0.0
  0
POINT
  5
9FA
330
944
100
AcDbEntity
  8
Defpoints
 62
     0
100
AcDbPoint
 10
253.7774702799378
 20
192.4336467453779
 30
0.0
  0
POINT
  5
9FB
330
944
100
AcDbEntity
  8
Defpoints
 62
     0
100
AcDbPoint
 10
253.7774702799378
 20
248.8299739307224
 30
0.0
  0
ENDBLK
  5
946
330
944
100
AcDbEntity
  8
0
100
AcDbBlockEnd
  0
BLOCK
  5
953
330
952
100
AcDbEntity
  8
0
100
AcDbBlockBegin
  2
*D39
 70
     1
 10
0.0
 20
0.0
 30
0.0
  3
*D39
  1

  0
LINE
  5
9FC
330
952
100
AcDbEntity
  8
0
 62
     0
370
    -2
100
AcDbLine
 10
253.7774702799378
 20
193.4336467453779
 30
0.0
 11
253.7774702799378
 21
264.1873550003623
 31
0.0
  0
LINE
  5
9FD
330
952
100
AcDbEntity
  8
0
 62
     0
370
    -2
100
AcDbLine
 10
262.9774702799376
 20
176.5336467453765
 30
0.0
 11
262.9774702799376
 21
264.1873550003623
 31
0.0
  0
LINE
  5
9FE
330
952
100
AcDbEntity
  8
0
 62
     0
370
    -2
100
AcDbLine
 10
248.7774702799378
 20
262.1873550003622
 30
0.0
 11
243.7774702799378
 21
262.1873550003622
 31
0.0
  0
LINE
  5
9FF
330
952
100
AcDbEntity
  8
0
 62
     0
370
    -2
100
AcDbLine
 10
267.9774702799376
 20
262.1873550003622
 30
0.0
 11
296.5353390956975
 21
262.1873550003622
 31
0.0
  0
LINE
  5
A00
330
952
100
AcDbEntity
  8
0
 62
     0
370
    -2
100
AcDbLine
 10
253.7774702799378
 20
262.1873550003622
 30
0.0
 11
262.9774702799376
 21
262.1873550003622
 31
0.0
  0
INSERT
  5
A01
330
952
100
AcDbEntity
  8
0
 62
     0
370
    -2
100
AcDbBlockReference
  2
_Open30
 10
253.7774702799378
 20
262.1873550003622
 30
0.0
 41
5.0
 42
5.0
 43
5.0
  0
INSERT
  5
A02
330
952
100
AcDbEntity
  8
0
 62
     0
370
    -2
100
AcDbBlockReference
  2
_Open30
 10
262.9774702799376
 20
262.1873550003622
 30
0.0
 41
5.0
 42
5.0
 43
5.0
 50
180.0
  0
MTEXT
  5
A03
330
952
100
AcDbEntity
  8
0
 62
     0
100
AcDbMText
 10
285.6441369466042
 20
267.8132784389116
 30
0.0
 40
7.0
 41
0.0
 71
     5
 72
     1
  1
(4.6)
 73
     1
 44
1.0
1001
ACAD
1000
MTEXTBEGIN
1070
    73
1070
     1
1070
    44
1040
1.0
1070
    74
1070
     0
1000
MTEXTEND
  0
POINT
  5
A04
330
952
100
AcDbEntity
  8
Defpoints
 62
     0
100
AcDbPoint
 10
253.7774702799378
 20
192.4336467453779
 30
0.0
  0
POINT
  5
A05
330
952
100
AcDbEntity
  8
Defpoints
 62
     0
100
AcDbPoint
 10
262.9774702799376
 20
175.5336467453765
 30
0.0
  0
POINT
  5
A06
330
952
100
AcDbEntity
  8
Defpoints
 62
     0
100
AcDbPoint
 10
262.9774702799376
 20
262.1873550003622
 30
0.0
  0
ENDBLK
  5
954
330
952
100
AcDbEntity
  8
0
100
AcDbBlockEnd
  0
BLOCK
  5
961
330
960
100
AcDbEntity
  8
0
100
AcDbBlockBegin
  2
*D40
 70
     1
 10
0.0
 20
0.0
 30
0.0
  3
*D40
  1

  0
LINE
  5
A07
330
960
100
AcDbEntity
  8
0
 62
     0
370
    -2
100
AcDbLine
 10
254.1774702799377
 20
146.3336467453775
 30
0.0
 11
304.4026565776206
 21
146.3336467453775
 31
0.0
  0
LINE
  5
A08
330
960
100
AcDbEntity
  8
0
 62
     0
370
    -2
100
AcDbLine
 10
254.1774702799377
 20
201.7336467453772
 30
0.0
 11
304.4026565776206
 21
201.7336467453772
 31
0.0
  0
LINE
  5
A09
330
960
100
AcDbEntity
  8
0
 62
     0
370
    -2
100
AcDbLine
 10
302.4026565776206
 20
151.3336467453775
 30
0.0
 11
302.4026565776206
 21
196.7336467453772
 31
0.0
  0
INSERT
  5
A0A
330
960
100
AcDbEntity
  8
0
 62
     0
370
    -2
100
AcDbBlockReference
  2
_Open30
 10
302.4026565776206
 20
146.3336467453775
 30
0.0
 41
5.0
 42
5.0
 43
5.0
 50
270.0
  0
INSERT
  5
A0B
330
960
100
AcDbEntity
  8
0
 62
     0
370
    -2
100
AcDbBlockReference
  2
_Open30
 10
302.4026565776206
 20
201.7336467453772
 30
0.0
 41
5.0
 42
5.0
 43
5.0
 50
90.0
  0
MTEXT
  5
A0C
330
960
100
AcDbEntity
  8
0
 62
     0
100
AcDbMText
 10
297.82978888118
 20
174.0336467453774
 30
0.0
 40
7.0
 41
0.0
 71
     5
 72
     1
  1
%%C27.7
 11
0.0000000000000001
 21
1.0
 31
0.0
 73
     1
 44
1.0
1001
ACAD
1000
MTEXTBEGIN
1070
    73
1070
     1
1070
    44
1040
1.0
1070
    74
1070
     0
1000
MTEXTEND
  0
POINT
  5
A0D
330
960
100
AcDbEntity
  8
Defpoints
 62
     0
100
AcDbPoint
 10
253.1774702799377
 20
146.3336467453775
 30
0.0
  0
POINT
  5
A0E
330
960
100
AcDbEntity
  8
Defpoints
 62
     0
100
AcDbPoint
 10
253.1774702799377
 20
201.7336467453772
 30
0.0
  0
POINT
  5
A0F
330
960
100
AcDbEntity
  8
Defpoints
 62
     0
100
AcDbPoint
 10
302.4026565776206
 20
201.7336467453772
 30
0.0
  0
ENDBLK
  5
962
330
960
100
AcDbEntity
  8
0
100
AcDbBlockEnd
  0
BLOCK
  5
96D
330
96C
100
AcDbEntity
  8
0
100
AcDbBlockBegin
  2
*D41
 70
     1
 10
0.0
 20
0.0
 30
0.0
  3
*D41
  1

  0
LINE
  5
A10
330
96C
100
AcDbEntity
  8
0
 62
     0
370
    -2
100
AcDbLine
 10
259.9774702799377
 20
184.0336467453783
 30
0.0
 11
288.5774702799379
 21
184.0336467453783
 31
0.0
  0
LINE
  5
A11
330
96C
100
AcDbEntity
  8
0
 62
     0
370
    -2
100
AcDbLine
 10
259.9774702799377
 20
164.0336467453783
 30
0.0
 11
288.5774702799379
 21
164.0336467453783
 31
0.0
  0
LINE
  5
A12
330
96C
100
AcDbEntity
  8
0
 62
     0
370
    -2
100
AcDbLine
 10
286.5774702799379
 20
179.0336467453783
 30
0.0
 11
286.5774702799379
 21
169.0336467453783
 31
0.0
  0
INSERT
  5
A13
330
96C
100
AcDbEntity
  8
0
 62
     0
370
    -2
100
AcDbBlockReference
  2
_Open30
 10
286.5774702799379
 20
184.0336467453783
 30
0.0
 41
5.0
 42
5.0
 43
5.0
 50
270.0
  0
LINE
  5
A14
330
96C
100
AcDbEntity
  8
0
 62
     0
370
    -2
100
AcDbLine
 10
286.5774702799379
 20
189.0336467453783
 30
0.0
 11
286.5774702799379
 21
194.0336467453782
 31
0.0
  0
LINE
  5
A15
330
96C
100
AcDbEntity
  8
0
 62
     0
370
    -2
100
AcDbLine
 10
286.5774702799379
 20
184.0336467453783
 30
0.0
 11
286.5774702799379
 21
179.0336467453783
 31
0.0
  0
INSERT
  5
A16
330
96C
100
AcDbEntity
  8
0
 62
     0
370
    -2
100
AcDbBlockReference
  2
_Open30
 10
286.5774702799379
 20
164.0336467453783
 30
0.0
 41
5.0
 42
5.0
 43
5.0
 50
90.0
  0
LINE
  5
A17
330
96C
100
AcDbEntity
  8
0
 62
     0
370
    -2
100
AcDbLine
 10
286.5774702799379
 20
159.0336467453783
 30
0.0
 11
286.5774702799379
 21
154.0336467453783
 31
0.0
  0
LINE
  5
A18
330
96C
100
AcDbEntity
  8
0
 62
     0
370
    -2
100
AcDbLine
 10
286.5774702799379
 20
164.0336467453783
 30
0.0
 11
286.5774702799379
 21
169.0336467453783
 31
0.0
  0
MTEXT
  5
A19
330
96C
100
AcDbEntity
  8
0
 62
     0
100
AcDbMText
 10
281.9340854579096
 20
174.0336467453783
 30
0.0
 40
7.0
 41
0.0
 71
     5
 72
     1
  1
%%C10
 11
0.0000000000000001
 21
1.0
 31
0.0
 73
     1
 44
1.0
1001
ACAD
1000
MTEXTBEGIN
1070
    73
1070
     1
1070
    44
1040
1.0
1070
    74
1070
     0
1000
MTEXTEND
  0
POINT
  5
A1A
330
96C
100
AcDbEntity
  8
Defpoints
 62
     0
100
AcDbPoint
 10
258.9774702799378
 20
184.0336467453783
 30
0.0
  0
POINT
  5
A1B
330
96C
100
AcDbEntity
  8
Defpoints
 62
     0
100
AcDbPoint
 10
258.9774702799378
 20
164.0336467453783
 30
0.0
  0
POINT
  5
A1C
330
96C
100
AcDbEntity
  8
Defpoints
 62
     0
100
AcDbPoint
 10
286.5774702799379
 20
164.0336467453783
 30
0.0
  0
ENDBLK
  5
96E
330
96C
100
AcDbEntity
  8
0
100
AcDbBlockEnd
  0
BLOCK
  5
97D
330
97C
100
AcDbEntity
  8
0
100
AcDbBlockBegin
  2
*D42
 70
     1
 10
0.0
 20
0.0
 30
0.0
  3
*D42
  1

  0
LINE
  5
A1D
330
97C
100
AcDbEntity
  8
0
 62
     0
370
    -2
100
AcDbLine
 10
253.7774702799378
 20
154.6336467453768
 30
0.0
 11
253.7774702799378
 21
128.2927893633134
 31
0.0
  0
LINE
  5
A1E
330
97C
100
AcDbEntity
  8
0
 62
     0
370
    -2
100
AcDbLine
 10
267.5774702799377
 20
171.7336467453772
 30
0.0
 11
267.5774702799377
 21
128.2927893633134
 31
0.0
  0
LINE
  5
A1F
330
97C
100
AcDbEntity
  8
0
 62
     0
370
    -2
100
AcDbLine
 10
262.5774702799378
 20
130.2927893633134
 30
0.0
 11
258.7774702799378
 21
130.2927893633134
 31
0.0
  0
LINE
  5
A20
330
97C
100
AcDbEntity
  8
0
 62
     0
370
    -2
100
AcDbLine
 10
253.7774702799378
 20
130.2927893633134
 30
0.0
 11
225.2196014641778
 21
130.2927893633134
 31
0.0
  0
INSERT
  5
A21
330
97C
100
AcDbEntity
  8
0
 62
     0
370
    -2
100
AcDbBlockReference
  2
_Open30
 10
267.5774702799377
 20
130.2927893633134
 30
0.0
 41
5.0
 42
5.0
 43
5.0
  0
INSERT
  5
A22
330
97C
100
AcDbEntity
  8
0
 62
     0
370
    -2
100
AcDbBlockReference
  2
_Open30
 10
253.7774702799378
 20
130.2927893633134
 30
0.0
 41
5.0
 42
5.0
 43
5.0
 50
180.0
  0
MTEXT
  5
A23
330
97C
100
AcDbEntity
  8
0
 62
     0
100
AcDbMText
 10
236.1108036132712
 20
135.9187128018628
 30
0.0
 40
7.0
 41
0.0
 71
     5
 72
     1
  1
(6.9)
 73
     1
 44
1.0
1001
ACAD
1000
MTEXTBEGIN
1070
    73
1070
     1
1070
    44
1040
1.0
1070
    74
1070
     0
1000
MTEXTEND
  0
POINT
  5
A24
330
97C
100
AcDbEntity
  8
Defpoints
 62
     0
100
AcDbPoint
 10
253.7774702799378
 20
155.6336467453768
 30
0.0
  0
POINT
  5
A25
330
97C
100
AcDbEntity
  8
Defpoints
 62
     0
100
AcDbPoint
 10
267.5774702799377
 20
172.7336467453772
 30
0.0
  0
POINT
  5
A26
330
97C
100
AcDbEntity
  8
Defpoints
 62
     0
100
AcDbPoint
 10
267.5774702799377
 20
130.2927893633134
 30
0.0
  0
ENDBLK
  5
97E
330
97C
100
AcDbEntity
  8
0
100
AcDbBlockEnd
  0
BLOCK
  5
98A
330
989
100
AcDbEntity
  8
0
100
AcDbBlockBegin
  2
*D43
 70
     1
 10
0.0
 20
0.0
 30
0.0
  3
*D43
  1

  0
LINE
  5
A27
330
989
100
AcDbEntity
  8
0
 62
     0
370
    -2
100
AcDbLine
 10
319.4666677619774
 20
173.0336467453764
 30
0.0
 11
319.4666677619774
 21
129.4941482724791
 31
0.0
  0
LINE
  5
A28
330
989
100
AcDbEntity
  8
0
 62
     0
370
    -2
100
AcDbLine
 10
377.8666677619775
 20
173.0336467453764
 30
0.0
 11
377.8666677619775
 21
129.4941482724791
 31
0.0
  0
LINE
  5
A29
330
989
100
AcDbEntity
  8
0
 62
     0
370
    -2
100
AcDbLine
 10
324.4666677619774
 20
131.4941482724791
 30
0.0
 11
372.8666677619775
 21
131.4941482724791
 31
0.0
  0
INSERT
  5
A2A
330
989
100
AcDbEntity
  8
0
 62
     0
370
    -2
100
AcDbBlockReference
  2
_Open30
 10
319.4666677619774
 20
131.4941482724791
 30
0.0
 41
5.0
 42
5.0
 43
5.0
 50
180.0
  0
INSERT
  5
A2B
330
989
100
AcDbEntity
  8
0
 62
     0
370
    -2
100
AcDbBlockReference
  2
_Open30
 10
377.8666677619775
 20
131.4941482724791
 30
0.0
 41
5.0
 42
5.0
 43
5.0
  0
MTEXT
  5
A2C
330
989
100
AcDbEntity
  8
0
 62
     0
100
AcDbMText
 10
348.6666677619877
 20
136.1351825236544
 30
0.0
 40
7.0
 41
0.0
 71
     5
 72
     1
  1
%%C29.2
 73
     1
 44
1.0
1001
ACAD
1000
MTEXTBEGIN
1070
    73
1070
     1
1070
    44
1040
1.0
1070
    74
1070
     0
1000
MTEXTEND
  0
POINT
  5
A2D
330
989
100
AcDbEntity
  8
Defpoints
 62
     0
100
AcDbPoint
 10
319.4666677619774
 20
174.0336467453764
 30
0.0
  0
POINT
  5
A2E
330
989
100
AcDbEntity
  8
Defpoints
 62
     0
100
AcDbPoint
 10
377.8666677619775
 20
174.0336467453764
 30
0.0
  0
POINT
  5
A2F
330
989
100
AcDbEntity
  8
Defpoints
 62
     0
100
AcDbPoint
 10
377.8666677619775
 20
131.4941482724791
 30
0.0
  0
ENDBLK
  5
98B
330
989
100
AcDbEntity
  8
0
100
AcDbBlockEnd
  0
BLOCK
  5
996
330
995
100
AcDbEntity
  8
0
100
AcDbBlockBegin
  2
*D44
 70
     1
 10
0.0
 20
0.0
 30
0.0
  3
*D44
  1

  0
LINE
  5
A30
330
995
100
AcDbEntity
  8
0
 62
     0
370
    -2
100
AcDbLine
 10
178.1774702799376
 20
187.3778124948196
 30
0.0
 11
178.1774702799376
 21
238.078912875146
 31
0.0
  0
LINE
  5
A31
330
995
100
AcDbEntity
  8
0
 62
     0
370
    -2
100
AcDbLine
 10
187.3774702799377
 20
204.2336467453772
 30
0.0
 11
187.3774702799377
 21
238.078912875146
 31
0.0
  0
LINE
  5
A32
330
995
100
AcDbEntity
  8
0
 62
     0
370
    -2
100
AcDbLine
 10
192.3774702799377
 20
236.078912875146
 30
0.0
 11
197.3774702799377
 21
236.078912875146
 31
0.0
  0
LINE
  5
A33
330
995
100
AcDbEntity
  8
0
 62
     0
370
    -2
100
AcDbLine
 10
173.1774702799376
 20
236.078912875146
 30
0.0
 11
142.583495785544
 21
236.078912875146
 31
0.0
  0
LINE
  5
A34
330
995
100
AcDbEntity
  8
0
 62
     0
370
    -2
100
AcDbLine
 10
187.3774702799377
 20
236.078912875146
 30
0.0
 11
178.1774702799376
 21
236.078912875146
 31
0.0
  0
INSERT
  5
A35
330
995
100
AcDbEntity
  8
0
 62
     0
370
    -2
100
AcDbBlockReference
  2
_Open30
 10
187.3774702799377
 20
236.078912875146
 30
0.0
 41
5.0
 42
5.0
 43
5.0
 50
180.0
  0
INSERT
  5
A36
330
995
100
AcDbEntity
  8
0
 62
     0
370
    -2
100
AcDbBlockReference
  2
_Open30
 10
178.1774702799376
 20
236.078912875146
 30
0.0
 41
5.0
 42
5.0
 43
5.0
  0
MTEXT
  5
A37
330
995
100
AcDbEntity
  8
0
 62
     0
100
AcDbMText
 10
150.045215060225
 20
240.7175965554684
 30
0.0
 40
7.0
 41
0.0
 71
     5
 72
     1
  1
4.6
 73
     1
 44
1.0
1001
ACAD
1000
MTEXTBEGIN
1070
    73
1070
     1
1070
    44
1040
1.0
1070
    74
1070
     0
1000
MTEXTEND
  0
POINT
  5
A38
330
995
100
AcDbEntity
  8
Defpoints
 62
     0
100
AcDbPoint
 10
178.1774702799376
 20
186.3778124948196
 30
0.0
  0
POINT
  5
A39
330
995
100
AcDbEntity
  8
Defpoints
 62
     0
100
AcDbPoint
 10
187.3774702799377
 20
203.2336467453772
 30
0.0
  0
POINT
  5
A3A
330
995
100
AcDbEntity
  8
Defpoints
 62
     0
100
AcDbPoint
 10
187.3774702799377
 20
236.078912875146
 30
0.0
  0
ENDBLK
  5
997
330
995
100
AcDbEntity
  8
0
100
AcDbBlockEnd
  0
BLOCK
  5
9A4
330
9A3
100
AcDbEntity
  8
0
100
AcDbBlockBegin
  2
*D45
 70
     1
 10
0.0
 20
0.0
 30
0.0
  3
*D45
  1

  0
LINE
  5
A3B
330
9A3
100
AcDbEntity
  8
0
 62
     0
370
    -2
100
AcDbLine
 10
187.3774702799377
 20
204.2336467453772
 30
0.0
 11
187.3774702799377
 21
238.078912875146
 31
0.0
  0
LINE
  5
A3C
330
9A3
100
AcDbEntity
  8
0
 62
     0
370
    -2
100
AcDbLine
 10
227.3774702799377
 20
204.2336467453772
 30
0.0
 11
227.3774702799377
 21
238.078912875146
 31
0.0
  0
LINE
  5
A3D
330
9A3
100
AcDbEntity
  8
0
 62
     0
370
    -2
100
AcDbLine
 10
192.3774702799377
 20
236.078912875146
 30
0.0
 11
222.3774702799377
 21
236.078912875146
 31
0.0
  0
INSERT
  5
A3E
330
9A3
100
AcDbEntity
  8
0
 62
     0
370
    -2
100
AcDbBlockReference
  2
_Open30
 10
187.3774702799377
 20
236.078912875146
 30
0.0
 41
5.0
 42
5.0
 43
5.0
 50
180.0
  0
INSERT
  5
A3F
330
9A3
100
AcDbEntity
  8
0
 62
     0
370
    -2
100
AcDbBlockReference
  2
_Open30
 10
227.3774702799377
 20
236.078912875146
 30
0.0
 41
5.0
 42
5.0
 43
5.0
  0
MTEXT
  5
A40
330
9A3
100
AcDbEntity
  8
0
 62
     0
100
AcDbMText
 10
207.3774702799377
 20
240.7246482680271
 30
0.0
 40
7.0
 41
0.0
 71
     5
 72
     1
  1
20
 73
     1
 44
1.0
1001
ACAD
1000
MTEXTBEGIN
1070
    73
1070
     1
1070
    44
1040
1.0
1070
    74
1070
     0
1000
MTEXTEND
  0
POINT
  5
A41
330
9A3
100
AcDbEntity
  8
Defpoints
 62
     0
100
AcDbPoint
 10
187.3774702799377
 20
203.2336467453772
 30
0.0
  0
POINT
  5
A42
330
9A3
100
AcDbEntity
  8
Defpoints
 62
     0
100
AcDbPoint
 10
227.3774702799377
 20
203.2336467453772
 30
0.0
  0
POINT
  5
A43
330
9A3
100
AcDbEntity
  8
Defpoints
 62
     0
100
AcDbPoint
 10
227.3774702799377
 20
236.078912875146
 30
0.0
  0
ENDBLK
  5
9A5
330
9A3
100
AcDbEntity
  8
0
100
AcDbBlockEnd
  0
BLOCK
  5
A49
330
A48
100
AcDbEntity
  8
0
100
AcDbBlockBegin
  2
*D46
 70
     1
 10
0.0
 20
0.0
 30
0.0
  3
*D46
  1

  0
LINE
  5
F3D
330
A48
100
AcDbEntity
  8
AM_5
  6
ByBlock
100
AcDbLine
 10
14.49999999999969
 20
26.856319721918
 30
0.0
 11
14.49999999999968
 21
8.30631871191818
 31
0.0
  0
LINE
  5
F3E
330
A48
100
AcDbEntity
  8
AM_5
  6
ByBlock
100
AcDbLine
 10
30.49999999999972
 20
26.856319721918
 30
0.0
 11
30.49999999999972
 21
8.30631871191818
 31
0.0
  0
LINE
  5
F3F
330
A48
100
AcDbEntity
  8
AM_5
  6
ByBlock
100
AcDbLine
 10
16.99999999999969
 20
9.30631871191818
 30
0.0
 11
27.99999999999972
 21
9.30631871191818
 31
0.0
  0
INSERT
  5
F40
330
A48
100
AcDbEntity
  8
AM_5
100
AcDbBlockReference
  2
_Open
 10
14.49999999999968
 20
9.30631871191818
 30
0.0
 41
2.5
 42
2.5
 43
2.5
 50
180.0
  0
INSERT
  5
F41
330
A48
100
AcDbEntity
  8
AM_5
100
AcDbBlockReference
  2
_Open
 10
30.49999999999972
 20
9.30631871191818
 30
0.0
 41
2.5
 42
2.5
 43
2.5
  0
MTEXT
  5
F42
330
A48
100
AcDbEntity
  8
AM_5
 62
   140
100
AcDbMText
 10
22.4999999999997
 20
11.92566055207936
 30
0.0
 40
3.5
 41
0.0
 71
     5
 72
     1
  1
16
 73
     1
 44
1.0
1001
ACAD
1000
MTEXTBEGIN
1070
    73
1070
     1
1070
    44
1040
1.0
1070
    74
1070
     0
1000
MTEXTEND
  0
POINT
  5
F43
330
A48
100
AcDbEntity
  8
Defpoints
 62
     0
100
AcDbPoint
 10
14.49999999999969
 20
27.356319721918
 30
0.0
  0
POINT
  5
F44
330
A48
100
AcDbEntity
  8
Defpoints
 62
     0
100
AcDbPoint
 10
30.49999999999972
 20
27.356319721918
 30
0.0
  0
POINT
  5
F45
330
A48
100
AcDbEntity
  8
Defpoints
 62
     0
100
AcDbPoint
 10
30.49999999999972
 20
9.30631871191818
 30
0.0
  0
ENDBLK
  5
A4A
330
A48
100
AcDbEntity
  8
0
100
AcDbBlockEnd
  0
BLOCK
  5
A8B
330
A8A
100
AcDbEntity
  8
0
100
AcDbBlockBegin
  2
*D47
 70
     1
 10
0.0
 20
0.0
 30
0.0
  3
*D47
  1

  0
LINE
  5
F46
330
A8A
100
AcDbEntity
  8
AM_5
  6
ByBlock
100
AcDbLine
 10
58.93590207943214
 20
30.00381972191894
 30
0.0
 11
51.55110527273507
 21
30.00381972191895
 31
0.0
  0
LINE
  5
F47
330
A8A
100
AcDbEntity
  8
AM_5
  6
ByBlock
100
AcDbLine
 10
58.93590207943214
 20
32.30881972191833
 30
0.0
 11
51.55110527273507
 21
32.30881972191833
 31
0.0
  0
LINE
  5
F48
330
A8A
100
AcDbEntity
  8
AM_5
  6
ByBlock
100
AcDbLine
 10
52.55110527273507
 20
27.50381972191895
 30
0.0
 11
52.55110527273507
 21
25.00381972191895
 31
0.0
  0
LINE
  5
F49
330
A8A
100
AcDbEntity
  8
AM_5
  6
ByBlock
100
AcDbLine
 10
52.55110527273507
 20
34.80881972191833
 30
0.0
 11
52.55110527273508
 21
53.42641542373162
 31
0.0
  0
LINE
  5
F4A
330
A8A
100
AcDbEntity
  8
AM_5
  6
ByBlock
100
AcDbLine
 10
52.55110527273507
 20
30.00381972191895
 30
0.0
 11
52.55110527273507
 21
32.30881972191833
 31
0.0
  0
INSERT
  5
F4B
330
A8A
100
AcDbEntity
  8
AM_5
100
AcDbBlockReference
  2
_Open
 10
52.55110527273507
 20
30.00381972191895
 30
0.0
 41
2.5
 42
2.5
 43
2.5
 50
90.0
  0
INSERT
  5
F4C
330
A8A
100
AcDbEntity
  8
AM_5
100
AcDbBlockReference
  2
_Open
 10
52.55110527273507
 20
32.30881972191833
 30
0.0
 41
2.5
 42
2.5
 43
2.5
 50
270.0
  0
MTEXT
  5
F4D
330
A8A
100
AcDbEntity
  8
AM_5
 62
   140
100
AcDbMText
 10
49.9282375762945
 20
45.36761757282499
 30
0.0
 40
3.5
 41
0.0
 71
     5
 72
     1
  1
%%c2.305
 11
0.0000000000000001
 21
1.0
 31
0.0
 73
     1
 44
1.0
1001
ACAD
1000
MTEXTBEGIN
1070
    73
1070
     1
1070
    44
1040
1.0
1070
    74
1070
     0
1000
MTEXTEND
  0
POINT
  5
F4E
330
A8A
100
AcDbEntity
  8
Defpoints
 62
     0
100
AcDbPoint
 10
59.43590207943214
 20
30.00381972191894
 30
0.0
  0
POINT
  5
F4F
330
A8A
100
AcDbEntity
  8
Defpoints
 62
     0
100
AcDbPoint
 10
59.43590207943214
 20
32.30881972191833
 30
0.0
  0
POINT
  5
F50
330
A8A
100
AcDbEntity
  8
Defpoints
 62
     0
100
AcDbPoint
 10
52.55110527273507
 20
32.30881972191833
 30
0.0
  0
ENDBLK
  5
A8C
330
A8A
100
AcDbEntity
  8
0
100
AcDbBlockEnd
  0
BLOCK
  5
A99
330
A98
100
AcDbEntity
  8
0
100
AcDbBlockBegin
  2
*D48
 70
     1
 10
0.0
 20
0.0
 30
0.0
  3
*D48
  1

  0
LINE
  5
F51
330
A98
100
AcDbEntity
  8
AM_5
  6
ByBlock
100
AcDbLine
 10
64.73590207943209
 20
26.15631972192
 30
0.0
 11
46.21278799224318
 21
26.15631972192
 31
0.0
  0
LINE
  5
F52
330
A98
100
AcDbEntity
  8
AM_5
  6
ByBlock
100
AcDbLine
 10
64.73590207943209
 20
36.15631972192
 30
0.0
 11
46.21278799224318
 21
36.15631972192001
 31
0.0
  0
LINE
  5
F53
330
A98
100
AcDbEntity
  8
AM_5
  6
ByBlock
100
AcDbLine
 10
47.21278799224318
 20
28.65631972192
 30
0.0
 11
47.21278799224318
 21
33.65631972192001
 31
0.0
  0
INSERT
  5
F54
330
A98
100
AcDbEntity
  8
AM_5
100
AcDbBlockReference
  2
_Open
 10
47.21278799224318
 20
26.15631972192
 30
0.0
 41
2.5
 42
2.5
 43
2.5
 50
270.0
  0
INSERT
  5
F55
330
A98
100
AcDbEntity
  8
AM_5
100
AcDbBlockReference
  2
_Open
 10
47.21278799224318
 20
36.15631972192001
 30
0.0
 41
2.5
 42
2.5
 43
2.5
 50
90.0
  0
MTEXT
  5
F56
330
A98
100
AcDbEntity
  8
AM_5
 62
   140
100
AcDbMText
 10
44.59109558122907
 20
31.15631972192001
 30
0.0
 40
3.5
 41
0.0
 71
     5
 72
     1
  1
%%c10
 11
0.0000000000000001
 21
1.0
 31
0.0
 73
     1
 44
1.0
1001
ACAD
1000
MTEXTBEGIN
1070
    73
1070
     1
1070
    44
1040
1.0
1070
    74
1070
     0
1000
MTEXTEND
  0
POINT
  5
F57
330
A98
100
AcDbEntity
  8
Defpoints
 62
     0
100
AcDbPoint
 10
65.23590207943209
 20
26.15631972192
 30
0.0
  0
POINT
  5
F58
330
A98
100
AcDbEntity
  8
Defpoints
 62
     0
100
AcDbPoint
 10
65.23590207943209
 20
36.15631972192
 30
0.0
  0
POINT
  5
F59
330
A98
100
AcDbEntity
  8
Defpoints
 62
     0
100
AcDbPoint
 10
47.21278799224318
 20
36.15631972192001
 30
0.0
  0
ENDBLK
  5
A9A
330
A98
100
AcDbEntity
  8
0
100
AcDbBlockEnd
  0
BLOCK
  5
AA5
330
AA4
100
AcDbEntity
  8
0
100
AcDbBlockBegin
  2
*D49
 70
     1
 10
0.0
 20
0.0
 30
0.0
  3
*D49
  1

  0
LINE
  5
F5A
330
AA4
100
AcDbEntity
  8
AM_5
  6
ByBlock
100
AcDbLine
 10
67.83590207943212
 20
44.50631972191854
 30
0.0
 11
67.83590207943212
 21
65.99429178802324
 31
0.0
  0
LINE
  5
F5B
330
AA4
100
AcDbEntity
  8
AM_5
  6
ByBlock
100
AcDbLine
 10
65.23590207943209
 20
36.65631972192
 30
0.0
 11
65.23590207943209
 21
65.99429178802324
 31
0.0
  0
LINE
  5
F5C
330
AA4
100
AcDbEntity
  8
AM_5
  6
ByBlock
100
AcDbLine
 10
70.33590207943212
 20
64.99429178802325
 30
0.0
 11
72.83590207943212
 21
64.99429178802325
 31
0.0
  0
LINE
  5
F5D
330
AA4
100
AcDbEntity
  8
AM_5
  6
ByBlock
100
AcDbLine
 10
62.73590207943209
 20
64.99429178802325
 30
0.0
 11
49.33419380710644
 21
64.99429178802325
 31
0.0
  0
LINE
  5
F5E
330
AA4
100
AcDbEntity
  8
AM_5
  6
ByBlock
100
AcDbLine
 10
67.83590207943212
 20
64.99429178802325
 30
0.0
 11
65.23590207943209
 21
64.99429178802325
 31
0.0
  0
INSERT
  5
F5F
330
AA4
100
AcDbEntity
  8
AM_5
100
AcDbBlockReference
  2
_Open
 10
67.83590207943212
 20
64.99429178802325
 30
0.0
 41
2.5
 42
2.5
 43
2.5
 50
180.0
  0
INSERT
  5
F60
330
AA4
100
AcDbEntity
  8
AM_5
100
AcDbBlockReference
  2
_Open
 10
65.23590207943209
 20
64.99429178802325
 30
0.0
 41
2.5
 42
2.5
 43
2.5
  0
MTEXT
  5
F61
330
AA4
100
AcDbEntity
  8
AM_5
 62
   140
100
AcDbMText
 10
53.28395875002115
 20
67.61715948446381
 30
0.0
 40
3.5
 41
0.0
 71
     5
 72
     1
  1
2.6
 73
     1
 44
1.0
1001
ACAD
1000
MTEXTBEGIN
1070
    73
1070
     1
1070
    44
1040
1.0
1070
    74
1070
     0
1000
MTEXTEND
  0
POINT
  5
F62
330
AA4
100
AcDbEntity
  8
Defpoints
 62
     0
100
AcDbPoint
 10
67.83590207943212
 20
44.00631972191854
 30
0.0
  0
POINT
  5
F63
330
AA4
100
AcDbEntity
  8
Defpoints
 62
     0
100
AcDbPoint
 10
65.23590207943209
 20
36.15631972192
 30
0.0
  0
POINT
  5
F64
330
AA4
100
AcDbEntity
  8
Defpoints
 62
     0
100
AcDbPoint
 10
65.23590207943209
 20
64.99429178802325
 30
0.0
  0
ENDBLK
  5
AA6
330
AA4
100
AcDbEntity
  8
0
100
AcDbBlockEnd
  0
BLOCK
  5
AB3
330
AB2
100
AcDbEntity
  8
0
100
AcDbBlockBegin
  2
*D50
 70
     1
 10
0.0
 20
0.0
 30
0.0
  3
*D50
  1

  0
LINE
  5
F65
330
AB2
100
AcDbEntity
  8
AM_5
  6
ByBlock
100
AcDbLine
 10
67.83590207943212
 20
44.50631972191854
 30
0.0
 11
67.83590207943212
 21
72.63624013091884
 31
0.0
  0
LINE
  5
F66
330
AB2
100
AcDbEntity
  8
AM_5
  6
ByBlock
100
AcDbLine
 10
59.23590207943213
 20
32.60881972191851
 30
0.0
 11
59.23590207943213
 21
72.63624013091884
 31
0.0
  0
LINE
  5
F67
330
AB2
100
AcDbEntity
  8
AM_5
  6
ByBlock
100
AcDbLine
 10
65.33590207943212
 20
71.63624013091885
 30
0.0
 11
61.73590207943213
 21
71.63624013091885
 31
0.0
  0
INSERT
  5
F68
330
AB2
100
AcDbEntity
  8
AM_5
100
AcDbBlockReference
  2
_Open
 10
67.83590207943212
 20
71.63624013091885
 30
0.0
 41
2.5
 42
2.5
 43
2.5
  0
INSERT
  5
F69
330
AB2
100
AcDbEntity
  8
AM_5
100
AcDbBlockReference
  2
_Open
 10
59.23590207943213
 20
71.63624013091885
 30
0.0
 41
2.5
 42
2.5
 43
2.5
 50
180.0
  0
MTEXT
  5
F6A
330
AB2
100
AcDbEntity
  8
AM_5
 62
   140
100
AcDbMText
 10
63.53590207943213
 20
74.26615953991817
 30
0.0
 40
3.5
 41
0.0
 71
     5
 72
     1
  1
8.6
 73
     1
 44
1.0
1001
ACAD
1000
MTEXTBEGIN
1070
    73
1070
     1
1070
    44
1040
1.0
1070
    74
1070
     0
1000
MTEXTEND
  0
POINT
  5
F6B
330
AB2
100
AcDbEntity
  8
Defpoints
 62
     0
100
AcDbPoint
 10
67.83590207943212
 20
44.00631972191854
 30
0.0
  0
POINT
  5
F6C
330
AB2
100
AcDbEntity
  8
Defpoints
 62
     0
100
AcDbPoint
 10
59.23590207943213
 20
32.10881972191851
 30
0.0
  0
POINT
  5
F6D
330
AB2
100
AcDbEntity
  8
Defpoints
 62
     0
100
AcDbPoint
 10
59.23590207943213
 20
71.63624013091885
 30
0.0
  0
ENDBLK
  5
AB4
330
AB2
100
AcDbEntity
  8
0
100
AcDbBlockEnd
  0
BLOCK
  5
ABF
330
ABE
100
AcDbEntity
  8
0
100
AcDbBlockBegin
  2
*D51
 70
     1
 10
0.0
 20
0.0
 30
0.0
  3
*D51
  1

  0
LINE
  5
F6E
330
ABE
100
AcDbEntity
  8
AM_5
  6
ByBlock
100
AcDbLine
 10
67.83590207943212
 20
44.50631972191854
 30
0.0
 11
67.83590207943212
 21
72.63624013091884
 31
0.0
  0
LINE
  5
F6F
330
ABE
100
AcDbEntity
  8
AM_5
  6
ByBlock
100
AcDbLine
 10
105.6359020794322
 20
40.8563197219189
 30
0.0
 11
105.6359020794322
 21
72.63624013091884
 31
0.0
  0
LINE
  5
F70
330
ABE
100
AcDbEntity
  8
AM_5
  6
ByBlock
100
AcDbLine
 10
70.33590207943212
 20
71.63624013091885
 30
0.0
 11
103.1359020794322
 21
71.63624013091885
 31
0.0
  0
INSERT
  5
F71
330
ABE
100
AcDbEntity
  8
AM_5
100
AcDbBlockReference
  2
_Open
 10
67.83590207943212
 20
71.63624013091885
 30
0.0
 41
2.5
 42
2.5
 43
2.5
 50
180.0
  0
INSERT
  5
F72
330
ABE
100
AcDbEntity
  8
AM_5
100
AcDbBlockReference
  2
_Open
 10
105.6359020794322
 20
71.63624013091885
 30
0.0
 41
2.5
 42
2.5
 43
2.5
  0
MTEXT
  5
F73
330
ABE
100
AcDbEntity
  8
AM_5
 62
   140
100
AcDbMText
 10
86.73590207943215
 20
74.26615953991817
 30
0.0
 40
3.5
 41
0.0
 71
     5
 72
     1
  1
37.8
 73
     1
 44
1.0
1001
ACAD
1000
MTEXTBEGIN
1070
    73
1070
     1
1070
    44
1040
1.0
1070
    74
1070
     0
1000
MTEXTEND
  0
POINT
  5
F74
330
ABE
100
AcDbEntity
  8
Defpoints
 62
     0
100
AcDbPoint
 10
67.83590207943212
 20
44.00631972191854
 30
0.0
  0
POINT
  5
F75
330
ABE
100
AcDbEntity
  8
Defpoints
 62
     0
100
AcDbPoint
 10
105.6359020794322
 20
40.3563197219189
 30
0.0
  0
POINT
  5
F76
330
ABE
100
AcDbEntity
  8
Defpoints
 62
     0
100
AcDbPoint
 10
105.6359020794322
 20
71.63624013091885
 30
0.0
  0
ENDBLK
  5
AC0
330
ABE
100
AcDbEntity
  8
0
100
AcDbBlockEnd
  0
BLOCK
  5
ACB
330
ACA
100
AcDbEntity
  8
0
100
AcDbBlockBegin
  2
*D52
 70
     1
 10
0.0
 20
0.0
 30
0.0
  3
*D52
  1

  0
LINE
  5
F77
330
ACA
100
AcDbEntity
  8
AM_5
  6
ByBlock
100
AcDbLine
 10
105.6359020794322
 20
40.8563197219189
 30
0.0
 11
105.6359020794322
 21
72.63624013091884
 31
0.0
  0
LINE
  5
F78
330
ACA
100
AcDbEntity
  8
AM_5
  6
ByBlock
100
AcDbLine
 10
110.2359020794321
 20
32.40631972191818
 30
0.0
 11
110.2359020794321
 21
72.63624013091884
 31
0.0
  0
LINE
  5
F79
330
ACA
100
AcDbEntity
  8
AM_5
  6
ByBlock
100
AcDbLine
 10
103.1359020794322
 20
71.63624013091885
 30
0.0
 11
100.6359020794322
 21
71.63624013091885
 31
0.0
  0
LINE
  5
F7A
330
ACA
100
AcDbEntity
  8
AM_5
  6
ByBlock
100
AcDbLine
 10
112.7359020794321
 20
71.63624013091885
 30
0.0
 11
126.7271042285254
 21
71.63624013091885
 31
0.0
  0
LINE
  5
F7B
330
ACA
100
AcDbEntity
  8
AM_5
  6
ByBlock
100
AcDbLine
 10
105.6359020794322
 20
71.63624013091885
 30
0.0
 11
110.2359020794321
 21
71.63624013091885
 31
0.0
  0
INSERT
  5
F7C
330
ACA
100
AcDbEntity
  8
AM_5
100
AcDbBlockReference
  2
_Open
 10
105.6359020794322
 20
71.63624013091885
 30
0.0
 41
2.5
 42
2.5
 43
2.5
  0
INSERT
  5
F7D
330
ACA
100
AcDbEntity
  8
AM_5
100
AcDbBlockReference
  2
_Open
 10
110.2359020794321
 20
71.63624013091885
 30
0.0
 41
2.5
 42
2.5
 43
2.5
 50
180.0
  0
MTEXT
  5
F7E
330
ACA
100
AcDbEntity
  8
AM_5
 62
   140
100
AcDbMText
 10
120.9815031539787
 20
74.74920185019353
 30
0.0
 40
3.5
 41
0.0
 71
     5
 72
     1
  1
(4.6)
 73
     1
 44
1.0
1001
ACAD
1000
MTEXTBEGIN
1070
    73
1070
     1
1070
    44
1040
1.0
1070
    74
1070
     0
1000
MTEXTEND
  0
POINT
  5
F7F
330
ACA
100
AcDbEntity
  8
Defpoints
 62
     0
100
AcDbPoint
 10
105.6359020794322
 20
40.3563197219189
 30
0.0
  0
POINT
  5
F80
330
ACA
100
AcDbEntity
  8
Defpoints
 62
     0
100
AcDbPoint
 10
110.2359020794321
 20
31.90631972191818
 30
0.0
  0
POINT
  5
F81
330
ACA
100
AcDbEntity
  8
Defpoints
 62
     0
100
AcDbPoint
 10
110.2359020794321
 20
71.63624013091885
 30
0.0
  0
ENDBLK
  5
ACC
330
ACA
100
AcDbEntity
  8
0
100
AcDbBlockEnd
  0
BLOCK
  5
AD8
330
AD7
100
AcDbEntity
  8
0
100
AcDbBlockBegin
  2
*D53
 70
     1
 10
0.0
 20
0.0
 30
0.0
  3
*D53
  1

  0
LINE
  5
F82
330
AD7
100
AcDbEntity
  8
AM_5
  6
ByBlock
100
AcDbLine
 10
108.7359020794321
 20
26.15631972191818
 30
0.0
 11
122.0089029625021
 21
26.15631972191818
 31
0.0
  0
LINE
  5
F83
330
AD7
100
AcDbEntity
  8
AM_5
  6
ByBlock
100
AcDbLine
 10
108.7359020794321
 20
36.15631972191818
 30
0.0
 11
122.0089029625021
 21
36.15631972191817
 31
0.0
  0
LINE
  5
F84
330
AD7
100
AcDbEntity
  8
AM_5
  6
ByBlock
100
AcDbLine
 10
121.0089029625021
 20
28.65631972191818
 30
0.0
 11
121.0089029625021
 21
33.65631972191817
 31
0.0
  0
INSERT
  5
F85
330
AD7
100
AcDbEntity
  8
AM_5
100
AcDbBlockReference
  2
_Open
 10
121.0089029625021
 20
26.15631972191818
 30
0.0
 41
2.5
 42
2.5
 43
2.5
 50
270.0
  0
INSERT
  5
F86
330
AD7
100
AcDbEntity
  8
AM_5
100
AcDbBlockReference
  2
_Open
 10
121.0089029625021
 20
36.15631972191817
 30
0.0
 41
2.5
 42
2.5
 43
2.5
 50
90.0
  0
MTEXT
  5
F87
330
AD7
100
AcDbEntity
  8
AM_5
 62
   140
100
AcDbMText
 10
118.387210551488
 20
31.15631972191819
 30
0.0
 40
3.5
 41
0.0
 71
     5
 72
     1
  1
%%c10
 11
0.0000000000000001
 21
1.0
 31
0.0
 73
     1
 44
1.0
1001
ACAD
1000
MTEXTBEGIN
1070
    73
1070
     1
1070
    44
1040
1.0
1070
    74
1070
     0
1000
MTEXTEND
  0
POINT
  5
F88
330
AD7
100
AcDbEntity
  8
Defpoints
 62
     0
100
AcDbPoint
 10
108.2359020794321
 20
26.15631972191818
 30
0.0
  0
POINT
  5
F89
330
AD7
100
AcDbEntity
  8
Defpoints
 62
     0
100
AcDbPoint
 10
108.2359020794321
 20
36.15631972191818
 30
0.0
  0
POINT
  5
F8A
330
AD7
100
AcDbEntity
  8
Defpoints
 62
     0
100
AcDbPoint
 10
121.0089029625021
 20
36.15631972191817
 30
0.0
  0
ENDBLK
  5
AD9
330
AD7
100
AcDbEntity
  8
0
100
AcDbBlockEnd
  0
BLOCK
  5
AE4
330
AE3
100
AcDbEntity
  8
0
100
AcDbBlockBegin
  2
*D54
 70
     1
 10
0.0
 20
0.0
 30
0.0
  3
*D54
  1

  0
LINE
  5
F8B
330
AE3
100
AcDbEntity
  8
AM_5
  6
ByBlock
100
AcDbLine
 10
105.8359020794321
 20
17.30631972191963
 30
0.0
 11
129.4735103713572
 21
17.30631972191963
 31
0.0
  0
LINE
  5
F8C
330
AE3
100
AcDbEntity
  8
AM_5
  6
ByBlock
100
AcDbLine
 10
105.8359020794321
 20
45.00631972191854
 30
0.0
 11
129.4735103713572
 21
45.00631972191853
 31
0.0
  0
LINE
  5
F8D
330
AE3
100
AcDbEntity
  8
AM_5
  6
ByBlock
100
AcDbLine
 10
128.4735103713572
 20
19.80631972191963
 30
0.0
 11
128.4735103713572
 21
42.50631972191853
 31
0.0
  0
INSERT
  5
F8E
330
AE3
100
AcDbEntity
  8
AM_5
100
AcDbBlockReference
  2
_Open
 10
128.4735103713572
 20
17.30631972191963
 30
0.0
 41
2.5
 42
2.5
 43
2.5
 50
270.0
  0
INSERT
  5
F8F
330
AE3
100
AcDbEntity
  8
AM_5
100
AcDbBlockReference
  2
_Open
 10
128.4735103713572
 20
45.00631972191853
 30
0.0
 41
2.5
 42
2.5
 43
2.5
 50
90.0
  0
MTEXT
  5
F90
330
AE3
100
AcDbEntity
  8
AM_5
 62
   140
100
AcDbMText
 10
125.8870765231369
 20
31.15631972191911
 30
0.0
 40
3.5
 41
0.0
 71
     5
 72
     1
  1
%%c27.7
 11
0.0000000000000001
 21
1.0
 31
0.0
 73
     1
 44
1.0
1001
ACAD
1000
MTEXTBEGIN
1070
    73
1070
     1
1070
    44
1040
1.0
1070
    74
1070
     0
1000
MTEXTEND
  0
POINT
  5
F91
330
AE3
100
AcDbEntity
  8
Defpoints
 62
     0
100
AcDbPoint
 10
105.3359020794321
 20
17.30631972191963
 30
0.0
  0
POINT
  5
F92
330
AE3
100
AcDbEntity
  8
Defpoints
 62
     0
100
AcDbPoint
 10
105.3359020794321
 20
45.00631972191854
 30
0.0
  0
POINT
  5
F93
330
AE3
100
AcDbEntity
  8
Defpoints
 62
     0
100
AcDbPoint
 10
128.4735103713572
 20
45.00631972191853
 30
0.0
  0
ENDBLK
  5
AE5
330
AE3
100
AcDbEntity
  8
0
100
AcDbBlockEnd
  0
BLOCK
  5
AF0
330
AEF
100
AcDbEntity
  8
0
100
AcDbBlockBegin
  2
*D55
 70
     1
 10
0.0
 20
0.0
 30
0.0
  3
*D55
  1

  0
LINE
  5
F94
330
AEF
100
AcDbEntity
  8
AM_5
  6
ByBlock
100
AcDbLine
 10
108.2359020794321
 20
36.65631972192
 30
0.0
 11
108.2359020794321
 21
65.99429178802324
 31
0.0
  0
LINE
  5
F95
330
AEF
100
AcDbEntity
  8
AM_5
  6
ByBlock
100
AcDbLine
 10
105.6359020794321
 20
40.8563197219189
 30
0.0
 11
105.6359020794321
 21
65.99429178802324
 31
0.0
  0
LINE
  5
F96
330
AEF
100
AcDbEntity
  8
AM_5
  6
ByBlock
100
AcDbLine
 10
110.7359020794321
 20
64.99429178802325
 30
0.0
 11
113.2359020794321
 21
64.99429178802325
 31
0.0
  0
LINE
  5
F97
330
AEF
100
AcDbEntity
  8
AM_5
  6
ByBlock
100
AcDbLine
 10
103.1359020794321
 20
64.99429178802325
 30
0.0
 11
89.14469993033875
 21
64.99429178802325
 31
0.0
  0
LINE
  5
F98
330
AEF
100
AcDbEntity
  8
AM_5
  6
ByBlock
100
AcDbLine
 10
108.2359020794321
 20
64.99429178802325
 30
0.0
 11
105.6359020794321
 21
64.99429178802325
 31
0.0
  0
INSERT
  5
F99
330
AEF
100
AcDbEntity
  8
AM_5
100
AcDbBlockReference
  2
_Open
 10
108.2359020794321
 20
64.99429178802325
 30
0.0
 41
2.5
 42
2.5
 43
2.5
 50
180.0
  0
INSERT
  5
F9A
330
AEF
100
AcDbEntity
  8
AM_5
100
AcDbBlockReference
  2
_Open
 10
105.6359020794321
 20
64.99429178802325
 30
0.0
 41
2.5
 42
2.5
 43
2.5
  0
MTEXT
  5
F9B
330
AEF
100
AcDbEntity
  8
AM_5
 62
   140
100
AcDbMText
 10
94.89030100488545
 20
68.10725350729793
 30
0.0
 40
3.5
 41
0.0
 71
     5
 72
     1
  1
(2.6)
 73
     1
 44
1.0
1001
ACAD
1000
MTEXTBEGIN
1070
    73
1070
     1
1070
    44
1040
1.0
1070
    74
1070
     0
1000
MTEXTEND
  0
POINT
  5
F9C
330
AEF
100
AcDbEntity
  8
Defpoints
 62
     0
100
AcDbPoint
 10
108.2359020794321
 20
36.15631972192
 30
0.0
  0
POINT
  5
F9D
330
AEF
100
AcDbEntity
  8
Defpoints
 62
     0
100
AcDbPoint
 10
105.6359020794321
 20
40.3563197219189
 30
0.0
  0
POINT
  5
F9E
330
AEF
100
AcDbEntity
  8
Defpoints
 62
     0
100
AcDbPoint
 10
105.6359020794321
 20
64.99429178802325
 30
0.0
  0
ENDBLK
  5
AF1
330
AEF
100
AcDbEntity
  8
0
100
AcDbBlockEnd
  0
BLOCK
  5
C3C
330
C3B
100
AcDbEntity
  8
0
100
AcDbBlockBegin
  2
*D56
 70
     1
 10
0.0
 20
0.0
 30
0.0
  3
*D56
  1

  0
LINE
  5
F9F
330
C3B
100
AcDbEntity
  8
AM_5
  6
ByBlock
100
AcDbLine
 10
67.83590207943212
 20
44.50631972191854
 30
0.0
 11
67.83590207943212
 21
60.24926689636458
 31
0.0
  0
LINE
  5
FA0
330
C3B
100
AcDbEntity
  8
AM_5
  6
ByBlock
100
AcDbLine
 10
72.43590207943213
 20
46.25631972191854
 30
0.0
 11
72.43590207943213
 21
60.24926689636458
 31
0.0
  0
LINE
  5
FA1
330
C3B
100
AcDbEntity
  8
AM_5
  6
ByBlock
100
AcDbLine
 10
74.93590207943213
 20
59.24926689636459
 30
0.0
 11
77.43590207943213
 21
59.24926689636459
 31
0.0
  0
LINE
  5
FA2
330
C3B
100
AcDbEntity
  8
AM_5
  6
ByBlock
100
AcDbLine
 10
65.33590207943212
 20
59.24926689636459
 30
0.0
 11
49.19455282535174
 21
59.24926689636459
 31
0.0
  0
LINE
  5
FA3
330
C3B
100
AcDbEntity
  8
AM_5
  6
ByBlock
100
AcDbLine
 10
72.43590207943213
 20
59.24926689636459
 30
0.0
 11
67.83590207943212
 21
59.24926689636459
 31
0.0
  0
INSERT
  5
FA4
330
C3B
100
AcDbEntity
  8
AM_5
100
AcDbBlockReference
  2
_Open
 10
72.43590207943213
 20
59.24926689636459
 30
0.0
 41
2.5
 42
2.5
 43
2.5
 50
180.0
  0
INSERT
  5
FA5
330
C3B
100
AcDbEntity
  8
AM_5
100
AcDbBlockReference
  2
_Open
 10
67.83590207943212
 20
59.24926689636459
 30
0.0
 41
2.5
 42
2.5
 43
2.5
  0
MTEXT
  5
FA6
330
C3B
100
AcDbEntity
  8
AM_5
 62
   140
100
AcDbMText
 10
53.22541246269224
 20
61.86860873652577
 30
0.0
 40
3.5
 41
0.0
 71
     5
 72
     1
  1
4.6
 73
     1
 44
1.0
1001
ACAD
1000
MTEXTBEGIN
1070
    73
1070
     1
1070
    44
1040
1.0
1070
    74
1070
     0
1000
MTEXTEND
  0
POINT
  5
FA7
330
C3B
100
AcDbEntity
  8
Defpoints
 62
     0
100
AcDbPoint
 10
67.83590207943212
 20
44.00631972191854
 30
0.0
  0
POINT
  5
FA8
330
C3B
100
AcDbEntity
  8
Defpoints
 62
     0
100
AcDbPoint
 10
72.43590207943213
 20
45.75631972191854
 30
0.0
  0
POINT
  5
FA9
330
C3B
100
AcDbEntity
  8
Defpoints
 62
     0
100
AcDbPoint
 10
72.43590207943213
 20
59.24926689636459
 30
0.0
  0
ENDBLK
  5
C3D
330
C3B
100
AcDbEntity
  8
0
100
AcDbBlockEnd
  0
BLOCK
  5
CB7
330
CB6
100
AcDbEntity
  8
0
100
AcDbBlockBegin
  2
*D57
 70
     1
 10
0.0
 20
0.0
 30
0.0
  3
*D57
  1

  0
LINE
  5
CEB
330
CB6
100
AcDbEntity
  8
AM_5
  6
ByBlock
100
AcDbLine
 10
72.57873431733651
 20
149.01901786023
 30
0.0
 11
72.57873431733651
 21
160.3660061673112
 31
0.0
  0
LINE
  5
CEC
330
CB6
100
AcDbEntity
  8
AM_5
  6
ByBlock
100
AcDbLine
 10
92.57873431733653
 20
149.01901786023
 30
0.0
 11
92.57873431733653
 21
160.3660061673112
 31
0.0
  0
LINE
  5
CED
330
CB6
100
AcDbEntity
  8
AM_5
  6
ByBlock
100
AcDbLine
 10
75.07873431733651
 20
159.3660061673112
 30
0.0
 11
90.07873431733653
 21
159.3660061673112
 31
0.0
  0
INSERT
  5
CEE
330
CB6
100
AcDbEntity
  8
AM_5
100
AcDbBlockReference
  2
_Open
 10
72.57873431733651
 20
159.3660061673112
 30
0.0
 41
2.5
 42
2.5
 43
2.5
 50
180.0
  0
INSERT
  5
CEF
330
CB6
100
AcDbEntity
  8
AM_5
100
AcDbBlockReference
  2
_Open
 10
92.57873431733653
 20
159.3660061673112
 30
0.0
 41
2.5
 42
2.5
 43
2.5
  0
MTEXT
  5
CF0
330
CB6
100
AcDbEntity
  8
AM_5
 62
   140
100
AcDbMText
 10
82.57873431733651
 20
161.9888738637518
 30
0.0
 40
3.5
 41
0.0
 71
     5
 72
     1
  1
20
 73
     1
 44
1.0
1001
ACAD
1000
MTEXTBEGIN
1070
    73
1070
     1
1070
    44
1040
1.0
1070
    74
1070
     0
1000
MTEXTEND
  0
POINT
  5
CF1
330
CB6
100
AcDbEntity
  8
Defpoints
 62
     0
100
AcDbPoint
 10
72.57873431733651
 20
148.5190178602301
 30
0.0
  0
POINT
  5
CF2
330
CB6
100
AcDbEntity
  8
Defpoints
 62
     0
100
AcDbPoint
 10
92.57873431733653
 20
148.5190178602301
 30
0.0
  0
POINT
  5
CF3
330
CB6
100
AcDbEntity
  8
Defpoints
 62
     0
100
AcDbPoint
 10
92.57873431733653
 20
159.3660061673112
 30
0.0
  0
ENDBLK
  5
CB8
330
CB6
100
AcDbEntity
  8
0
100
AcDbBlockEnd
  0
BLOCK
  5
D25
330
D24
100
AcDbEntity
  8
0
100
AcDbBlockBegin
  2
*D58
 70
     1
 10
0.0
 20
0.0
 30
0.0
  3
*D58
  1

  0
LINE
  5
D4D
330
D24
100
AcDbEntity
  8
AM_5
  6
ByBlock
100
AcDbLine
 10
72.57873431733651
 20
118.8770097458049
 30
0.0
 11
72.57873431733651
 21
111.6270097458049
 31
0.0
  0
LINE
  5
D4E
330
D24
100
AcDbEntity
  8
AM_5
  6
ByBlock
100
AcDbLine
 10
92.57873431733651
 20
118.8770097458049
 30
0.0
 11
92.57873431733651
 21
111.6270097458049
 31
0.0
  0
LINE
  5
D4F
330
D24
100
AcDbEntity
  8
AM_5
  6
ByBlock
100
AcDbLine
 10
75.07873431733651
 20
112.6270097458049
 30
0.0
 11
90.07873431733651
 21
112.6270097458049
 31
0.0
  0
INSERT
  5
D50
330
D24
100
AcDbEntity
  8
AM_5
100
AcDbBlockReference
  2
_Open
 10
72.57873431733651
 20
112.6270097458049
 30
0.0
 41
2.5
 42
2.5
 43
2.5
 50
180.0
  0
INSERT
  5
D51
330
D24
100
AcDbEntity
  8
AM_5
100
AcDbBlockReference
  2
_Open
 10
92.57873431733651
 20
112.6270097458049
 30
0.0
 41
2.5
 42
2.5
 43
2.5
  0
MTEXT
  5
D52
330
D24
100
AcDbEntity
  8
AM_5
 62
   140
100
AcDbMText
 10
82.57873431733651
 20
115.2498774422455
 30
0.0
 40
3.5
 41
0.0
 71
     5
 72
     1
  1
20
 73
     1
 44
1.0
1001
ACAD
1000
MTEXTBEGIN
1070
    73
1070
     1
1070
    44
1040
1.0
1070
    74
1070
     0
1000
MTEXTEND
  0
POINT
  5
D53
330
D24
100
AcDbEntity
  8
Defpoints
 62
     0
100
AcDbPoint
 10
72.57873431733651
 20
119.3770097458049
 30
0.0
  0
POINT
  5
D54
330
D24
100
AcDbEntity
  8
Defpoints
 62
     0
100
AcDbPoint
 10
92.57873431733651
 20
119.3770097458049
 30
0.0
  0
POINT
  5
D55
330
D24
100
AcDbEntity
  8
Defpoints
 62
     0
100
AcDbPoint
 10
92.57873431733651
 20
112.6270097458049
 30
0.0
  0
ENDBLK
  5
D26
330
D24
100
AcDbEntity
  8
0
100
AcDbBlockEnd
  0
BLOCK
  5
D99
330
D98
100
AcDbEntity
  8
0
100
AcDbBlockBegin
  2
*D59
 70
     1
 10
0.0
 20
0.0
 30
0.0
  3
*D59
  1

  0
LINE
  5
E09
330
D98
100
AcDbEntity
  8
AM_5
  6
ByBlock
100
AcDbLine
 10
105.7787343173365
 20
124.2190178602299
 30
0.0
 11
105.7787343173365
 21
111.6724876066353
 31
0.0
  0
LINE
  5
E0A
330
D98
100
AcDbEntity
  8
AM_5
  6
ByBlock
100
AcDbLine
 10
112.6787343173364
 20
132.76901786023
 30
0.0
 11
112.6787343173364
 21
111.6724876066353
 31
0.0
  0
LINE
  5
E0B
330
D98
100
AcDbEntity
  8
AM_5
  6
ByBlock
100
AcDbLine
 10
110.1787343173364
 20
112.6724876066353
 30
0.0
 11
108.2787343173365
 21
112.6724876066353
 31
0.0
  0
LINE
  5
E0C
330
D98
100
AcDbEntity
  8
AM_5
  6
ByBlock
100
AcDbLine
 10
105.7787343173365
 20
112.6724876066353
 30
0.0
 11
91.7875321682432
 21
112.6724876066353
 31
0.0
  0
INSERT
  5
E0D
330
D98
100
AcDbEntity
  8
AM_5
100
AcDbBlockReference
  2
_Open
 10
112.6787343173364
 20
112.6724876066353
 30
0.0
 41
2.5
 42
2.5
 43
2.5
  0
INSERT
  5
E0E
330
D98
100
AcDbEntity
  8
AM_5
100
AcDbBlockReference
  2
_Open
 10
105.7787343173365
 20
112.6724876066353
 30
0.0
 41
2.5
 42
2.5
 43
2.5
 50
180.0
  0
MTEXT
  5
E0F
330
D98
100
AcDbEntity
  8
AM_5
 62
   140
100
AcDbMText
 10
97.53313324278989
 20
115.7854493259099
 30
0.0
 40
3.5
 41
0.0
 71
     5
 72
     1
  1
(6.9)
 73
     1
 44
1.0
1001
ACAD
1000
MTEXTBEGIN
1070
    73
1070
     1
1070
    44
1040
1.0
1070
    74
1070
     0
1000
MTEXTEND
  0
POINT
  5
E10
330
D98
100
AcDbEntity
  8
Defpoints
 62
     0
100
AcDbPoint
 10
105.7787343173365
 20
124.7190178602298
 30
0.0
  0
POINT
  5
E11
330
D98
100
AcDbEntity
  8
Defpoints
 62
     0
100
AcDbPoint
 10
112.6787343173364
 20
133.26901786023
 30
0.0
  0
POINT
  5
E12
330
D98
100
AcDbEntity
  8
Defpoints
 62
     0
100
AcDbPoint
 10
112.6787343173364
 20
112.6724876066353
 30
0.0
  0
ENDBLK
  5
D9A
330
D98
100
AcDbEntity
  8
0
100
AcDbBlockEnd
  0
BLOCK
  5
E17
330
E16
100
AcDbEntity
  8
0
100
AcDbBlockBegin
  2
*D60
 70
     1
 10
0.0
 20
0.0
 30
0.0
  3
*D60
  1

  0
LINE
  5
FAA
330
E16
100
AcDbEntity
  8
AM_5
  6
ByBlock
100
AcDbLine
 10
112.5359020794322
 20
30.00631972191854
 30
0.0
 11
112.5359020794322
 21
3.955330948791413
 31
0.0
  0
LINE
  5
FAB
330
E16
100
AcDbEntity
  8
AM_5
  6
ByBlock
100
AcDbLine
 10
105.6359020794322
 20
21.45631972191836
 30
0.0
 11
105.6359020794322
 21
3.955330948791413
 31
0.0
  0
LINE
  5
FAC
330
E16
100
AcDbEntity
  8
AM_5
  6
ByBlock
100
AcDbLine
 10
110.0359020794322
 20
4.955330948791413
 30
0.0
 11
108.1359020794322
 21
4.955330948791413
 31
0.0
  0
LINE
  5
FAD
330
E16
100
AcDbEntity
  8
AM_5
  6
ByBlock
100
AcDbLine
 10
105.6359020794322
 20
4.955330948791413
 30
0.0
 11
91.64469993033888
 21
4.955330948791413
 31
0.0
  0
INSERT
  5
FAE
330
E16
100
AcDbEntity
  8
AM_5
100
AcDbBlockReference
  2
_Open
 10
112.5359020794322
 20
4.955330948791413
 30
0.0
 41
2.5
 42
2.5
 43
2.5
  0
INSERT
  5
FAF
330
E16
100
AcDbEntity
  8
AM_5
100
AcDbBlockReference
  2
_Open
 10
105.6359020794322
 20
4.955330948791413
 30
0.0
 41
2.5
 42
2.5
 43
2.5
 50
180.0
  0
MTEXT
  5
FB0
330
E16
100
AcDbEntity
  8
AM_5
 62
   140
100
AcDbMText
 10
97.39030100488557
 20
8.068292668066094
 30
0.0
 40
3.5
 41
0.0
 71
     5
 72
     1
  1
(6.9)
 73
     1
 44
1.0
1001
ACAD
1000
MTEXTBEGIN
1070
    73
1070
     1
1070
    44
1040
1.0
1070
    74
1070
     0
1000
MTEXTEND
  0
POINT
  5
FB1
330
E16
100
AcDbEntity
  8
Defpoints
 62
     0
100
AcDbPoint
 10
112.5359020794322
 20
30.50631972191855
 30
0.0
  0
POINT
  5
FB2
330
E16
100
AcDbEntity
  8
Defpoints
 62
     0
100
AcDbPoint
 10
105.6359020794322
 20
21.95631972191836
 30
0.0
  0
POINT
  5
FB3
330
E16
100
AcDbEntity
  8
Defpoints
 62
     0
100
AcDbPoint
 10
105.6359020794322
 20
4.955330948791413
 30
0.0
  0
ENDBLK
  5
E18
330
E16
100
AcDbEntity
  8
0
100
AcDbBlockEnd
  0
BLOCK
  5
E2F
330
E2E
100
AcDbEntity
  8
0
100
AcDbBlockBegin
  2
*D61
 70
     1
 10
0.0
 20
0.0
 30
0.0
  3
*D61
  1

  0
LINE
  5
FB4
330
E2E
100
AcDbEntity
  8
AM_5
  6
ByBlock
100
AcDbLine
 10
72.43590207943213
 20
46.15631972191818
 30
0.0
 11
72.43590207943213
 21
60.24926689636458
 31
0.0
  0
LINE
  5
FB5
330
E2E
100
AcDbEntity
  8
AM_5
  6
ByBlock
100
AcDbLine
 10
92.43590207943213
 20
46.25631972191854
 30
0.0
 11
92.43590207943213
 21
60.24926689636458
 31
0.0
  0
LINE
  5
FB6
330
E2E
100
AcDbEntity
  8
AM_5
  6
ByBlock
100
AcDbLine
 10
74.93590207943213
 20
59.24926689636459
 30
0.0
 11
89.93590207943213
 21
59.24926689636459
 31
0.0
  0
INSERT
  5
FB7
330
E2E
100
AcDbEntity
  8
AM_5
100
AcDbBlockReference
  2
_Open
 10
72.43590207943213
 20
59.24926689636459
 30
0.0
 41
2.5
 42
2.5
 43
2.5
 50
180.0
  0
INSERT
  5
FB8
330
E2E
100
AcDbEntity
  8
AM_5
100
AcDbBlockReference
  2
_Open
 10
92.43590207943213
 20
59.24926689636459
 30
0.0
 41
2.5
 42
2.5
 43
2.5
  0
MTEXT
  5
FB9
330
E2E
100
AcDbEntity
  8
AM_5
 62
   140
100
AcDbMText
 10
82.43590207943213
 20
61.87213459280515
 30
0.0
 40
3.5
 41
0.0
 71
     5
 72
     1
  1
20
 73
     1
 44
1.0
1001
ACAD
1000
MTEXTBEGIN
1070
    73
1070
     1
1070
    44
1040
1.0
1070
    74
1070
     0
1000
MTEXTEND
  0
POINT
  5
FBA
330
E2E
100
AcDbEntity
  8
Defpoints
 62
     0
100
AcDbPoint
 10
72.43590207943213
 20
45.65631972191818
 30
0.0
  0
POINT
  5
FBB
330
E2E
100
AcDbEntity
  8
Defpoints
 62
     0
100
AcDbPoint
 10
92.43590207943213
 20
45.75631972191854
 30
0.0
  0
POINT
  5
FBC
330
E2E
100
AcDbEntity
  8
Defpoints
 62
     0
100
AcDbPoint
 10
92.43590207943213
 20
59.24926689636459
 30
0.0
  0
ENDBLK
  5
E30
330
E2E
100
AcDbEntity
  8
0
100
AcDbBlockEnd
  0
BLOCK
  5
FC5
330
FBD
100
AcDbEntity
  8
0
100
AcDbBlockBegin
  2
*S67
 70
     1
 10
0.0
 20
0.0
 30
0.0
  3
*S67
  1

  0
LINE
  5
FBE
330
FBD
100
AcDbEntity
  8
AM_5
100
AcDbLine
 10
30.94915945230516
 20
61.38274011684186
 30
0.0
 11
6.201842003132433
 21
61.38274011684186
 31
0.0
  0
LINE
  5
FBF
330
FBD
100
AcDbEntity
  8
AM_5
100
AcDbLine
 10
6.201842003132433
 20
61.38274011684186
 30
0.0
 11
12.93830926528161
 21
34.46379932536168
 31
0.0
  0
LINE
  5
FC0
330
FBD
100
AcDbEntity
  8
AM_5
  6
Continuous
100
AcDbLine
 10
12.93830926528161
 20
34.46379932536168
 30
0.0
 11
13.54521914703402
 21
32.03858585116373
 31
0.0
  0
LINE
  5
FC1
330
FBD
100
AcDbEntity
  8
AM_5
  6
Continuous
100
AcDbLine
 10
12.28847527929318
 20
34.30117831414313
 30
0.0
 11
13.54521914703402
 21
32.03858585116373
 31
0.0
  0
LINE
  5
FC2
330
FBD
100
AcDbEntity
  8
AM_5
  6
Continuous
100
AcDbLine
 10
13.54521914703402
 20
32.03858585116373
 30
0.0
 11
13.58814325127003
 21
34.62642033658023
 31
0.0
  0
MTEXT
  5
FC3
102
{ACAD_XDICTIONARY
360
1024
102
}
330
FBD
100
AcDbEntity
  8
AM_5
 62
   140
100
AcDbMText
 10
9.701842003132433
 20
65.67018135257054
 30
0.0
 40
3.5
 41
0.0
 71
     1
 72
     5
  1
2-M2.6\P\U+6709\U+52B9\U+6DF1\U+30553
 73
     1
 44
1.0
1001
ACAD
1000
MTEXTBEGIN
1070
    73
1070
     1
1070
    44
1040
1.0
1070
    74
1070
     0
1000
MTEXTEND
  0
LINE
  5
FC4
330
FBD
100
AcDbEntity
  8
AM_5
100
AcDbLine
 10
9.701842003132433
 20
61.38274011684186
 30
0.0
 11
30.94915945230516
 21
61.38274011684186
 31
0.0
  0
ENDBLK
  5
FC6
330
FBD
100
AcDbEntity
  8
0
100
AcDbBlockEnd
  0
BLOCK
  5
FCF
330
FC8
100
AcDbEntity
  8
0
100
AcDbBlockBegin
  2
*S68
 70
     1
 10
0.0
 20
0.0
 30
0.0
  3
*S68
  1

  0
LINE
  5
FC9
330
FC8
100
AcDbEntity
  8
AM_5
100
AcDbLine
 10
121.3414079242056
 20
55.28871863485381
 30
0.0
 11
137.8582415984226
 21
55.28871863485381
 31
0.0
  0
LINE
  5
FCA
330
FC8
100
AcDbEntity
  8
AM_5
100
AcDbLine
 10
137.8582415984226
 20
55.28871863485381
 30
0.0
 11
141.1621945924806
 21
35.82107526753332
 31
0.0
  0
LINE
  5
FCB
330
FC8
100
AcDbEntity
  8
AM_5
  6
Continuous
100
AcDbLine
 10
141.1621945924806
 20
35.82107526753333
 30
0.0
 11
141.580500820456
 21
33.35631972191891
 31
0.0
  0
LINE
  5
FCC
330
FC8
100
AcDbEntity
  8
AM_5
  6
Continuous
100
AcDbLine
 10
140.5017653404852
 20
35.70899045257537
 30
0.0
 11
141.580500820456
 21
33.35631972191891
 31
0.0
  0
LINE
  5
FCD
330
FC8
100
AcDbEntity
  8
AM_5
  6
Continuous
100
AcDbLine
 10
141.580500820456
 20
33.35631972191891
 30
0.0
 11
141.822623844476
 21
35.93316008249129
 31
0.0
  0
MTEXT
  5
FCE
102
{ACAD_XDICTIONARY
360
1026
102
}
330
FC8
100
AcDbEntity
  8
AM_5
 62
   140
100
AcDbMText
 10
121.3414079242056
 20
57.03871863485381
 30
0.0
 40
3.5
 41
0.0
 71
     7
 72
     5
  1
+\U+7AEF\U+5B50
 73
     1
 44
1.0
1001
ACAD
1000
MTEXTBEGIN
1070
    73
1070
     1
1070
    44
1040
1.0
1070
    74
1070
     0
1000
MTEXTEND
  0
ENDBLK
  5
FD0
330
FC8
100
AcDbEntity
  8
0
100
AcDbBlockEnd
  0
BLOCK
  5
FD9
330
FD2
100
AcDbEntity
  8
0
100
AcDbBlockBegin
  2
*S69
 70
     1
 10
0.0
 20
0.0
 30
0.0
  3
*S69
  1

  0
LINE
  5
FD3
330
FD2
100
AcDbEntity
  8
AM_5
100
AcDbLine
 10
146.3761685550002
 20
4.955330948791413
 30
0.0
 11
123.1290094640911
 21
4.955330948791413
 31
0.0
  0
LINE
  5
FD4
330
FD2
100
AcDbEntity
  8
AM_5
100
AcDbLine
 10
123.1290094640911
 20
4.955330948791413
 30
0.0
 11
112.8257194430078
 21
27.48282464815951
 31
0.0
  0
LINE
  5
FD5
330
FD2
100
AcDbEntity
  8
AM_5
  6
Continuous
100
AcDbLine
 10
112.8257194430078
 20
27.48282464815951
 30
0.0
 11
111.7859020794321
 21
29.75631972191854
 31
0.0
  0
LINE
  5
FD6
330
FD2
100
AcDbEntity
  8
AM_5
  6
Continuous
100
AcDbLine
 10
113.4349006064905
 20
27.76144286847753
 30
0.0
 11
111.7859020794321
 21
29.75631972191854
 31
0.0
  0
LINE
  5
FD7
330
FD2
100
AcDbEntity
  8
AM_5
  6
Continuous
100
AcDbLine
 10
111.7859020794321
 20
29.75631972191854
 30
0.0
 11
112.216538279525
 21
27.20420642784148
 31
0.0
  0
MTEXT
  5
FD8
102
{ACAD_XDICTIONARY
360
1028
102
}
330
FD2
100
AcDbEntity
  8
AM_5
 62
   140
100
AcDbMText
 10
126.6290094640911
 20
6.705330948791413
 30
0.0
 40
3.5
 41
0.0
 71
     7
 72
     5
  1
\U+5165\U+529B\U+7AEF\U+5B50
 73
     1
 44
1.0
1001
ACAD
1000
MTEXTBEGIN
1070
    73
1070
     1
1070
    44
1040
1.0
1070
    74
1070
     0
1000
MTEXTEND
  0
ENDBLK
  5
FDA
330
FD2
100
AcDbEntity
  8
0
100
AcDbBlockEnd
  0
BLOCK
  5
FE2
330
FDC
100
AcDbEntity
  8
0
100
AcDbBlockBegin
  2
*S70
 70
     1
 10
0.0
 20
0.0
 30
0.0
  3
*S70
  1

  0
LINE
  5
FDD
330
FDC
100
AcDbEntity
  8
AM_5
100
AcDbLine
 10
92.29575302802148
 20
48.06708883154025
 30
0.0
 11
73.28106423653093
 21
48.06708883154025
 31
0.0
  0
LINE
  5
FDE
330
FDC
100
AcDbEntity
  8
AM_5
100
AcDbLine
 10
73.28106423653093
 20
48.06708883154025
 30
0.0
 11
81.709258132261
 21
43.75067087167554
 31
0.0
  0
HATCH
  5
FDF
330
FDC
100
AcDbEntity
  8
AM_5
100
AcDbHatch
 10
0.0
 20
0.0
 30
0.0
210
0.0
220
0.0
230
1.0
  2
SOLID
 70
     1
 71
     0
 91
        1
 92
        0
 93
        1
 72
     2
 10
83.93441601619368
 20
42.61107779010115
 40
0.4464285714285694
 50
0.0
 51
360.0
 73
     1
 97
        0
 75
     0
 76
     1
 98
        1
 10
83.93441601619368
 20
42.61107779010115
  0
LINE
  5
FE0
330
FDC
100
AcDbEntity
  8
AM_5
  6
Continuous
100
AcDbLine
 10
83.53706639406285
 20
42.81457655466801
 30
0.0
 11
81.709258132261
 21
43.75067087167554
 31
0.0
  0
MTEXT
  5
FE1
102
{ACAD_XDICTIONARY
360
102A
102
}
330
FDC
100
AcDbEntity
  8
AM_5
 62
   140
100
AcDbMText
 10
72.54859393711239
 20
49.81708883154024
 30
0.0
 40
3.5
 41
0.0
 71
     7
 72
     5
  1
\U+5B9A\U+683C\U+9298\U+677F
 73
     1
 44
1.0
1001
ACAD
1000
MTEXTBEGIN
1070
    73
1070
     1
1070
    44
1040
1.0
1070
    74
1070
     0
1000
MTEXTEND
  0
ENDBLK
  5
FE3
330
FDC
100
AcDbEntity
  8
0
100
AcDbBlockEnd
  0
ENDSEC
  0
SECTION
  2
ENTITIES
  0
LWPOLYLINE
  5
C7
330
67
100
AcDbEntity
  8
AM_VIEWS
  6
Continuous
100
AcDbPolyline
 90
        4
 70
     1
 43
0.0
 10
0.0
 20
0.0
 10
175.0
 20
0.0
 10
175.0
 20
80.0
 10
0.0
 20
80.0
  0
LINE
  5
196
330
67
100
AcDbEntity
  8
AM_7
100
AcDbLine
 10
151.7333419307605
 20
31.15631972191818
 30
0.0
 11
168.5833419307605
 21
31.15631972191818
 31
0.0
1001
GENIUS_GENOREF_13
1005
267
  0
POINT
  5
267
330
67
100
AcDbEntity
  8
0
 60
     1
100
AcDbPoint
 10
0.0
 20
0.0
 30
0.0
1001
GENIUS_GENOBJ-N-CRS_13
1002
{
1000
OWNER
1000
GEN
1002
}
1001
GENIUS_GENOENT_13
1002
{
1000
MYREF
1005
267
1002
}
1002
{
1000
GRP
1005
0
1002
}
1001
GENIUS_GENOLIS_13
1002
{
1000
ENT
1005
199
1005
198
1005
197
1005
196
1002
}
1001
GENIUS_GENODEF_13
1002
{
1000
HIER
1070
    10
1002
}
1002
{
1000
MANEDIT
1070
     1
1002
}
1002
{
1000
NOSEL
1070
     0
1002
}
1002
{
1000
BEHIND
1070
     0
1002
}
1002
{
1000
OTHER
1070
     0
1002
}
1002
{
1000
REACTOR
1002
}
  0
LWPOLYLINE
  5
30F
330
67
100
AcDbEntity
  8
AM_VIEWS
100
AcDbPolyline
 90
        2
 70
     0
 43
0.0
 10
175.0
 20
-0.0000000000000071
 10
175.0
 20
80.0
1001
GENIUS_GENSCREG_15
1040
1.0
1040
1.0
1011
0.0
1021
0.0
1031
0.0
1011
175.0
1021
80.0
1031
0.0
1070
     2
1001
GENIUS_GENODEF_13
1002
{
1000
HIER
1070
     0
1002
}
1002
{
1000
MANEDIT
1070
     0
1002
}
1002
{
1000
NOSEL
1070
     0
1002
}
1002
{
1000
BEHIND
1070
     0
1002
}
1002
{
1000
OTHER
1070
     0
1002
}
1002
{
1000
REACTOR
1002
}
1001
GENIUS_GENOBJ-N-SDF_13
1002
{
1000
OWNER
1000
GEN
1002
}
  0
LWPOLYLINE
  5
310
330
67
100
AcDbEntity
  8
AM_VIEWS
100
AcDbPolyline
 90
        2
 70
     0
 43
0.0
 10
175.0
 20
80.0
 10
-0.0000000000000044
 20
80.0
1001
GENIUS_GENSCREG_15
1040
1.0
1040
1.0
1011
0.0
1021
0.0
1031
0.0
1011
175.0
1021
80.0
1031
0.0
1070
     2
1001
GENIUS_GENODEF_13
1002
{
1000
HIER
1070
     0
1002
}
1002
{
1000
MANEDIT
1070
     0
1002
}
1002
{
1000
NOSEL
1070
     0
1002
}
1002
{
1000
BEHIND
1070
     0
1002
}
1002
{
1000
OTHER
1070
     0
1002
}
1002
{
1000
REACTOR
1002
}
1001
GENIUS_GENOBJ-N-SDF_13
1002
{
1000
OWNER
1000
GEN
1002
}
  0
LWPOLYLINE
  5
311
330
67
100
AcDbEntity
  8
AM_VIEWS
100
AcDbPolyline
 90
        3
 70
     0
 43
0.0
 10
-0.0000000000000044
 20
80.0
 10
0.0
 20
0.0
 10
175.0
 20
-0.0000000000000071
1001
GENIUS_GENSCREG_15
1040
1.0
1040
1.0
1011
0.0
1021
0.0
1031
0.0
1011
175.0
1021
80.0
1031
0.0
1070
     2
1001
GENIUS_GENODEF_13
1002
{
1000
HIER
1070
     0
1002
}
1002
{
1000
MANEDIT
1070
     0
1002
}
1002
{
1000
NOSEL
1070
     0
1002
}
1002
{
1000
BEHIND
1070
     0
1002
}
1002
{
1000
OTHER
1070
     0
1002
}
1002
{
1000
REACTOR
1002
}
1001
GENIUS_GENOBJ-N-SDF_13
1002
{
1000
OWNER
1000
GEN
1002
}
  0
LWPOLYLINE
  5
312
330
67
100
AcDbEntity
  8
AM_VIEWS
100
AcDbPolyline
 90
        2
 70
     0
 43
0.0
 10
0.0
 20
0.0
 10
62.5
 20
0.0
1001
GENIUS_GENSCREG_15
1040
1.0
1040
1.0
1011
0.0
1021
-45.0
1031
0.0
1011
62.5
1021
0.0
1031
0.0
1070
     2
1001
GENIUS_GENOBJ-N-SDF_13
1002
{
1000
OWNER
1000
GEN
1002
}
1001
GENIUS_GENODEF_13
1002
{
1000
HIER
1070
     0
1002
}
1002
{
1000
MANEDIT
1070
     0
1002
}
1002
{
1000
NOSEL
1070
     0
1002
}
1002
{
1000
BEHIND
1070
     0
1002
}
1002
{
1000
OTHER
1070
     0
1002
}
1002
{
1000
REACTOR
1002
}
  0
LWPOLYLINE
  5
313
330
67
100
AcDbEntity
  8
AM_VIEWS
100
AcDbPolyline
 90
        2
 70
     0
 43
0.0
 10
73.7313392340485
 20
-0.0000000000000069
 10
161.7661319176011
 20
-0.0000000000000069
1001
GENIUS_GENSCREG_15
1040
1.0
1040
1.0
1011
73.7313392340485
1021
-48.8577448430018
1031
0.0
1011
161.7661319176011
1021
-0.0000000000000069
1031
0.0
1070
     2
1001
GENIUS_GENODEF_13
1002
{
1000
HIER
1070
     0
1002
}
1002
{
1000
MANEDIT
1070
     0
1002
}
1002
{
1000
NOSEL
1070
     0
1002
}
1002
{
1000
BEHIND
1070
     0
1002
}
1002
{
1000
OTHER
1070
     0
1002
}
1002
{
1000
REACTOR
1002
}
1001
GENIUS_GENOBJ-N-SDF_13
1002
{
1000
OWNER
1000
GEN
1002
}
  0
LINE
  5
83D
330
67
100
AcDbEntity
  8
AM_0
370
    30
100
AcDbLine
 10
72.43590207943213
 20
16.61431160749339
 30
0.0
 11
92.43590207943213
 21
16.61431160749339
 31
0.0
  0
LINE
  5
83E
330
67
100
AcDbEntity
  8
AM_0
370
    30
100
AcDbLine
 10
92.43590207943213
 20
45.75631972191854
 30
0.0
 11
92.43590207943213
 21
16.61431160749339
 31
0.0
  0
LINE
  5
83F
330
67
100
AcDbEntity
  8
AM_0
370
    30
100
AcDbLine
 10
72.43590207943213
 20
45.75631972191854
 30
0.0
 11
72.43590207943213
 21
16.61431160749339
 31
0.0
  0
LINE
  5
840
102
{ACAD_REACTORS
330
C4A
102
}
330
67
100
AcDbEntity
  8
AM_0
370
    30
100
AcDbLine
 10
72.43590207943213
 20
45.75631972191854
 30
0.0
 11
92.43590207943213
 21
45.75631972191854
 31
0.0
  0
LINE
  5
841
330
67
100
AcDbEntity
  8
AM_0
370
    30
100
AcDbLine
 10
105.6359020794322
 20
40.3563197219189
 30
0.0
 11
105.6359020794322
 21
33.35631972191891
 31
0.0
  0
LINE
  5
842
330
67
100
AcDbEntity
  8
AM_0
370
    30
100
AcDbLine
 10
105.6359020794322
 20
28.95631972191836
 30
0.0
 11
105.6359020794322
 21
21.95631972191836
 31
0.0
  0
ARC
  5
843
330
67
100
AcDbEntity
  8
AM_0
370
    30
100
AcDbCircle
 10
105.3359020794321
 20
40.3563197219189
 30
0.0
 40
0.3
100
AcDbArc
 50
0.0
 51
90.0
  0
ARC
  5
844
330
67
100
AcDbEntity
  8
AM_0
370
    30
100
AcDbCircle
 10
105.3359020794321
 20
21.95631972191836
 30
0.0
 40
0.3
100
AcDbArc
 50
270.0
 51
0.0
  0
LINE
  5
845
330
67
100
AcDbEntity
  8
AM_0
370
    30
100
AcDbLine
 10
106.2359020794321
 20
33.35631972191891
 30
0.0
 11
106.2359020794321
 21
33.15631972191818
 31
0.0
  0
LINE
  5
846
330
67
100
AcDbEntity
  8
AM_0
370
    30
100
AcDbLine
 10
106.4359020794321
 20
33.15631972191818
 30
0.0
 11
106.2359020794321
 21
33.15631972191818
 31
0.0
  0
LINE
  5
847
330
67
100
AcDbEntity
  8
AM_0
370
    30
100
AcDbLine
 10
106.4359020794321
 20
33.15631972191818
 30
0.0
 11
106.2359020794321
 21
33.35631972191891
 31
0.0
  0
LINE
  5
848
330
67
100
AcDbEntity
  8
AM_0
370
    30
100
AcDbLine
 10
106.4359020794321
 20
29.15631972191818
 30
0.0
 11
106.2359020794321
 21
29.15631972191818
 31
0.0
  0
LINE
  5
849
330
67
100
AcDbEntity
  8
AM_0
370
    30
100
AcDbLine
 10
106.2359020794321
 20
28.95631972191836
 30
0.0
 11
106.2359020794321
 21
29.15631972191818
 31
0.0
  0
LINE
  5
84A
330
67
100
AcDbEntity
  8
AM_0
370
    30
100
AcDbLine
 10
106.2359020794321
 20
28.95631972191836
 30
0.0
 11
106.4359020794321
 21
29.15631972191818
 31
0.0
  0
LINE
  5
84B
330
67
100
AcDbEntity
  8
AM_0
370
    30
100
AcDbLine
 10
105.3359020794321
 20
28.95631972191836
 30
0.0
 11
106.2359020794321
 21
28.95631972191836
 31
0.0
  0
LINE
  5
84C
330
67
100
AcDbEntity
  8
AM_0
370
    30
100
AcDbLine
 10
106.2359020794321
 20
29.15631972191818
 30
0.0
 11
105.3359020794321
 21
29.15631972191818
 31
0.0
  0
LINE
  5
84D
330
67
100
AcDbEntity
  8
AM_0
370
    30
100
AcDbLine
 10
106.4359020794321
 20
29.15631972191818
 30
0.0
 11
106.4359020794321
 21
33.15631972191818
 31
0.0
  0
LINE
  5
84E
330
67
100
AcDbEntity
  8
AM_0
370
    30
100
AcDbLine
 10
106.2359020794321
 20
33.15631972191818
 30
0.0
 11
106.2359020794321
 21
29.15631972191818
 31
0.0
  0
LINE
  5
84F
330
67
100
AcDbEntity
  8
AM_0
370
    30
100
AcDbLine
 10
105.3359020794321
 20
33.15631972191818
 30
0.0
 11
106.2359020794321
 21
33.15631972191818
 31
0.0
  0
LINE
  5
850
330
67
100
AcDbEntity
  8
AM_0
370
    30
100
AcDbLine
 10
106.2359020794321
 20
33.35631972191891
 30
0.0
 11
105.3359020794321
 21
33.35631972191891
 31
0.0
  0
LINE
  5
851
330
67
100
AcDbEntity
  8
AM_0
370
    30
100
AcDbLine
 10
111.7859020794321
 20
32.55631972191873
 30
0.0
 11
106.4359020794321
 21
32.55631972191873
 31
0.0
  0
LINE
  5
852
330
67
100
AcDbEntity
  8
AM_0
370
    30
100
AcDbLine
 10
111.7859020794321
 20
29.75631972191854
 30
0.0
 11
106.4359020794321
 21
29.75631972191854
 31
0.0
  0
LINE
  5
853
330
67
100
AcDbEntity
  8
AM_0
370
    30
100
AcDbLine
 10
112.535902079432
 20
30.50631972191855
 30
0.0
 11
112.535902079432
 21
31.80631972191873
 31
0.0
  0
LINE
  5
854
330
67
100
AcDbEntity
  8
AM_0
370
    30
100
AcDbLine
 10
112.535902079432
 20
30.50631972191855
 30
0.0
 11
111.7859020794321
 21
29.75631972191854
 31
0.0
  0
LINE
  5
855
330
67
100
AcDbEntity
  8
AM_0
370
    30
100
AcDbLine
 10
111.7859020794321
 20
32.55631972191873
 30
0.0
 11
112.535902079432
 21
31.80631972191873
 31
0.0
  0
ARC
  5
856
330
67
100
AcDbEntity
  8
AM_0
370
    30
100
AcDbCircle
 10
110.1859020794321
 20
31.15631972191818
 30
0.0
 40
0.7499999999999996
100
AcDbArc
 50
90.0
 51
270.0
  0
LINE
  5
857
330
67
100
AcDbEntity
  8
AM_0
370
    30
100
AcDbLine
 10
110.1859020794321
 20
31.90631972191818
 30
0.0
 11
110.6859020794321
 21
31.90631972191818
 31
0.0
  0
ARC
  5
858
330
67
100
AcDbEntity
  8
AM_0
370
    30
100
AcDbCircle
 10
110.6859020794321
 20
31.15631972191818
 30
0.0
 40
0.7500000000000001
100
AcDbArc
 50
270.0
 51
90.0
  0
LINE
  5
859
330
67
100
AcDbEntity
  8
AM_0
370
    30
100
AcDbLine
 10
110.6859020794321
 20
30.40631972191818
 30
0.0
 11
110.1859020794321
 21
30.40631972191818
 31
0.0
  0
LINE
  5
85A
330
67
100
AcDbEntity
  8
AM_0
370
    30
100
AcDbLine
 10
105.3359020794321
 20
45.00631972191854
 30
0.0
 11
105.3359020794321
 21
17.30631972191872
 31
0.0
  0
LINE
  5
85B
330
67
100
AcDbEntity
  8
AM_0
370
    30
100
AcDbLine
 10
68.83590207943211
 20
45.00631972191854
 30
0.0
 11
72.43590207943213
 21
45.00631972191854
 31
0.0
  0
LINE
  5
85C
330
67
100
AcDbEntity
  8
AM_0
370
    30
100
AcDbLine
 10
92.43590207943213
 20
45.00631972191854
 30
0.0
 11
105.3359020794321
 21
45.00631972191854
 31
0.0
  0
LINE
  5
85D
330
67
100
AcDbEntity
  8
AM_0
370
    30
100
AcDbLine
 10
68.83590207943211
 20
17.30631972191872
 30
0.0
 11
72.43590207943213
 21
17.30631972191872
 31
0.0
  0
LINE
  5
85E
330
67
100
AcDbEntity
  8
AM_0
370
    30
100
AcDbLine
 10
92.43590207943213
 20
17.30631972191872
 30
0.0
 11
105.3359020794321
 21
17.30631972191872
 31
0.0
  0
LINE
  5
85F
330
67
100
AcDbEntity
  8
AM_0
370
    30
100
AcDbLine
 10
110.2359020794321
 20
31.90631972191818
 30
0.0
 11
110.2359020794321
 21
30.40631972191818
 31
0.0
  0
LINE
  5
860
330
67
100
AcDbEntity
  8
AM_0
370
    30
100
AcDbLine
 10
108.2359020794321
 20
36.15631972191818
 30
0.0
 11
108.2359020794321
 21
32.55631972191873
 31
0.0
  0
LINE
  5
861
330
67
100
AcDbEntity
  8
AM_0
370
    30
100
AcDbLine
 10
108.2359020794321
 20
29.75631972191854
 30
0.0
 11
108.2359020794321
 21
26.15631972191818
 31
0.0
  0
LINE
  5
862
330
67
100
AcDbEntity
  8
AM_0
370
    30
100
AcDbLine
 10
105.6359020794322
 20
36.15631972191818
 30
0.0
 11
108.2359020794321
 21
36.15631972191818
 31
0.0
  0
LINE
  5
863
330
67
100
AcDbEntity
  8
AM_0
370
    30
100
AcDbLine
 10
105.6359020794322
 20
26.15631972191818
 30
0.0
 11
108.2359020794321
 21
26.15631972191818
 31
0.0
  0
LINE
  5
864
330
67
100
AcDbEntity
  8
AM_0
370
    30
100
AcDbLine
 10
59.2359020794321
 20
30.20381972191876
 30
0.0
 11
59.2359020794321
 21
32.10881972191851
 31
0.0
  0
ARC
  5
865
330
67
100
AcDbEntity
  8
AM_0
370
    30
100
AcDbCircle
 10
59.43590207943214
 20
30.20381972191876
 30
0.0
 40
0.2
100
AcDbArc
 50
180.0
 51
270.0
  0
ARC
  5
866
330
67
100
AcDbEntity
  8
AM_0
370
    30
100
AcDbCircle
 10
59.43590207943214
 20
32.10881972191851
 30
0.0
 40
0.2
100
AcDbArc
 50
90.0
 51
180.0
  0
LINE
  5
867
330
67
100
AcDbEntity
  8
AM_0
370
    30
100
AcDbLine
 10
65.23590207943209
 20
26.15631972191818
 30
0.0
 11
65.23590207943209
 21
36.15631972191818
 31
0.0
  0
LINE
  5
868
330
67
100
AcDbEntity
  8
AM_0
370
    30
100
AcDbLine
 10
67.83590207943212
 20
26.15631972191818
 30
0.0
 11
65.23590207943209
 21
26.15631972191818
 31
0.0
  0
LINE
  5
869
330
67
100
AcDbEntity
  8
AM_0
370
    30
100
AcDbLine
 10
67.83590207943212
 20
36.15631972191818
 30
0.0
 11
65.23590207943209
 21
36.15631972191818
 31
0.0
  0
LINE
  5
86A
330
67
100
AcDbEntity
  8
AM_0
370
    30
100
AcDbLine
 10
67.83590207943212
 20
18.30631972191872
 30
0.0
 11
67.83590207943212
 21
44.00631972191854
 31
0.0
  0
ARC
  5
86B
330
67
100
AcDbEntity
  8
AM_0
370
    30
100
AcDbCircle
 10
68.83590207943211
 20
44.00631972191854
 30
0.0
 40
1.0
100
AcDbArc
 50
90.0
 51
180.0
  0
ARC
  5
86C
330
67
100
AcDbEntity
  8
AM_0
370
    30
100
AcDbCircle
 10
68.83590207943211
 20
18.30631972191872
 30
0.0
 40
1.0
100
AcDbArc
 50
180.0
 51
270.0
  0
LINE
  5
86D
330
67
100
AcDbEntity
  8
AM_0
370
    30
100
AcDbLine
 10
65.23590207943209
 20
30.00381972191894
 30
0.0
 11
59.43590207943214
 21
30.00381972191894
 31
0.0
  0
LINE
  5
86E
330
67
100
AcDbEntity
  8
AM_0
370
    30
100
AcDbLine
 10
65.23590207943209
 20
32.30881972191833
 30
0.0
 11
59.43590207943214
 21
32.30881972191833
 31
0.0
  0
LINE
  5
86F
330
67
100
AcDbEntity
  8
AM_0
370
    30
100
AcDbLine
 10
23.79999999999904
 20
17.36746552731597
 30
0.0
 11
23.79999999999904
 21
16.61431160749339
 31
0.0
  0
ARC
  5
870
330
67
100
AcDbEntity
  8
AM_0
370
    30
100
AcDbCircle
 10
22.49999999999904
 20
31.15631972191818
 30
0.0
 40
14.6
100
AcDbArc
 50
275.1084444508909
 51
264.8915555491092
  0
LINE
  5
871
330
67
100
AcDbEntity
  8
AM_0
370
    30
100
AcDbLine
 10
21.19999999999908
 20
16.61431160749339
 30
0.0
 11
21.19999999999908
 21
17.36746552731597
 31
0.0
  0
CIRCLE
  5
872
330
67
100
AcDbEntity
  8
AM_0
370
    30
100
AcDbCircle
 10
22.49999999999773
 20
20.65631972191818
 30
0.0
 40
1.25
  0
CIRCLE
  5
873
330
67
100
AcDbEntity
  8
AM_0
370
    30
100
AcDbCircle
 10
22.49999999999693
 20
31.15631972191818
 30
0.0
 40
4.5
  0
CIRCLE
  5
874
330
67
100
AcDbEntity
  8
AM_0
370
    30
100
AcDbCircle
 10
14.49999999999772
 20
31.15631972191818
 30
0.0
 40
1.056499999999999
  0
CIRCLE
  5
875
330
67
100
AcDbEntity
  8
AM_0
370
    30
100
AcDbCircle
 10
30.49999999999773
 20
31.15631972191818
 30
0.0
 40
1.056499999999999
  0
CIRCLE
  5
876
330
67
100
AcDbEntity
  8
AM_0
370
     0
100
AcDbCircle
 10
14.49999999999772
 20
31.15631972191818
 30
0.0
 40
1.3
  0
CIRCLE
  5
877
330
67
100
AcDbEntity
  8
AM_0
370
     0
100
AcDbCircle
 10
30.49999999999773
 20
31.15631972191818
 30
0.0
 40
1.3
  0
CIRCLE
  5
878
330
67
100
AcDbEntity
  8
AM_0
370
    30
100
AcDbCircle
 10
22.49999999999523
 20
31.15631972191818
 30
0.0
 40
1.1525
  0
CIRCLE
  5
879
330
67
100
AcDbEntity
  8
AM_0
370
    30
100
AcDbCircle
 10
22.49999999999693
 20
31.15631972191818
 30
0.0
 40
5.0
  0
CIRCLE
  5
87A
330
67
100
AcDbEntity
  8
AM_0
370
    30
100
AcDbCircle
 10
22.49999999999801
 20
31.15631972191818
 30
0.0
 40
13.85
  0
LINE
  5
87B
330
67
100
AcDbEntity
  8
AM_0
370
    30
100
AcDbLine
 10
151.7805008204519
 20
17.36746552731597
 30
0.0
 11
151.7805008204519
 21
16.61431160749339
 31
0.0
  0
ARC
  5
87C
330
67
100
AcDbEntity
  8
AM_0
370
    30
100
AcDbCircle
 10
153.080500820452
 20
31.15631972191818
 30
0.0
 40
14.6
100
AcDbArc
 50
275.1084444508925
 51
264.8915555491075
  0
LINE
  5
87D
330
67
100
AcDbEntity
  8
AM_0
370
    30
100
AcDbLine
 10
154.380500820452
 20
16.61431160749339
 30
0.0
 11
154.380500820452
 21
17.36746552731597
 31
0.0
  0
CIRCLE
  5
87E
330
67
100
AcDbEntity
  8
AM_0
370
    30
100
AcDbCircle
 10
153.0805008204557
 20
31.15631972191818
 30
0.0
 40
9.5
  0
CIRCLE
  5
87F
330
67
100
AcDbEntity
  8
AM_0
370
    30
100
AcDbCircle
 10
155.6456518953984
 20
38.20401437781288
 30
0.0
 40
1.0
  0
CIRCLE
  5
880
330
67
100
AcDbEntity
  8
AM_0
370
    30
100
AcDbCircle
 10
150.5153497455134
 20
24.10862506602439
 30
0.0
 40
1.0
  0
ARC
  5
881
330
67
100
AcDbEntity
  8
AM_0
370
    30
100
AcDbCircle
 10
156.2501377835111
 20
24.35901131914375
 30
0.0
 40
0.5000000000000005
100
AcDbArc
 50
115.0000008537568
 51
294.9999999999854
  0
ARC
  5
882
330
67
100
AcDbEntity
  8
AM_0
370
    30
100
AcDbCircle
 10
153.0805008204558
 20
31.15631972191818
 30
0.0
 40
7.000000000000002
100
AcDbArc
 50
294.9999999999854
 51
340.0000000000103
  0
ARC
  5
883
330
67
100
AcDbEntity
  8
AM_0
370
    30
100
AcDbCircle
 10
160.1281954763502
 20
28.59116864697603
 30
0.0
 40
0.5000000000000013
100
AcDbArc
 50
340.0000000000103
 51
160.0000000000103
  0
ARC
  5
884
330
67
100
AcDbEntity
  8
AM_0
370
    30
100
AcDbCircle
 10
153.0805008204558
 20
31.15631972191818
 30
0.0
 40
8.000000000000017
100
AcDbArc
 50
294.9999999999854
 51
340.0000000000103
  0
ARC
  5
885
330
67
100
AcDbEntity
  8
AM_0
370
    30
100
AcDbCircle
 10
149.9108638574006
 20
37.95362812469353
 30
0.0
 40
0.5000000000000068
100
AcDbArc
 50
294.9999999999854
 51
114.9999999999854
  0
ARC
  5
886
330
67
100
AcDbEntity
  8
AM_0
370
    30
100
AcDbCircle
 10
153.0805008204558
 20
31.15631972191818
 30
0.0
 40
6.999999999999991
100
AcDbArc
 50
114.9999999999854
 51
160.0000000000103
  0
ARC
  5
887
330
67
100
AcDbEntity
  8
AM_0
370
    30
100
AcDbCircle
 10
146.0328061645615
 20
33.72147079686124
 30
0.0
 40
0.5000000000000011
100
AcDbArc
 50
160.0000000000103
 51
340.0000000000103
  0
ARC
  5
888
330
67
100
AcDbEntity
  8
AM_0
370
    30
100
AcDbCircle
 10
153.0805008204558
 20
31.15631972191818
 30
0.0
 40
7.999999999999991
100
AcDbArc
 50
114.9999999999854
 51
160.0000000000103
  0
CIRCLE
  5
889
330
67
100
AcDbEntity
  8
AM_0
370
    30
100
AcDbCircle
 10
162.295961318707
 20
24.70358481296967
 30
0.0
 40
1.25
  0
CIRCLE
  5
88A
330
67
100
AcDbEntity
  8
AM_0
370
    30
100
AcDbCircle
 10
143.8650403222046
 20
37.60905463086761
 30
0.0
 40
1.25
  0
CIRCLE
  5
88B
330
67
100
AcDbEntity
  8
AM_0
370
    30
100
AcDbCircle
 10
142.5089588366143
 20
27.3085931095045
 30
0.0
 40
1.25
  0
CIRCLE
  5
88C
330
67
100
AcDbEntity
  8
AM_0
370
    30
100
AcDbCircle
 10
163.6520428042972
 20
35.00404633433277
 30
0.0
 40
1.25
  0
LINE
  5
88D
330
67
100
AcDbEntity
  8
AM_0
370
    30
100
AcDbLine
 10
142.580500820456
 20
33.15631972191818
 30
0.0
 11
142.380500820456
 21
33.35631972191891
 31
0.0
  0
LINE
  5
88E
330
67
100
AcDbEntity
  8
AM_0
370
    30
100
AcDbLine
 10
142.380500820456
 20
33.15631972191818
 30
0.0
 11
142.380500820456
 21
33.35631972191891
 31
0.0
  0
LINE
  5
88F
330
67
100
AcDbEntity
  8
AM_0
370
    30
100
AcDbLine
 10
142.580500820456
 20
33.15631972191818
 30
0.0
 11
142.380500820456
 21
33.15631972191818
 31
0.0
  0
LINE
  5
890
330
67
100
AcDbEntity
  8
AM_0
370
    30
100
AcDbLine
 10
140.780500820456
 20
33.35631972191891
 30
0.0
 11
140.580500820456
 21
33.15631972191818
 31
0.0
  0
LINE
  5
891
330
67
100
AcDbEntity
  8
AM_0
370
    30
100
AcDbLine
 10
140.780500820456
 20
33.15631972191818
 30
0.0
 11
140.580500820456
 21
33.15631972191818
 31
0.0
  0
LINE
  5
892
330
67
100
AcDbEntity
  8
AM_0
370
    30
100
AcDbLine
 10
140.780500820456
 20
33.15631972191818
 30
0.0
 11
140.780500820456
 21
33.35631972191891
 31
0.0
  0
LINE
  5
893
330
67
100
AcDbEntity
  8
AM_0
370
    30
100
AcDbLine
 10
142.580500820456
 20
29.15631972191818
 30
0.0
 11
142.380500820456
 21
29.15631972191818
 31
0.0
  0
LINE
  5
894
330
67
100
AcDbEntity
  8
AM_0
370
    30
100
AcDbLine
 10
142.380500820456
 20
28.95631972191836
 30
0.0
 11
142.380500820456
 21
29.15631972191818
 31
0.0
  0
LINE
  5
895
330
67
100
AcDbEntity
  8
AM_0
370
    30
100
AcDbLine
 10
142.380500820456
 20
28.95631972191836
 30
0.0
 11
142.580500820456
 21
29.15631972191818
 31
0.0
  0
LINE
  5
896
330
67
100
AcDbEntity
  8
AM_0
370
    30
100
AcDbLine
 10
140.780500820456
 20
29.15631972191818
 30
0.0
 11
140.580500820456
 21
29.15631972191818
 31
0.0
  0
LINE
  5
897
330
67
100
AcDbEntity
  8
AM_0
370
    30
100
AcDbLine
 10
140.780500820456
 20
28.95631972191836
 30
0.0
 11
140.580500820456
 21
29.15631972191818
 31
0.0
  0
LINE
  5
898
330
67
100
AcDbEntity
  8
AM_0
370
    30
100
AcDbLine
 10
140.780500820456
 20
28.95631972191836
 30
0.0
 11
140.780500820456
 21
29.15631972191818
 31
0.0
  0
LINE
  5
899
330
67
100
AcDbEntity
  8
AM_0
370
    30
100
AcDbLine
 10
142.380500820456
 20
29.15631972191818
 30
0.0
 11
140.780500820456
 21
29.15631972191818
 31
0.0
  0
LINE
  5
89A
330
67
100
AcDbEntity
  8
AM_0
370
    30
100
AcDbLine
 10
140.780500820456
 20
28.95631972191836
 30
0.0
 11
142.380500820456
 21
28.95631972191836
 31
0.0
  0
LINE
  5
89B
330
67
100
AcDbEntity
  8
AM_0
370
    30
100
AcDbLine
 10
140.780500820456
 20
29.15631972191818
 30
0.0
 11
140.780500820456
 21
33.15631972191818
 31
0.0
  0
LINE
  5
89C
330
67
100
AcDbEntity
  8
AM_0
370
    30
100
AcDbLine
 10
140.580500820456
 20
33.15631972191818
 30
0.0
 11
140.580500820456
 21
29.15631972191818
 31
0.0
  0
LINE
  5
89D
330
67
100
AcDbEntity
  8
AM_0
370
    30
100
AcDbLine
 10
142.380500820456
 20
33.15631972191818
 30
0.0
 11
142.380500820456
 21
29.15631972191818
 31
0.0
  0
LINE
  5
89E
330
67
100
AcDbEntity
  8
AM_0
370
    30
100
AcDbLine
 10
142.580500820456
 20
29.15631972191818
 30
0.0
 11
142.580500820456
 21
33.15631972191818
 31
0.0
  0
LINE
  5
89F
330
67
100
AcDbEntity
  8
AM_0
370
    30
100
AcDbLine
 10
140.780500820456
 20
33.15631972191818
 30
0.0
 11
142.380500820456
 21
33.15631972191818
 31
0.0
  0
LINE
  5
8A0
330
67
100
AcDbEntity
  8
AM_0
370
    30
100
AcDbLine
 10
142.380500820456
 20
33.35631972191891
 30
0.0
 11
140.780500820456
 21
33.35631972191891
 31
0.0
  0
LINE
  5
8A1
330
67
100
AcDbEntity
  8
AM_0
370
    30
100
AcDbLine
 10
141.7805008204577
 20
32.55631972191873
 30
0.0
 11
141.3805008204576
 21
32.55631972191873
 31
0.0
  0
LINE
  5
8A2
330
67
100
AcDbEntity
  8
AM_0
370
    30
100
AcDbLine
 10
141.380500820458
 20
30.50631972191855
 30
0.0
 11
141.3805008204576
 21
29.75631972191854
 31
0.0
  0
LINE
  5
8A3
330
67
100
AcDbEntity
  8
AM_0
370
    30
100
AcDbLine
 10
141.3805008204576
 20
32.55631972191873
 30
0.0
 11
141.380500820458
 21
31.80631972191873
 31
0.0
  0
LINE
  5
8A4
330
67
100
AcDbEntity
  8
AM_0
370
    30
100
AcDbLine
 10
164.3805008204576
 20
29.75631972191854
 30
0.0
 11
164.7805008204577
 21
29.75631972191854
 31
0.0
  0
LINE
  5
8A5
330
67
100
AcDbEntity
  8
AM_0
370
    30
100
AcDbLine
 10
164.7805008204578
 20
31.80631972191873
 30
0.0
 11
164.7805008204577
 21
32.55631972191873
 31
0.0
  0
LINE
  5
8A6
330
67
100
AcDbEntity
  8
AM_0
370
    30
100
AcDbLine
 10
164.7805008204577
 20
29.75631972191854
 30
0.0
 11
164.7805008204578
 21
30.50631972191855
 31
0.0
  0
LINE
  5
8A7
330
67
100
AcDbEntity
  8
AM_0
370
    30
100
AcDbLine
 10
164.380500820458
 20
30.50631972191855
 30
0.0
 11
164.3805008204576
 21
29.75631972191854
 31
0.0
  0
LINE
  5
8A8
330
67
100
AcDbEntity
  8
AM_0
370
    30
100
AcDbLine
 10
164.7805008204578
 20
30.50631972191855
 30
0.0
 11
164.380500820458
 21
30.50631972191855
 31
0.0
  0
LINE
  5
8A9
330
67
100
AcDbEntity
  8
AM_0
370
    30
100
AcDbLine
 10
164.3805008204576
 20
32.55631972191873
 30
0.0
 11
164.380500820458
 21
31.80631972191873
 31
0.0
  0
LINE
  5
8AA
330
67
100
AcDbEntity
  8
AM_0
370
    30
100
AcDbLine
 10
164.380500820458
 20
31.80631972191873
 30
0.0
 11
164.7805008204578
 21
31.80631972191873
 31
0.0
  0
LINE
  5
8AB
330
67
100
AcDbEntity
  8
AM_0
370
    30
100
AcDbLine
 10
141.7805008204578
 20
31.80631972191873
 30
0.0
 11
141.7805008204577
 21
32.55631972191873
 31
0.0
  0
LINE
  5
8AC
330
67
100
AcDbEntity
  8
AM_0
370
    30
100
AcDbLine
 10
141.380500820458
 20
31.80631972191873
 30
0.0
 11
141.7805008204578
 21
31.80631972191873
 31
0.0
  0
LINE
  5
8AD
330
67
100
AcDbEntity
  8
AM_0
370
    30
100
AcDbLine
 10
141.7805008204577
 20
29.75631972191854
 30
0.0
 11
141.7805008204578
 21
30.50631972191855
 31
0.0
  0
LINE
  5
8AE
330
67
100
AcDbEntity
  8
AM_0
370
    30
100
AcDbLine
 10
141.7805008204578
 20
30.50631972191855
 30
0.0
 11
141.380500820458
 21
30.50631972191855
 31
0.0
  0
LINE
  5
8AF
330
67
100
AcDbEntity
  8
AM_0
370
    30
100
AcDbLine
 10
141.3805008204576
 20
29.75631972191854
 30
0.0
 11
141.7805008204577
 21
29.75631972191854
 31
0.0
  0
LINE
  5
8B0
330
67
100
AcDbEntity
  8
AM_0
370
    30
100
AcDbLine
 10
164.7805008204577
 20
32.55631972191873
 30
0.0
 11
164.3805008204576
 21
32.55631972191873
 31
0.0
  0
LINE
  5
8B1
330
67
100
AcDbEntity
  8
AM_0
370
    30
100
AcDbLine
 10
141.380500820458
 20
30.50631972191855
 30
0.0
 11
141.380500820458
 21
31.80631972191873
 31
0.0
  0
LINE
  5
8B2
330
67
100
AcDbEntity
  8
AM_0
370
    30
100
AcDbLine
 10
164.7805008204578
 20
31.80631972191873
 30
0.0
 11
164.7805008204578
 21
30.50631972191855
 31
0.0
  0
LINE
  5
8B3
330
67
100
AcDbEntity
  8
AM_0
370
    30
100
AcDbLine
 10
164.380500820458
 20
30.50631972191855
 30
0.0
 11
164.380500820458
 21
31.80631972191873
 31
0.0
  0
LINE
  5
8B4
330
67
100
AcDbEntity
  8
AM_0
370
    30
100
AcDbLine
 10
141.7805008204578
 20
31.80631972191873
 30
0.0
 11
141.7805008204578
 21
30.50631972191855
 31
0.0
  0
LINE
  5
8B5
330
67
100
AcDbEntity
  8
AM_0
370
    30
100
AcDbLine
 10
163.780500820456
 20
33.35631972191891
 30
0.0
 11
163.580500820456
 21
33.15631972191818
 31
0.0
  0
LINE
  5
8B6
330
67
100
AcDbEntity
  8
AM_0
370
    30
100
AcDbLine
 10
163.780500820456
 20
33.15631972191818
 30
0.0
 11
163.580500820456
 21
33.15631972191818
 31
0.0
  0
LINE
  5
8B7
330
67
100
AcDbEntity
  8
AM_0
370
    30
100
AcDbLine
 10
163.780500820456
 20
33.35631972191891
 30
0.0
 11
163.780500820456
 21
33.15631972191818
 31
0.0
  0
LINE
  5
8B8
330
67
100
AcDbEntity
  8
AM_0
370
    30
100
AcDbLine
 10
163.580500820456
 20
29.15631972191818
 30
0.0
 11
163.780500820456
 21
28.95631972191836
 31
0.0
  0
LINE
  5
8B9
330
67
100
AcDbEntity
  8
AM_0
370
    30
100
AcDbLine
 10
163.780500820456
 20
29.15631972191818
 30
0.0
 11
163.780500820456
 21
28.95631972191836
 31
0.0
  0
LINE
  5
8BA
330
67
100
AcDbEntity
  8
AM_0
370
    30
100
AcDbLine
 10
163.780500820456
 20
29.15631972191818
 30
0.0
 11
163.580500820456
 21
29.15631972191818
 31
0.0
  0
LINE
  5
8BB
330
67
100
AcDbEntity
  8
AM_0
370
    30
100
AcDbLine
 10
165.380500820456
 20
33.35631972191891
 30
0.0
 11
165.3805008204562
 21
33.15631972191818
 31
0.0
  0
LINE
  5
8BC
330
67
100
AcDbEntity
  8
AM_0
370
    30
100
AcDbLine
 10
165.580500820456
 20
33.15631972191818
 30
0.0
 11
165.3805008204562
 21
33.15631972191818
 31
0.0
  0
LINE
  5
8BD
330
67
100
AcDbEntity
  8
AM_0
370
    30
100
AcDbLine
 10
165.580500820456
 20
33.15631972191818
 30
0.0
 11
165.380500820456
 21
33.35631972191891
 31
0.0
  0
LINE
  5
8BE
330
67
100
AcDbEntity
  8
AM_0
370
    30
100
AcDbLine
 10
165.3805008204562
 20
29.15631972191818
 30
0.0
 11
165.380500820456
 21
28.95631972191836
 31
0.0
  0
LINE
  5
8BF
330
67
100
AcDbEntity
  8
AM_0
370
    30
100
AcDbLine
 10
165.580500820456
 20
29.15631972191818
 30
0.0
 11
165.380500820456
 21
28.95631972191836
 31
0.0
  0
LINE
  5
8C0
330
67
100
AcDbEntity
  8
AM_0
370
    30
100
AcDbLine
 10
165.580500820456
 20
29.15631972191818
 30
0.0
 11
165.3805008204562
 21
29.15631972191818
 31
0.0
  0
LINE
  5
8C1
330
67
100
AcDbEntity
  8
AM_0
370
    30
100
AcDbLine
 10
165.580500820456
 20
29.15631972191818
 30
0.0
 11
165.580500820456
 21
33.15631972191818
 31
0.0
  0
LINE
  5
8C2
330
67
100
AcDbEntity
  8
AM_0
370
    30
100
AcDbLine
 10
165.3805008204562
 20
33.15631972191818
 30
0.0
 11
165.3805008204562
 21
29.15631972191818
 31
0.0
  0
LINE
  5
8C3
330
67
100
AcDbEntity
  8
AM_0
370
    30
100
AcDbLine
 10
163.780500820456
 20
28.95631972191836
 30
0.0
 11
165.380500820456
 21
28.95631972191836
 31
0.0
  0
LINE
  5
8C4
330
67
100
AcDbEntity
  8
AM_0
370
    30
100
AcDbLine
 10
165.3805008204562
 20
29.15631972191818
 30
0.0
 11
163.780500820456
 21
29.15631972191818
 31
0.0
  0
LINE
  5
8C5
330
67
100
AcDbEntity
  8
AM_0
370
    30
100
AcDbLine
 10
165.380500820456
 20
33.35631972191891
 30
0.0
 11
163.780500820456
 21
33.35631972191891
 31
0.0
  0
LINE
  5
8C6
330
67
100
AcDbEntity
  8
AM_0
370
    30
100
AcDbLine
 10
163.780500820456
 20
33.15631972191818
 30
0.0
 11
165.3805008204562
 21
33.15631972191818
 31
0.0
  0
LINE
  5
8C7
330
67
100
AcDbEntity
  8
AM_0
370
    30
100
AcDbLine
 10
163.580500820456
 20
33.15631972191818
 30
0.0
 11
163.580500820456
 21
29.15631972191818
 31
0.0
  0
LINE
  5
8C8
330
67
100
AcDbEntity
  8
AM_0
370
    30
100
AcDbLine
 10
163.780500820456
 20
29.15631972191818
 30
0.0
 11
163.780500820456
 21
33.15631972191818
 31
0.0
  0
CIRCLE
  5
8C9
330
67
100
AcDbEntity
  8
AM_0
370
    30
100
AcDbCircle
 10
153.0805008204566
 20
31.15631972191818
 30
0.0
 40
4.5
  0
CIRCLE
  5
8CA
330
67
100
AcDbEntity
  8
AM_0
370
    30
100
AcDbCircle
 10
153.0805008204557
 20
31.15631972191818
 30
0.0
 40
13.35
  0
CIRCLE
  5
8CB
330
67
100
AcDbEntity
  8
AM_0
370
    30
100
AcDbCircle
 10
153.0805008204557
 20
31.15631972191818
 30
0.0
 40
13.85
  0
CIRCLE
  5
8CC
330
67
100
AcDbEntity
  8
AM_0
370
    30
100
AcDbCircle
 10
153.0805008204571
 20
31.15631972191818
 30
0.0
 40
1.1525
  0
CIRCLE
  5
8CD
330
67
100
AcDbEntity
  8
AM_0
370
    30
100
AcDbCircle
 10
153.0805008204566
 20
31.15631972191818
 30
0.0
 40
5.0
  0
LINE
  5
8CE
330
67
100
AcDbEntity
  8
AM_7
  6
CENTERX2
370
     0
100
AcDbLine
 10
37.84999999999997
 20
31.15631972191818
 30
0.0
 11
7.150000000000005
 21
31.15631972191818
 31
0.0
  0
LINE
  5
8CF
330
67
100
AcDbEntity
  8
AM_7
  6
CENTERX2
370
     0
100
AcDbLine
 10
22.5
 20
46.50631972191809
 30
0.0
 11
22.5
 21
15.80631972191827
 31
0.0
  0
LINE
  5
8D0
330
67
100
AcDbEntity
  8
AM_7
  6
CENTERX2
370
     0
100
AcDbLine
 10
14.49999999999969
 20
34.95631972191745
 30
0.0
 11
14.49999999999969
 21
27.356319721918
 31
0.0
  0
LINE
  5
8D1
330
67
100
AcDbEntity
  8
AM_7
  6
CENTERX2
370
     0
100
AcDbLine
 10
30.49999999999972
 20
34.95631972191745
 30
0.0
 11
30.49999999999972
 21
27.356319721918
 31
0.0
  0
LINE
  5
8DB
330
67
100
AcDbEntity
  8
AM_7
  6
CENTERX2
370
     0
100
AcDbLine
 10
57.73590207943209
 20
31.15631972191954
 30
0.0
 11
114.8242413505106
 21
31.15631972191954
 31
0.0
  0
LINE
  5
8DE
330
67
100
AcDbEntity
  8
AM_0
370
    30
100
AcDbLine
 10
74.93590207943208
 20
45.65631972191818
 30
0.0
 11
74.93590207943208
 21
33.15631972191818
 31
0.0
  0
LINE
  5
8DF
330
67
100
AcDbEntity
  8
AM_0
370
    30
100
AcDbLine
 10
89.93590207943219
 20
45.65631972191818
 30
0.0
 11
89.93590207943219
 21
33.15631972191818
 31
0.0
  0
LINE
  5
8E0
330
67
100
AcDbEntity
  8
AM_0
370
    30
100
AcDbLine
 10
74.93590207943208
 20
33.15631972191818
 30
0.0
 11
89.93590207943219
 21
33.15631972191818
 31
0.0
  0
HATCH
  5
8EA
330
67
100
AcDbEntity
  8
AM_0
370
     0
100
AcDbHatch
 10
0.0
 20
0.0
 30
0.0
210
0.0
220
0.0
230
1.0
  2
ANSI37
 70
     0
 71
     0
 91
        1
 92
        7
 72
     1
 73
     1
 93
        8
 10
145.1087746185865
 20
37.48405463086579
 42
0.050125628933983
 10
145.1087746185865
 20
37.7340546308676
 42
0.3566822415948021
 10
143.9900403222033
 20
38.85278892724978
 42
0.0501256289337948
 10
143.7400403222033
 20
38.85278892724978
 42
0.3566822415949016
 10
142.6213060258201
 20
37.7340546308676
 42
0.0501256289339827
 10
142.62130602582
 20
37.48405463086579
 42
0.3566822415948372
 10
143.7400403222033
 20
36.36532033448361
 42
0.0501256289337721
 10
143.9900403222032
 20
36.36532033448361
 42
0.3566822415947375
 97
        0
 75
     0
 76
     1
 52
0.0
 41
0.1
 77
     0
 78
     2
 53
45.0
 43
-118.1512606656774
 44
-4349.051571342455
 45
-0.2245064030267288
 46
0.2245064030267288
 79
     0
 53
135.0
 43
-118.1512606656774
 44
-4349.051571342455
 45
-0.2245064030267288
 46
-0.2245064030267288
 79
     0
 47
0.0247845378438473
 98
        1
 10
144.0253641910805
 20
37.29838464102864
1001
ACAD
1010
0.0
1020
0.0
1030
0.0
  0
LINE
  5
8EB
330
67
100
AcDbEntity
  8
AM_7
  6
CENTERX2
370
     0
100
AcDbLine
 10
168.4305008204571
 20
31.15631972191818
 30
0.0
 11
137.7305008204571
 21
31.15631972191818
 31
0.0
  0
LINE
  5
8EC
330
67
100
AcDbEntity
  8
AM_7
  6
CENTERX2
370
     0
100
AcDbLine
 10
153.0805008204571
 20
46.50631972191809
 30
0.0
 11
153.0805008204571
 21
15.80631972191827
 31
0.0
  0
DIMENSION
  5
A44
330
67
100
AcDbEntity
  8
AM_5
100
AcDbDimension
  2
*D46
 10
30.49999999999972
 20
9.30631871191818
 30
0.0
 11
22.4999999999997
 21
11.92566055207936
 31
0.0
 70
    32
 71
     5
 42
16.00000000000003
  3
AM_JIS$0
100
AcDbAlignedDimension
 13
14.49999999999969
 23
27.356319721918
 33
0.0
 14
30.49999999999972
 24
27.356319721918
 34
0.0
100
AcDbRotatedDimension
1001
ACAD_DSTYLE_DIMINSPECT
1070
   396
1000
100%
1070
   395
1000

1070
   394
1070
    33
1070
   393
1070
     0
1001
ACAD
1000
DSTYLE
1002
{
1070
   144
1040
1.0
1070
    40
1040
1.0
1002
}
  0
DIMENSION
  5
A6F
330
67
100
AcDbEntity
  8
AM_5
100
AcDbDimension
  2
*D47
 10
52.55110527273507
 20
32.30881972191833
 30
0.0
 11
49.9282375762945
 21
45.36761757282499
 31
0.0
 70
    32
  1
%%c<>
 71
     5
 42
2.304999999999381
  3
AM_JIS$0
100
AcDbAlignedDimension
 13
59.43590207943214
 23
30.00381972191894
 33
0.0
 14
59.43590207943214
 24
32.30881972191833
 34
0.0
 50
90.00000000000005
100
AcDbRotatedDimension
1001
ACAD_DSTYLE_DIMINSPECT
1070
   396
1000
100%
1070
   395
1000

1070
   394
1070
    33
1070
   393
1070
     0
1001
ACAD
1000
DSTYLE
1002
{
1070
   144
1040
1.0
1070
    40
1040
1.0
1002
}
  0
DIMENSION
  5
A72
330
67
100
AcDbEntity
  8
AM_5
100
AcDbDimension
  2
*D48
 10
47.21278799224318
 20
36.15631972192001
 30
0.0
 11
44.59109558122907
 21
31.15631972192001
 31
0.0
 70
    32
  1
%%c<>
 71
     5
 42
10.0
  3
AM_JIS$0
100
AcDbAlignedDimension
 13
65.23590207943209
 23
26.15631972192
 33
0.0
 14
65.23590207943209
 24
36.15631972192
 34
0.0
 50
90.00000000000005
100
AcDbRotatedDimension
1001
ACAD_DSTYLE_DIMINSPECT
1070
   396
1000
100%
1070
   395
1000

1070
   394
1070
    33
1070
   393
1070
     0
1001
ACAD
1000
DSTYLE
1002
{
1070
   144
1040
1.0
1070
    40
1040
1.0
1002
}
  0
DIMENSION
  5
A75
330
67
100
AcDbEntity
  8
AM_5
100
AcDbDimension
  2
*D49
 10
65.23590207943209
 20
64.99429178802325
 30
0.0
 11
53.28395875002115
 21
64.99429178802325
 31
0.0
 70
   160
 71
     5
 42
2.600000000000022
  3
AM_JIS$0
100
AcDbAlignedDimension
 13
67.83590207943212
 23
44.00631972191854
 33
0.0
 14
65.23590207943209
 24
36.15631972192
 34
0.0
100
AcDbRotatedDimension
1001
ACAD_DSTYLE_DIMINSPECT
1070
   396
1000
100%
1070
   395
1000

1070
   394
1070
    33
1070
   393
1070
     0
1001
ACAD
1000
DSTYLE
1002
{
1070
   144
1040
1.0
1070
    40
1040
1.0
1002
}
  0
DIMENSION
  5
A78
330
67
100
AcDbEntity
  8
AM_5
100
AcDbDimension
  2
*D50
 10
59.23590207943213
 20
71.63624013091885
 30
0.0
 11
63.53590207943213
 21
74.26615953991817
 31
0.0
 70
    32
 71
     5
 42
8.59999999999998
  3
AM_JIS$0
100
AcDbAlignedDimension
 13
67.83590207943212
 23
44.00631972191854
 33
0.0
 14
59.23590207943213
 24
32.10881972191851
 34
0.0
100
AcDbRotatedDimension
1001
ACAD_DSTYLE_DIMINSPECT
1070
   396
1000
100%
1070
   395
1000

1070
   394
1070
    33
1070
   393
1070
     0
1001
ACAD
1000
DSTYLE
1002
{
1070
   144
1040
1.0
1070
    40
1040
1.0
1002
}
  0
DIMENSION
  5
A7B
330
67
100
AcDbEntity
  8
AM_5
100
AcDbDimension
  2
*D51
 10
105.6359020794322
 20
71.63624013091885
 30
0.0
 11
86.73590207943215
 21
74.26615953991817
 31
0.0
 70
    32
 71
     5
 42
37.80000000000007
  3
AM_JIS$0
100
AcDbAlignedDimension
 13
67.83590207943212
 23
44.00631972191854
 33
0.0
 14
105.6359020794322
 24
40.3563197219189
 34
0.0
100
AcDbRotatedDimension
1001
ACAD_DSTYLE_DIMINSPECT
1070
   396
1000
100%
1070
   395
1000

1070
   394
1070
    33
1070
   393
1070
     0
1001
ACAD
1000
DSTYLE
1002
{
1070
   144
1040
1.0
1070
    40
1040
1.0
1002
}
  0
DIMENSION
  5
A7E
330
67
100
AcDbEntity
  8
AM_5
100
AcDbDimension
  2
*D52
 10
110.2359020794321
 20
71.63624013091885
 30
0.0
 11
120.9815031539787
 21
74.74920185019353
 31
0.0
 70
    32
  1
(<>)
 71
     5
 42
4.599999999999909
  3
AM_JIS$0
100
AcDbAlignedDimension
 13
105.6359020794322
 23
40.3563197219189
 33
0.0
 14
110.2359020794321
 24
31.90631972191818
 34
0.0
100
AcDbRotatedDimension
1001
ACAD_DSTYLE_DIMINSPECT
1070
   396
1000
100%
1070
   395
1000

1070
   394
1070
    33
1070
   393
1070
     0
1001
ACAD
1000
DSTYLE
1002
{
1070
   144
1040
1.0
1070
    40
1040
1.0
1002
}
  0
DIMENSION
  5
A81
330
67
100
AcDbEntity
  8
AM_5
100
AcDbDimension
  2
*D53
 10
121.0089029625021
 20
36.15631972191817
 30
0.0
 11
118.387210551488
 21
31.15631972191819
 31
0.0
 70
    32
  1
%%c<>
 71
     5
 42
9.999999999999996
  3
AM_JIS$0
100
AcDbAlignedDimension
 13
108.2359020794321
 23
26.15631972191818
 33
0.0
 14
108.2359020794321
 24
36.15631972191818
 34
0.0
 50
90.00000000000005
100
AcDbRotatedDimension
1001
ACAD_DSTYLE_DIMINSPECT
1070
   396
1000
100%
1070
   395
1000

1070
   394
1070
    33
1070
   393
1070
     0
1001
ACAD
1000
DSTYLE
1002
{
1070
   144
1040
1.0
1070
    40
1040
1.0
1002
}
  0
DIMENSION
  5
A84
330
67
100
AcDbEntity
  8
AM_5
100
AcDbDimension
  2
*D54
 10
128.4735103713572
 20
45.00631972191853
 30
0.0
 11
125.8870765231369
 21
31.15631972191911
 31
0.0
 70
    32
  1
%%c<>
 71
     5
 42
27.69999999999891
  3
AM_JIS$0
100
AcDbAlignedDimension
 13
105.3359020794321
 23
17.30631972191963
 33
0.0
 14
105.3359020794321
 24
45.00631972191854
 34
0.0
 50
90.00000000000005
100
AcDbRotatedDimension
1001
ACAD_DSTYLE_DIMINSPECT
1070
   396
1000
100%
1070
   395
1000

1070
   394
1070
    33
1070
   393
1070
     0
1001
ACAD
1000
DSTYLE
1002
{
1070
   144
1040
1.0
1070
    40
1040
1.0
1002
}
  0
DIMENSION
  5
A87
330
67
100
AcDbEntity
  8
AM_5
100
AcDbDimension
  2
*D55
 10
105.6359020794321
 20
64.99429178802325
 30
0.0
 11
94.89030100488545
 21
68.10725350729793
 31
0.0
 70
    32
  1
(<>)
 71
     5
 42
2.59999999999998
  3
AM_JIS$0
100
AcDbAlignedDimension
 13
108.2359020794321
 23
36.15631972192
 33
0.0
 14
105.6359020794321
 24
40.3563197219189
 34
0.0
100
AcDbRotatedDimension
1001
ACAD_DSTYLE_DIMINSPECT
1070
   396
1000
100%
1070
   395
1000

1070
   394
1070
    33
1070
   393
1070
     0
1001
ACAD
1000
DSTYLE
1002
{
1070
   144
1040
1.0
1070
    40
1040
1.0
1002
}
  0
DIMENSION
  5
C3A
102
{ACAD_XDICTIONARY
360
C49
102
}
102
{ACAD_REACTORS
330
C4A
102
}
330
67
100
AcDbEntity
  8
AM_5
100
AcDbDimension
  2
*D56
 10
72.43590207943213
 20
59.24926689636459
 30
0.0
 11
53.22541246269224
 21
59.24926689636459
 31
0.0
 70
   160
 71
     5
 42
4.600000000000022
  3
AM_JIS$0
100
AcDbAlignedDimension
 13
67.83590207943212
 23
44.00631972191854
 33
0.0
 14
72.43590207943213
 24
45.75631972191854
 34
0.0
100
AcDbRotatedDimension
1001
ACAD
1000
DSTYLE
1002
{
1070
    47
1040
0.0
1070
    48
1040
0.0
1002
}
1001
ACAD_DSTYLE_DIMINSPECT
1070
   396
1000
100%
1070
   395
1000

1070
   394
1070
    33
1070
   393
1070
     0
  0
DIMENSION
  5
E13
330
67
100
AcDbEntity
  8
AM_5
100
AcDbDimension
  2
*D60
 10
105.6359020794322
 20
4.955330948791413
 30
0.0
 11
97.39030100488557
 21
8.068292668066094
 31
0.0
 70
    32
  1
(<>)
 71
     5
 42
6.899999999999991
  3
AM_JIS$0
100
AcDbAlignedDimension
 13
112.5359020794322
 23
30.50631972191855
 33
0.0
 14
105.6359020794322
 24
21.95631972191836
 34
0.0
100
AcDbRotatedDimension
1001
ACAD_DSTYLE_DIMINSPECT
1070
   396
1000
100%
1070
   395
1000

1070
   394
1070
    33
1070
   393
1070
     0
1001
ACAD
1000
DSTYLE
1002
{
1070
   144
1040
1.0
1070
    40
1040
1.0
1002
}
  0
DIMENSION
  5
E2D
330
67
100
AcDbEntity
  8
AM_5
100
AcDbDimension
  2
*D61
 10
92.43590207943213
 20
59.24926689636459
 30
0.0
 11
82.43590207943213
 21
61.87213459280515
 31
0.0
 70
    32
 71
     5
 42
20.0
  3
AM_JIS$0
100
AcDbAlignedDimension
 13
72.43590207943213
 23
45.65631972191818
 33
0.0
 14
92.43590207943213
 24
45.75631972191854
 34
0.0
100
AcDbRotatedDimension
1001
ACAD
1000
DSTYLE
1002
{
1070
    47
1040
0.0
1070
    48
1040
0.0
1002
}
1001
ACAD_DSTYLE_DIMINSPECT
1070
   396
1000
100%
1070
   395
1000

1070
   394
1070
    33
1070
   393
1070
     0
  0
INSERT
  5
EBE
330
67
100
AcDbEntity
  8
AM_5
100
AcDbBlockReference
  2
*S67
 10
0.0
 20
0.0
 30
0.0
  0
INSERT
  5
ECB
330
67
100
AcDbEntity
  8
AM_5
100
AcDbBlockReference
  2
*S68
 10
0.0
 20
0.0
 30
0.0
  0
INSERT
  5
ECC
330
67
100
AcDbEntity
  8
AM_5
100
AcDbBlockReference
  2
*S69
 10
0.0
 20
0.0
 30
0.0
  0
INSERT
  5
ECD
330
67
100
AcDbEntity
  8
AM_5
100
AcDbBlockReference
  2
*S70
 10
0.0
 20
0.0
 30
0.0
  0
ENDSEC
  0
SECTION
  2
OBJECTS
  0
DICTIONARY
  5
C
330
0
100
AcDbDictionary
281
     1
  3
ACAD_2007HEADERVARS_RT
350
FE9
  3
ACAD_COLOR
350
5E
  3
ACAD_GROUP
350
D
  3
ACAD_LAYOUT
350
5D
  3
ACAD_MATERIAL
350
10
  3
ACAD_MLEADERSTYLE
350
61
  3
ACAD_MLINESTYLE
350
5A
  3
ACAD_PLOTSETTINGS
350
5C
  3
ACAD_PLOTSTYLENAME
350
E
  3
ACAD_SCALELIST
350
3D
  3
ACAD_TABLESTYLE
350
5F
  3
ACAD_VISUALSTYLE
350
29
  3
ACDB_RECOMPOSE_DATA
350
FE7
  3
AcDbVariableDictionary
350
4E8
  3
AcmDictionary
350
546
  3
AMG
350
4FE
  3
AMGSNAPSETTINGS
350
5B1
  3
DWGPROPS
350
FE8
  0
DICTIONARY
  5
782
330
2
100
AcDbDictionary
280
     1
281
     1
  3
ACAD_LAYERSTATES
360
783
  0
DICTIONARY
  5
5AD
330
4F
100
AcDbDictionary
280
     1
281
     1
  3
ADSK_XREC_LAYER_RECONCILED
360
5AE
  0
DICTIONARY
  5
C9
330
C8
100
AcDbDictionary
280
     1
281
     1
  3
ADSK_XREC_LAYER_RECONCILED
360
CA
  0
DICTIONARY
  5
D2
330
D1
100
AcDbDictionary
280
     1
281
     1
  3
ADSK_XREC_LAYER_RECONCILED
360
D3
  0
DICTIONARY
  5
F1
330
F0
100
AcDbDictionary
280
     1
281
     1
  3
ADSK_XREC_LAYER_RECONCILED
360
F2
  0
DICTIONARY
  5
188
330
187
100
AcDbDictionary
280
     1
281
     1
  3
ADSK_XREC_LAYER_RECONCILED
360
189
  0
DICTIONARY
  5
5AF
330
248
100
AcDbDictionary
280
     1
281
     1
  3
ADSK_XREC_LAYER_RECONCILED
360
5B0
  0
DICTIONARY
  5
E7D
330
E7C
100
AcDbDictionary
280
     1
281
     1
  0
DICTIONARY
  5
E7F
330
E7E
100
AcDbDictionary
280
     1
281
     1
  0
DICTIONARY
  5
47B
330
67
100
AcDbDictionary
280
     1
281
     1
  3
ACAD_SORTENTS
360
47C
  0
DICTIONARY
  5
1024
330
FC3
100
AcDbDictionary
280
     1
281
     1
  3
ACAD_MTEXT_RT
360
1025
  0
DICTIONARY
  5
1026
330
FCE
100
AcDbDictionary
280
     1
281
     1
  3
ACAD_MTEXT_RT
360
1027
  0
DICTIONARY
  5
1028
330
FD8
100
AcDbDictionary
280
     1
281
     1
  3
ACAD_MTEXT_RT
360
1029
  0
DICTIONARY
  5
102A
330
FE1
100
AcDbDictionary
280
     1
281
     1
  3
ACAD_MTEXT_RT
360
102B
  0
DICTIONARY
  5
C49
330
C3A
100
AcDbDictionary
280
     1
281
     1
  3
ACAD_DIMASSOC
360
C4A
  0
DICTIONARY
  5
FE9
102
{ACAD_REACTORS
330
C
102
}
330
C
100
AcDbDictionary
281
     1
  3
DIMARCSYM
350
FEA
  3
DIMLTEX1
350
FEC
  3
DIMLTEX2
350
FED
  3
DIMLTYPE
350
FEB
  0
DICTIONARY
  5
5E
102
{ACAD_REACTORS
330
C
102
}
330
C
100
AcDbDictionary
281
     1
  0
DICTIONARY
  5
D
102
{ACAD_REACTORS
330
C
102
}
330
C
100
AcDbDictionary
281
     1
  0
DICTIONARY
  5
5D
102
{ACAD_REACTORS
330
C
102
}
330
C
100
AcDbDictionary
281
     1
  3
Model
350
6A
  3
レイアウト1
350
66
  3
レイアウト2
350
6E
  0
DICTIONARY
  5
10
102
{ACAD_REACTORS
330
C
102
}
330
C
100
AcDbDictionary
281
     1
  3
ByBlock
350
19
  3
ByLayer
350
11
  3
Global
350
21
  0
DICTIONARY
  5
61
102
{ACAD_REACTORS
330
C
102
}
330
C
100
AcDbDictionary
281
     1
  3
Standard
350
62
  0
DICTIONARY
  5
5A
102
{ACAD_REACTORS
330
C
102
}
330
C
100
AcDbDictionary
281
     1
  3
Standard
350
5B
  0
DICTIONARY
  5
5C
102
{ACAD_REACTORS
330
C
102
}
330
C
100
AcDbDictionary
281
     1
  0
ACDBDICTIONARYWDFLT
  5
E
102
{ACAD_REACTORS
330
C
102
}
330
C
100
AcDbDictionary
281
     1
  3
Normal
350
F
100
AcDbDictionaryWithDefault
340
F
  0
DICTIONARY
  5
3D
102
{ACAD_REACTORS
330
C
102
}
330
C
100
AcDbDictionary
281
     1
  3
*A1
350
B5
  3
*A10
350
BD
  3
*A11
350
BE
  3
*A12
350
BF
  3
*A13
350
C0
  3
*A14
350
C1
  3
*A15
350
C2
  3
*A16
350
C3
  3
*A17
350
C4
  3
*A18
350
C5
  3
*A2
350
C6
  3
*A3
350
B6
  3
*A4
350
B7
  3
*A5
350
B8
  3
*A6
350
B9
  3
*A7
350
BA
  3
*A8
350
BB
  3
*A9
350
BC
  3
A0
350
3E
  3
A1
350
3F
  3
A2
350
40
  3
A3
350
41
  3
A4
350
42
  3
A5
350
43
  3
A6
350
44
  3
A7
350
45
  3
A8
350
46
  3
A9
350
47
  3
B0
350
48
  3
B1
350
49
  3
B2
350
4A
  3
B3
350
4B
  3
B4
350
4C
  3
B5
350
4D
  3
B6
350
4E
  0
DICTIONARY
  5
5F
102
{ACAD_REACTORS
330
C
102
}
330
C
100
AcDbDictionary
281
     1
  3
Standard
350
60
  0
DICTIONARY
  5
29
102
{ACAD_REACTORS
330
C
102
}
330
C
100
AcDbDictionary
281
     1
  3
2dWireframe
350
2F
  3
3D Hidden
350
31
  3
3dWireframe
350
30
  3
Basic
350
2E
  3
Brighten
350
35
  3
ColorChange
350
39
  3
Conceptual
350
32
  3
Dim
350
34
  3
EdgeColorOff
350
3C
  3
Facepattern
350
38
  3
Flat
350
2A
  3
FlatWithEdges
350
2B
  3
Gouraud
350
2C
  3
GouraudWithEdges
350
2D
  3
JitterOff
350
3A
  3
Linepattern
350
37
  3
OverhangOff
350
3B
  3
Realistic
350
33
  3
Thicken
350
36
  0
XRECORD
  5
FE7
102
{ACAD_REACTORS
330
C
102
}
330
C
100
AcDbXrecord
280
     1
 90
        1
330
60
  0
DICTIONARY
  5
4E8
102
{ACAD_REACTORS
330
C
102
}
330
C
100
AcDbDictionary
281
     1
  3
ANNOALLVISIBLE
350
4EC
  3
CANNOSCALE
350
4ED
  3
CMLEADERSTYLE
350
4EA
  3
CTABLESTYLE
350
4E9
  3
DIMASSOC
350
5BC
  3
HIDETEXT
350
5BA
  3
INDEXCTL
350
5B9
  3
LAYEREVAL
350
4EF
  3
LAYERNOTIFY
350
4F0
  3
LIGHTINGUNITS
350
4EE
  3
MSLTSCALE
350
4EB
  3
SORTENTS
350
5B8
  3
XCLIPFRAME
350
FE5
  0
DICTIONARY
  5
546
102
{ACAD_REACTORS
330
C
102
}
330
C
100
AcDbDictionary
281
     1
  3
AcmStdDictionary
350
553
  0
DICTIONARY
  5
4FE
102
{ACAD_REACTORS
330
C
102
}
330
C
100
AcDbDictionary
281
     1
  0
DICTIONARY
  5
5B1
102
{ACAD_REACTORS
330
C
102
}
330
C
100
AcDbDictionary
281
     1
  0
XRECORD
  5
FE8
102
{ACAD_REACTORS
330
C
102
}
330
C
100
AcDbXrecord
280
     1
  1
DWGPROPS COOKIE
  2

  3

  4

  6

  7

  8
Administrator
  9

300
AmdtFileType=84
301
=
302
=
303
=
304
=
305
=
306
=
307
=
308
=
309
=
 40
0.0290556481481482
 41
2456512.452534086
 42
2457683.608166054
  1

 90
        1
  0
DICTIONARY
  5
783
102
{ACAD_REACTORS
330
782
102
}
330
782
100
AcDbDictionary
281
     1
  0
XRECORD
  5
5AE
102
{ACAD_REACTORS
330
5AD
102
}
330
5AD
100
AcDbXrecord
280
     1
290
     1
  0
XRECORD
  5
CA
102
{ACAD_REACTORS
330
C9
102
}
330
C9
100
AcDbXrecord
280
     1
290
     1
  0
XRECORD
  5
D3
102
{ACAD_REACTORS
330
D2
102
}
330
D2
100
AcDbXrecord
280
     1
290
     1
  0
XRECORD
  5
F2
102
{ACAD_REACTORS
330
F1
102
}
330
F1
100
AcDbXrecord
280
     1
290
     1
  0
XRECORD
  5
189
102
{ACAD_REACTORS
330
188
102
}
330
188
100
AcDbXrecord
280
     1
290
     1
  0
XRECORD
  5
5B0
102
{ACAD_REACTORS
330
5AF
102
}
330
5AF
100
AcDbXrecord
280
     1
290
     1
  0
SORTENTSTABLE
  5
47C
102
{ACAD_REACTORS
330
47B
102
}
330
47B
100
AcDbSortentsTable
330
67
  0
XRECORD
  5
1025
102
{ACAD_REACTORS
330
1024
102
}
330
1024
100
AcDbXrecord
280
     1
 40
43376.0
  1
2-M2.6\P有効深さ3
  0
XRECORD
  5
1027
102
{ACAD_REACTORS
330
1026
102
}
330
1026
100
AcDbXrecord
280
     1
 40
7469.0
  1
+端子
  0
XRECORD
  5
1029
102
{ACAD_REACTORS
330
1028
102
}
330
1028
100
AcDbXrecord
280
     1
 40
25695.0
  1
入力端子
  0
XRECORD
  5
102B
102
{ACAD_REACTORS
330
102A
102
}
330
102A
100
AcDbXrecord
280
     1
 40
25527.0
  1
定格銘板
  0
DIMASSOC
  5
C4A
102
{ACAD_REACTORS
330
C49
102
}
330
C49
100
AcDbDimAssoc
330
C3A
 90
        2
 70
     0
 71
     0
  1
AcDbOsnapPointRef
 72
    13
331
840
 73
     0
 91
        0
 40
0.0
 10
0.0
 20
0.0
 30
2.000000000000000E+50
 75
     0
  0
XRECORD
  5
FEA
102
{ACAD_REACTORS
330
FE9
102
}
330
FE9
100
AcDbXrecord
280
     1
 70
     1
  0
XRECORD
  5
FEC
102
{ACAD_REACTORS
330
FE9
102
}
330
FE9
100
AcDbXrecord
280
     1
340
56
  0
XRECORD
  5
FED
102
{ACAD_REACTORS
330
FE9
102
}
330
FE9
100
AcDbXrecord
280
     1
340
56
  0
XRECORD
  5
FEB
102
{ACAD_REACTORS
330
FE9
102
}
330
FE9
100
AcDbXrecord
280
     1
340
56
  0
LAYOUT
  5
6A
102
{ACAD_XDICTIONARY
360
1017
102
}
102
{ACAD_REACTORS
330
5D
102
}
330
5D
100
AcDbPlotSettings
  1

  2
KONICA MINOLTA 350_250_200 PCL.pc3
  4
A4
  6

 40
5.027082920074462
 41
5.027085781097412
 42
5.027069091796875
 43
5.027069091796875
 44
209.9733276367186
 45
296.9259948730469
 46
0.0
 47
0.0
 48
0.0
 49
0.0
140
0.0
141
0.0
142
1.0
143
0.612455418002166
 70
 11952
 72
     1
 73
     1
 74
     0
  7

 75
     0
147
1.632771905687449
148
0.344053081927882
149
6.232938787615998
100
AcDbLayout
  1
Model
 70
     1
 71
     0
 10
0.0
 20
0.0
 11
12.0
 21
9.0
 12
0.0
 22
0.0
 32
0.0
 14
0.0
 24
0.0
 34
0.0
 15
0.0
 25
0.0
 35
0.0
146
0.0
 13
0.0
 23
0.0
 33
0.0
 16
1.0
 26
0.0
 36
0.0
 17
0.0
 27
1.0
 37
0.0
 76
     0
330
67
331
52
1001
ACAD_PSEXT
1000
KONICA MINOLTA 350_250_200 PCL.pc3
1000
KONICA MINOLTA 350/250/200 PCL
1000
IP_192.168.3.100
1000

1070
     0
  0
LAYOUT
  5
66
102
{ACAD_XDICTIONARY
360
1015
102
}
102
{ACAD_REACTORS
330
5D
102
}
330
5D
100
AcDbPlotSettings
  1

  2
KONICA MINOLTA 350/250/200 PCL
  4

  6

 40
0.0
 41
0.0
 42
0.0
 43
0.0
 44
0.0
 45
0.0
 46
0.0
 47
0.0
 48
0.0
 49
0.0
140
0.0
141
0.0
142
1.0
143
1.0
 70
   688
 72
     0
 73
     0
 74
     5
  7

 75
    16
147
1.0
148
0.0
149
0.0
100
AcDbLayout
  1
レイアウト1
 70
     1
 71
     1
 10
0.0
 20
0.0
 11
12.0
 21
9.0
 12
0.0
 22
0.0
 32
0.0
 14
1.000000000000000E+20
 24
1.000000000000000E+20
 34
1.000000000000000E+20
 15
-1.000000000000000E+20
 25
-1.000000000000000E+20
 35
-1.000000000000000E+20
146
0.0
 13
0.0
 23
0.0
 33
0.0
 16
1.0
 26
0.0
 36
0.0
 17
0.0
 27
1.0
 37
0.0
 76
     0
330
63
  0
LAYOUT
  5
6E
102
{ACAD_XDICTIONARY
360
1019
102
}
102
{ACAD_REACTORS
330
5D
102
}
330
5D
100
AcDbPlotSettings
  1

  2
KONICA MINOLTA 350/250/200 PCL
  4

  6

 40
0.0
 41
0.0
 42
0.0
 43
0.0
 44
0.0
 45
0.0
 46
0.0
 47
0.0
 48
0.0
 49
0.0
140
0.0
141
0.0
142
1.0
143
1.0
 70
   688
 72
     0
 73
     0
 74
     5
  7

 75
    16
147
1.0
148
0.0
149
0.0
100
AcDbLayout
  1
レイアウト2
 70
     1
 71
     2
 10
0.0
 20
0.0
 11
12.0
 21
9.0
 12
0.0
 22
0.0
 32
0.0
 14
0.0
 24
0.0
 34
0.0
 15
0.0
 25
0.0
 35
0.0
146
0.0
 13
0.0
 23
0.0
 33
0.0
 16
1.0
 26
0.0
 36
0.0
 17
0.0
 27
1.0
 37
0.0
 76
     0
330
6B
  0
MATERIAL
  5
19
102
{ACAD_XDICTIONARY
360
1A
102
}
102
{ACAD_REACTORS
330
10
102
}
330
10
100
AcDbMaterial
  1
ByBlock
 72
     0
 43
0.0208333333333333
 43
0.0
 43
0.0
 43
0.0
 43
0.0
 43
0.0208333333333333
 43
0.0
 43
0.0
 43
0.0
 43
0.0
 43
1.0
 43
0.0
 43
0.0
 43
0.0
 43
0.0
 43
1.0
 77
     0
 47
0.0208333333333333
 47
0.0
 47
0.0
 47
0.0
 47
0.0
 47
0.0208333333333333
 47
0.0
 47
0.0
 47
0.0
 47
0.0
 47
1.0
 47
0.0
 47
0.0
 47
0.0
 47
0.0
 47
1.0
171
     0
 49
0.0208333333333333
 49
0.0
 49
0.0
 49
0.0
 49
0.0
 49
0.0208333333333333
 49
0.0
 49
0.0
 49
0.0
 49
0.0
 49
1.0
 49
0.0
 49
0.0
 49
0.0
 49
0.0
 49
1.0
175
     0
142
0.0208333333333333
142
0.0
142
0.0
142
0.0
142
0.0
142
0.0208333333333333
142
0.0
142
0.0
142
0.0
142
0.0
142
1.0
142
0.0
142
0.0
142
0.0
142
0.0
142
1.0
179
     0
144
0.0208333333333333
144
0.0
144
0.0
144
0.0
144
0.0
144
0.0208333333333333
144
0.0
144
0.0
144
0.0
144
0.0
144
1.0
144
0.0
144
0.0
144
0.0
144
0.0
144
1.0
147
0.0208333333333333
147
0.0
147
0.0
147
0.0
147
0.0
147
0.0208333333333333
147
0.0
147
0.0
147
0.0
147
0.0
147
1.0
147
0.0
147
0.0
147
0.0
147
0.0
147
1.0
  0
MATERIAL
  5
11
102
{ACAD_XDICTIONARY
360
12
102
}
102
{ACAD_REACTORS
330
10
102
}
330
10
100
AcDbMaterial
  1
ByLayer
 72
     0
 43
0.0208333333333333
 43
0.0
 43
0.0
 43
0.0
 43
0.0
 43
0.0208333333333333
 43
0.0
 43
0.0
 43
0.0
 43
0.0
 43
1.0
 43
0.0
 43
0.0
 43
0.0
 43
0.0
 43
1.0
 77
     0
 47
0.0208333333333333
 47
0.0
 47
0.0
 47
0.0
 47
0.0
 47
0.0208333333333333
 47
0.0
 47
0.0
 47
0.0
 47
0.0
 47
1.0
 47
0.0
 47
0.0
 47
0.0
 47
0.0
 47
1.0
171
     0
 49
0.0208333333333333
 49
0.0
 49
0.0
 49
0.0
 49
0.0
 49
0.0208333333333333
 49
0.0
 49
0.0
 49
0.0
 49
0.0
 49
1.0
 49
0.0
 49
0.0
 49
0.0
 49
0.0
 49
1.0
175
     0
142
0.0208333333333333
142
0.0
142
0.0
142
0.0
142
0.0
142
0.0208333333333333
142
0.0
142
0.0
142
0.0
142
0.0
142
1.0
142
0.0
142
0.0
142
0.0
142
0.0
142
1.0
179
     0
144
0.0208333333333333
144
0.0
144
0.0
144
0.0
144
0.0
144
0.0208333333333333
144
0.0
144
0.0
144
0.0
144
0.0
144
1.0
144
0.0
144
0.0
144
0.0
144
0.0
144
1.0
147
0.0208333333333333
147
0.0
147
0.0
147
0.0
147
0.0
147
0.0208333333333333
147
0.0
147
0.0
147
0.0
147
0.0
147
1.0
147
0.0
147
0.0
147
0.0
147
0.0
147
1.0
  0
MATERIAL
  5
21
102
{ACAD_XDICTIONARY
360
22
102
}
102
{ACAD_REACTORS
330
10
102
}
330
10
100
AcDbMaterial
  1
Global
 72
     0
 43
0.0208333333333333
 43
0.0
 43
0.0
 43
0.0
 43
0.0
 43
0.0208333333333333
 43
0.0
 43
0.0
 43
0.0
 43
0.0
 43
1.0
 43
0.0
 43
0.0
 43
0.0
 43
0.0
 43
1.0
 77
     0
 47
0.0208333333333333
 47
0.0
 47
0.0
 47
0.0
 47
0.0
 47
0.0208333333333333
 47
0.0
 47
0.0
 47
0.0
 47
0.0
 47
1.0
 47
0.0
 47
0.0
 47
0.0
 47
0.0
 47
1.0
171
     0
 49
0.0208333333333333
 49
0.0
 49
0.0
 49
0.0
 49
0.0
 49
0.0208333333333333
 49
0.0
 49
0.0
 49
0.0
 49
0.0
 49
1.0
 49
0.0
 49
0.0
 49
0.0
 49
0.0
 49
1.0
175
     0
142
0.0208333333333333
142
0.0
142
0.0
142
0.0
142
0.0
142
0.0208333333333333
142
0.0
142
0.0
142
0.0
142
0.0
142
1.0
142
0.0
142
0.0
142
0.0
142
0.0
142
1.0
179
     0
144
0.0208333333333333
144
0.0
144
0.0
144
0.0
144
0.0
144
0.0208333333333333
144
0.0
144
0.0
144
0.0
144
0.0
144
1.0
144
0.0
144
0.0
144
0.0
144
0.0
144
1.0
147
0.0208333333333333
147
0.0
147
0.0
147
0.0
147
0.0
147
0.0208333333333333
147
0.0
147
0.0
147
0.0
147
0.0
147
1.0
147
0.0
147
0.0
147
0.0
147
0.0
147
1.0
  0
MLEADERSTYLE
  5
62
102
{ACAD_REACTORS
330
61
102
}
330
61
100
AcDbMLeaderStyle
170
     2
171
     1
172
     0
 90
        2
 40
0.0
 41
0.0
173
     1
 91
-1056964608
340
56
 92
       -2
290
     1
 42
0.09
291
     1
 43
0.36
  3
Standard
 44
0.18
300

342
50
174
     1
178
     6
175
     1
176
     0
 93
-1056964608
 45
0.18
292
     0
297
     0
 46
0.18
 94
-1056964608
 47
1.0
 49
1.0
140
1.0
293
     1
141
0.0
294
     1
177
     0
142
1.0
295
     0
296
     0
143
0.125
1001
ACAD_MLEADERVER
1070
     2
  0
MLINESTYLE
  5
5B
102
{ACAD_REACTORS
330
5A
102
}
330
5A
100
AcDbMlineStyle
  2
STANDARD
 70
     0
  3

 62
   256
 51
90.0
 52
90.0
 71
     2
 49
0.5
 62
   256
  6
BYLAYER
 49
-0.5
 62
   256
  6
BYLAYER
  0
ACDBPLACEHOLDER
  5
F
102
{ACAD_REACTORS
330
E
102
}
330
E
  0
SCALE
  5
B5
102
{ACAD_REACTORS
330
3D
102
}
330
3D
100
AcDbScale
 70
     0
300
1.5:1
140
1.5
141
1.0
290
     0
  0
SCALE
  5
BD
102
{ACAD_REACTORS
330
3D
102
}
330
3D
100
AcDbScale
 70
     0
300
3/16" = 1'-0"
140
0.1875
141
12.0
290
     0
  0
SCALE
  5
BE
102
{ACAD_REACTORS
330
3D
102
}
330
3D
100
AcDbScale
 70
     0
300
1/4" = 1'-0"
140
0.25
141
12.0
290
     0
  0
SCALE
  5
BF
102
{ACAD_REACTORS
330
3D
102
}
330
3D
100
AcDbScale
 70
     0
300
3/8" = 1'-0"
140
0.375
141
12.0
290
     0
  0
SCALE
  5
C0
102
{ACAD_REACTORS
330
3D
102
}
330
3D
100
AcDbScale
 70
     0
300
1/2" = 1'-0"
140
0.5
141
12.0
290
     0
  0
SCALE
  5
C1
102
{ACAD_REACTORS
330
3D
102
}
330
3D
100
AcDbScale
 70
     0
300
3/4" = 1'-0"
140
0.75
141
12.0
290
     0
  0
SCALE
  5
C2
102
{ACAD_REACTORS
330
3D
102
}
330
3D
100
AcDbScale
 70
     0
300
1" = 1'-0"
140
1.0
141
12.0
290
     0
  0
SCALE
  5
C3
102
{ACAD_REACTORS
330
3D
102
}
330
3D
100
AcDbScale
 70
     0
300
1-1/2" = 1'-0"
140
1.5
141
12.0
290
     0
  0
SCALE
  5
C4
102
{ACAD_REACTORS
330
3D
102
}
330
3D
100
AcDbScale
 70
     0
300
3" = 1'-0"
140
3.0
141
12.0
290
     0
  0
SCALE
  5
C5
102
{ACAD_REACTORS
330
3D
102
}
330
3D
100
AcDbScale
 70
     0
300
6" = 1'-0"
140
6.0
141
12.0
290
     0
  0
SCALE
  5
C6
102
{ACAD_REACTORS
330
3D
102
}
330
3D
100
AcDbScale
 70
     0
300
1'-0" = 1'-0"
140
12.0
141
12.0
290
     0
  0
SCALE
  5
B6
102
{ACAD_REACTORS
330
3D
102
}
330
3D
100
AcDbScale
 70
     0
300
1.25:1
140
1.25
141
1.0
290
     0
  0
SCALE
  5
B7
102
{ACAD_REACTORS
330
3D
102
}
330
3D
100
AcDbScale
 70
     0
300
1/128" = 1'-0"
140
0.0078125
141
12.0
290
     0
  0
SCALE
  5
B8
102
{ACAD_REACTORS
330
3D
102
}
330
3D
100
AcDbScale
 70
     0
300
1/64" = 1'-0"
140
0.015625
141
12.0
290
     0
  0
SCALE
  5
B9
102
{ACAD_REACTORS
330
3D
102
}
330
3D
100
AcDbScale
 70
     0
300
1/32" = 1'-0"
140
0.03125
141
12.0
290
     0
  0
SCALE
  5
BA
102
{ACAD_REACTORS
330
3D
102
}
330
3D
100
AcDbScale
 70
     0
300
1/16" = 1'-0"
140
0.0625
141
12.0
290
     0
  0
SCALE
  5
BB
102
{ACAD_REACTORS
330
3D
102
}
330
3D
100
AcDbScale
 70
     0
300
3/32" = 1'-0"
140
0.09375
141
12.0
290
     0
  0
SCALE
  5
BC
102
{ACAD_REACTORS
330
3D
102
}
330
3D
100
AcDbScale
 70
     0
300
1/8" = 1'-0"
140
0.125
141
12.0
290
     0
  0
SCALE
  5
3E
102
{ACAD_REACTORS
330
3D
102
}
330
3D
100
AcDbScale
 70
     0
300
1:1
140
1.0
141
1.0
290
     1
  0
SCALE
  5
3F
102
{ACAD_REACTORS
330
3D
102
}
330
3D
100
AcDbScale
 70
     0
300
1:2
140
1.0
141
2.0
290
     0
  0
SCALE
  5
40
102
{ACAD_REACTORS
330
3D
102
}
330
3D
100
AcDbScale
 70
     0
300
1:4
140
1.0
141
4.0
290
     0
  0
SCALE
  5
41
102
{ACAD_REACTORS
330
3D
102
}
330
3D
100
AcDbScale
 70
     0
300
1:5
140
1.0
141
5.0
290
     0
  0
SCALE
  5
42
102
{ACAD_REACTORS
330
3D
102
}
330
3D
100
AcDbScale
 70
     0
300
1:8
140
1.0
141
8.0
290
     0
  0
SCALE
  5
43
102
{ACAD_REACTORS
330
3D
102
}
330
3D
100
AcDbScale
 70
     0
300
1:10
140
1.0
141
10.0
290
     0
  0
SCALE
  5
44
102
{ACAD_REACTORS
330
3D
102
}
330
3D
100
AcDbScale
 70
     0
300
1:16
140
1.0
141
16.0
290
     0
  0
SCALE
  5
45
102
{ACAD_REACTORS
330
3D
102
}
330
3D
100
AcDbScale
 70
     0
300
1:20
140
1.0
141
20.0
290
     0
  0
SCALE
  5
46
102
{ACAD_REACTORS
330
3D
102
}
330
3D
100
AcDbScale
 70
     0
300
1:30
140
1.0
141
30.0
290
     0
  0
SCALE
  5
47
102
{ACAD_REACTORS
330
3D
102
}
330
3D
100
AcDbScale
 70
     0
300
1:40
140
1.0
141
40.0
290
     0
  0
SCALE
  5
48
102
{ACAD_REACTORS
330
3D
102
}
330
3D
100
AcDbScale
 70
     0
300
1:50
140
1.0
141
50.0
290
     0
  0
SCALE
  5
49
102
{ACAD_REACTORS
330
3D
102
}
330
3D
100
AcDbScale
 70
     0
300
1:100
140
1.0
141
100.0
290
     0
  0
SCALE
  5
4A
102
{ACAD_REACTORS
330
3D
102
}
330
3D
100
AcDbScale
 70
     0
300
2:1
140
2.0
141
1.0
290
     0
  0
SCALE
  5
4B
102
{ACAD_REACTORS
330
3D
102
}
330
3D
100
AcDbScale
 70
     0
300
4:1
140
4.0
141
1.0
290
     0
  0
SCALE
  5
4C
102
{ACAD_REACTORS
330
3D
102
}
330
3D
100
AcDbScale
 70
     0
300
8:1
140
8.0
141
1.0
290
     0
  0
SCALE
  5
4D
102
{ACAD_REACTORS
330
3D
102
}
330
3D
100
AcDbScale
 70
     0
300
10:1
140
10.0
141
1.0
290
     0
  0
SCALE
  5
4E
102
{ACAD_REACTORS
330
3D
102
}
330
3D
100
AcDbScale
 70
     0
300
100:1
140
100.0
141
1.0
290
     0
  0
TABLESTYLE
  5
60
102
{ACAD_XDICTIONARY
360
5BD
102
}
102
{ACAD_REACTORS
330
5F
102
}
330
5F
100
AcDbTableStyle
  3
Standard
 70
     0
 71
     3
 40
1.5
 41
1.5
280
     0
281
     0
  7
STANDARD
140
4.5
170
     2
 62
     0
 63
     7
283
     0
274
    -2
284
     1
 64
     0
275
    -2
285
     1
 65
     0
276
    -2
286
     1
 66
     0
277
    -2
287
     1
 67
     0
278
    -2
288
     1
 68
     0
279
    -2
289
     1
 69
     0
  7
STANDARD
140
6.0
170
     5
 62
     0
 63
     7
283
     0
274
    -2
284
     1
 64
     0
275
    -2
285
     1
 65
     0
276
    -2
286
     1
 66
     0
277
    -2
287
     1
 67
     0
278
    -2
288
     1
 68
     0
279
    -2
289
     1
 69
     0
  7
STANDARD
140
4.5
170
     5
 62
     0
 63
     7
283
     0
274
    -2
284
     1
 64
     0
275
    -2
285
     1
 65
     0
276
    -2
286
     1
 66
     0
277
    -2
287
     1
 67
     0
278
    -2
288
     1
 68
     0
279
    -2
289
     1
 69
     0
  0
VISUALSTYLE
  5
2F
102
{ACAD_XDICTIONARY
360
FF8
102
}
102
{ACAD_REACTORS
330
29
102
}
330
29
100
AcDbVisualStyle
  2

 70
     4
 71
     0
 72
     2
 73
     0
 90
        0
 40
-0.6
 41
-30.0
 62
     5
 63
     7
 74
     1
 91
        4
 64
     7
 65
   257
 75
     1
175
     1
 42
1.0
 92
        0
 66
   257
 43
1.0
 76
     1
 77
     6
 78
     2
 67
     7
 79
     5
170
     0
171
     0
290
     0
174
     0
 93
        1
 44
0.0
173
     0
291
     0
 45
0.0
1001
ACAD
1000
AcDbSavedByObjectVersion
1070
     0
  0
VISUALSTYLE
  5
31
102
{ACAD_XDICTIONARY
360
FFC
102
}
102
{ACAD_REACTORS
330
29
102
}
330
29
100
AcDbVisualStyle
  2

 70
     6
 71
     1
 72
     2
 73
     2
 90
        0
 40
-0.6
 41
-30.0
 62
     5
 63
     7
 74
     2
 91
        2
 64
     7
 65
   257
 75
     2
175
     1
 42
179.0
 92
        0
 66
   257
 43
1.0
 76
     1
 77
     6
 78
     2
 67
     7
 79
     3
170
     0
171
     0
290
     0
174
     0
 93
        1
 44
0.0
173
     0
291
     0
 45
0.0
1001
ACAD
1000
AcDbSavedByObjectVersion
1070
     0
  0
VISUALSTYLE
  5
30
102
{ACAD_XDICTIONARY
360
FFA
102
}
102
{ACAD_REACTORS
330
29
102
}
330
29
100
AcDbVisualStyle
  2

 70
     5
 71
     0
 72
     2
 73
     0
 90
        0
 40
-0.6
 41
-30.0
 62
     5
 63
     7
 74
     1
 91
        4
 64
     7
 65
   257
 75
     1
175
     1
 42
1.0
 92
        0
 66
   257
 43
1.0
 76
     1
 77
     6
 78
     2
 67
     7
 79
     5
170
     0
171
     0
290
     0
174
     0
 93
        1
 44
0.0
173
     0
291
     0
 45
0.0
1001
ACAD
1000
AcDbSavedByObjectVersion
1070
     0
  0
VISUALSTYLE
  5
2E
102
{ACAD_XDICTIONARY
360
FF6
102
}
102
{ACAD_REACTORS
330
29
102
}
330
29
100
AcDbVisualStyle
  2

 70
     7
 71
     1
 72
     0
 73
     1
 90
        0
 40
-0.6
 41
-30.0
 62
     5
 63
     7
 74
     0
 91
        4
 64
     7
 65
   257
 75
     1
175
     1
 42
1.0
 92
        8
 66
     7
 43
1.0
 76
     1
 77
     6
 78
     2
 67
     7
 79
     5
170
     0
171
     0
290
     0
174
     0
 93
        1
 44
0.0
173
     0
291
     1
 45
0.0
1001
ACAD
1000
AcDbSavedByObjectVersion
1070
     0
  0
VISUALSTYLE
  5
35
102
{ACAD_XDICTIONARY
360
1004
102
}
102
{ACAD_REACTORS
330
29
102
}
330
29
100
AcDbVisualStyle
  2

 70
    12
 71
     2
 72
     2
 73
     0
 90
        0
 40
-0.6
 41
-30.0
 62
     5
 63
     7
 74
     1
 91
        4
 64
     7
 65
   257
 75
     1
175
     1
 42
1.0
 92
        8
 66
     7
 43
1.0
 76
     1
 77
     6
 78
     2
 67
     7
 79
     5
170
     0
171
     0
290
     0
174
     0
 93
        1
 44
50.0
173
     0
291
     1
 45
0.0
1001
ACAD
1000
AcDbSavedByObjectVersion
1070
     0
  0
VISUALSTYLE
  5
39
102
{ACAD_XDICTIONARY
360
100C
102
}
102
{ACAD_REACTORS
330
29
102
}
330
29
100
AcDbVisualStyle
  2

 70
    16
 71
     2
 72
     2
 73
     3
 90
        0
 40
-0.6
 41
-30.0
 62
     5
 63
     8
 74
     1
 91
        4
 64
     7
 65
   257
 75
     1
175
     1
 42
1.0
 92
        8
 66
     8
 43
1.0
 76
     1
 77
     6
 78
     2
 67
     7
 79
     5
170
     0
171
     0
290
     0
174
     0
 93
        1
 44
0.0
173
     0
291
     1
 45
0.0
1001
ACAD
1000
AcDbSavedByObjectVersion
1070
     0
  0
VISUALSTYLE
  5
32
102
{ACAD_XDICTIONARY
360
FFE
102
}
102
{ACAD_REACTORS
330
29
102
}
330
29
100
AcDbVisualStyle
  2

 70
     9
 71
     3
 72
     2
 73
     0
 90
        0
 40
-0.6
 41
-30.0
 62
     5
 63
     7
 74
     2
 91
        2
 64
     7
 65
   257
 75
     1
175
     1
 42
179.0
 92
        8
 66
     7
 43
1.0
 76
     1
 77
     6
 78
     2
 67
     7
 79
     3
170
     0
171
     0
290
     0
174
     0
 93
        1
 44
0.0
173
     0
291
     0
 45
0.0
1001
ACAD
1000
AcDbSavedByObjectVersion
1070
     0
  0
VISUALSTYLE
  5
34
102
{ACAD_XDICTIONARY
360
1002
102
}
102
{ACAD_REACTORS
330
29
102
}
330
29
100
AcDbVisualStyle
  2

 70
    11
 71
     2
 72
     2
 73
     0
 90
        0
 40
-0.6
 41
-30.0
 62
     5
 63
     7
 74
     1
 91
        4
 64
     7
 65
   257
 75
     1
175
     1
 42
1.0
 92
        8
 66
     7
 43
1.0
 76
     1
 77
     6
 78
     2
 67
     7
 79
     5
170
     0
171
     0
290
     0
174
     0
 93
        1
 44
-50.0
173
     0
291
     1
 45
0.0
1001
ACAD
1000
AcDbSavedByObjectVersion
1070
     0
  0
VISUALSTYLE
  5
3C
102
{ACAD_XDICTIONARY
360
1012
102
}
102
{ACAD_REACTORS
330
29
102
}
330
29
100
AcDbVisualStyle
  2

 70
    22
 71
     2
 72
     2
 73
     0
 90
        0
 40
-0.6
 41
-30.0
 62
     5
 63
     7
 74
     1
 91
        4
 64
     7
 65
   257
 75
     1
175
     1
 42
1.0
 92
        8
 66
     7
 43
1.0
 76
     1
 77
     6
 78
     2
 67
     7
 79
     5
170
     0
171
     0
290
     0
174
     0
 93
        1
 44
0.0
173
     0
291
     1
 45
0.0
1001
ACAD
1000
AcDbSavedByObjectVersion
1070
     0
  0
VISUALSTYLE
  5
38
102
{ACAD_XDICTIONARY
360
100A
102
}
102
{ACAD_REACTORS
330
29
102
}
330
29
100
AcDbVisualStyle
  2

 70
    15
 71
     2
 72
     2
 73
     0
 90
        0
 40
-0.6
 41
-30.0
 62
     5
 63
     7
 74
     1
 91
        4
 64
     7
 65
   257
 75
     1
175
     1
 42
1.0
 92
        8
 66
     7
 43
1.0
 76
     1
 77
     6
 78
     2
 67
     7
 79
     5
170
     0
171
     0
290
     0
174
     0
 93
        1
 44
0.0
173
     0
291
     1
 45
0.0
1001
ACAD
1000
AcDbSavedByObjectVersion
1070
     0
  0
VISUALSTYLE
  5
2A
102
{ACAD_XDICTIONARY
360
FEE
102
}
102
{ACAD_REACTORS
330
29
102
}
330
29
100
AcDbVisualStyle
  2

 70
     0
 71
     2
 72
     1
 73
     1
 90
        2
 40
-0.6
 41
30.0
 62
     5
 63
     7
 74
     0
 91
        4
 64
     7
 65
   257
 75
     1
175
     1
 42
1.0
 92
        8
 66
     7
 43
1.0
 76
     1
 77
     6
 78
     2
 67
     7
 79
     5
170
     0
171
     0
290
     0
174
     0
 93
       13
 44
0.0
173
     0
291
     1
 45
0.0
1001
ACAD
1000
AcDbSavedByObjectVersion
1070
     0
  0
VISUALSTYLE
  5
2B
102
{ACAD_XDICTIONARY
360
FF0
102
}
102
{ACAD_REACTORS
330
29
102
}
330
29
100
AcDbVisualStyle
  2

 70
     1
 71
     2
 72
     1
 73
     1
 90
        2
 40
-0.6
 41
30.0
 62
     5
 63
     7
 74
     1
 91
        4
 64
     7
 65
   257
 75
     1
175
     1
 42
1.0
 92
        0
 66
   257
 43
1.0
 76
     1
 77
     6
 78
     2
 67
     7
 79
     5
170
     0
171
     0
290
     0
174
     0
 93
       13
 44
0.0
173
     0
291
     1
 45
0.0
1001
ACAD
1000
AcDbSavedByObjectVersion
1070
     0
  0
VISUALSTYLE
  5
2C
102
{ACAD_XDICTIONARY
360
FF2
102
}
102
{ACAD_REACTORS
330
29
102
}
330
29
100
AcDbVisualStyle
  2

 70
     2
 71
     2
 72
     2
 73
     1
 90
        2
 40
-0.6
 41
30.0
 62
     5
 63
     7
 74
     0
 91
        4
 64
     7
 65
   257
 75
     1
175
     1
 42
1.0
 92
        0
 66
     7
 43
1.0
 76
     1
 77
     6
 78
     2
 67
     7
 79
     5
170
     0
171
     0
290
     0
174
     0
 93
       13
 44
0.0
173
     0
291
     1
 45
0.0
1001
ACAD
1000
AcDbSavedByObjectVersion
1070
     0
  0
VISUALSTYLE
  5
2D
102
{ACAD_XDICTIONARY
360
FF4
102
}
102
{ACAD_REACTORS
330
29
102
}
330
29
100
AcDbVisualStyle
  2

 70
     3
 71
     2
 72
     2
 73
     1
 90
        2
 40
-0.6
 41
30.0
 62
     5
 63
     7
 74
     1
 91
        4
 64
     7
 65
   257
 75
     1
175
     1
 42
1.0
 92
        0
 66
   257
 43
1.0
 76
     1
 77
     6
 78
     2
 67
     7
 79
     5
170
     0
171
     0
290
     0
174
     0
 93
       13
 44
0.0
173
     0
291
     1
 45
0.0
1001
ACAD
1000
AcDbSavedByObjectVersion
1070
     0
  0
VISUALSTYLE
  5
3A
102
{ACAD_XDICTIONARY
360
100E
102
}
102
{ACAD_REACTORS
330
29
102
}
330
29
100
AcDbVisualStyle
  2

 70
    20
 71
     2
 72
     2
 73
     0
 90
        0
 40
-0.6
 41
-30.0
 62
     5
 63
     7
 74
     1
 91
        4
 64
     7
 65
   257
 75
     1
175
     1
 42
1.0
 92
       10
 66
     7
 43
1.0
 76
     1
 77
     6
 78
     2
 67
     7
 79
     5
170
     0
171
     0
290
     0
174
     0
 93
        1
 44
0.0
173
     0
291
     1
 45
0.0
1001
ACAD
1000
AcDbSavedByObjectVersion
1070
     0
  0
VISUALSTYLE
  5
37
102
{ACAD_XDICTIONARY
360
1008
102
}
102
{ACAD_REACTORS
330
29
102
}
330
29
100
AcDbVisualStyle
  2

 70
    14
 71
     2
 72
     2
 73
     0
 90
        0
 40
-0.6
 41
-30.0
 62
     5
 63
     7
 74
     1
 91
        4
 64
     7
 65
   257
 75
     7
175
     7
 42
1.0
 92
        8
 66
     7
 43
1.0
 76
     1
 77
     6
 78
     2
 67
     7
 79
     5
170
     0
171
     0
290
     0
174
     0
 93
        1
 44
0.0
173
     0
291
     1
 45
0.0
1001
ACAD
1000
AcDbSavedByObjectVersion
1070
     0
  0
VISUALSTYLE
  5
3B
102
{ACAD_XDICTIONARY
360
1010
102
}
102
{ACAD_REACTORS
330
29
102
}
330
29
100
AcDbVisualStyle
  2

 70
    21
 71
     2
 72
     2
 73
     0
 90
        0
 40
-0.6
 41
-30.0
 62
     5
 63
     7
 74
     1
 91
        4
 64
     7
 65
   257
 75
     1
175
     1
 42
1.0
 92
        9
 66
     7
 43
1.0
 76
     1
 77
     6
 78
     2
 67
     7
 79
     5
170
     0
171
     0
290
     0
174
     0
 93
        1
 44
0.0
173
     0
291
     1
 45
0.0
1001
ACAD
1000
AcDbSavedByObjectVersion
1070
     0
  0
VISUALSTYLE
  5
33
102
{ACAD_XDICTIONARY
360
1000
102
}
102
{ACAD_REACTORS
330
29
102
}
330
29
100
AcDbVisualStyle
  2

 70
     8
 71
     2
 72
     2
 73
     0
 90
        0
 40
-0.6
 41
-30.0
 62
     5
 63
     7
 74
     1
 91
        0
 64
     7
 65
   257
 75
     1
175
     1
 42
1.0
 92
        8
 66
     8
 43
1.0
 76
     1
 77
     6
 78
     2
 67
     7
 79
     5
170
     0
171
     0
290
     0
174
     0
 93
       13
 44
0.0
173
     0
291
     0
 45
0.0
1001
ACAD
1000
AcDbSavedByObjectVersion
1070
     0
  0
VISUALSTYLE
  5
36
102
{ACAD_XDICTIONARY
360
1006
102
}
102
{ACAD_REACTORS
330
29
102
}
330
29
100
AcDbVisualStyle
  2

 70
    13
 71
     2
 72
     2
 73
     0
 90
        0
 40
-0.6
 41
-30.0
 62
     5
 63
     7
 74
     1
 91
        4
 64
     7
 65
   257
 75
     1
175
     1
 42
1.0
 92
       12
 66
     7
 43
1.0
 76
     1
 77
     6
 78
     2
 67
     7
 79
     5
170
     0
171
     0
290
     0
174
     0
 93
        1
 44
0.0
173
     0
291
     1
 45
0.0
1001
ACAD
1000
AcDbSavedByObjectVersion
1070
     0
  0
DICTIONARYVAR
  5
4EC
102
{ACAD_REACTORS
330
4E8
102
}
330
4E8
100
DictionaryVariables
280
     0
  1
1
  0
DICTIONARYVAR
  5
4ED
102
{ACAD_REACTORS
330
4E8
102
}
330
4E8
100
DictionaryVariables
280
     0
  1
1:1
  0
DICTIONARYVAR
  5
4EA
102
{ACAD_REACTORS
330
4E8
102
}
330
4E8
100
DictionaryVariables
280
     0
  1
STANDARD
  0
DICTIONARYVAR
  5
4E9
102
{ACAD_REACTORS
330
4E8
102
}
330
4E8
100
DictionaryVariables
280
     0
  1
STANDARD
  0
DICTIONARYVAR
  5
5BC
102
{ACAD_REACTORS
330
4E8
102
}
330
4E8
100
DictionaryVariables
280
     0
  1
2
  0
DICTIONARYVAR
  5
5BA
102
{ACAD_REACTORS
330
4E8
102
}
330
4E8
100
DictionaryVariables
280
     0
  1
1
  0
DICTIONARYVAR
  5
5B9
102
{ACAD_REACTORS
330
4E8
102
}
330
4E8
100
DictionaryVariables
280
     0
  1
0
  0
DICTIONARYVAR
  5
4EF
102
{ACAD_REACTORS
330
4E8
102
}
330
4E8
100
DictionaryVariables
280
     0
  1
1
  0
DICTIONARYVAR
  5
4F0
102
{ACAD_REACTORS
330
4E8
102
}
330
4E8
100
DictionaryVariables
280
     0
  1
15
  0
DICTIONARYVAR
  5
4EE
102
{ACAD_REACTORS
330
4E8
102
}
330
4E8
100
DictionaryVariables
280
     0
  1
0
  0
DICTIONARYVAR
  5
4EB
102
{ACAD_REACTORS
330
4E8
102
}
330
4E8
100
DictionaryVariables
280
     0
  1
0
  0
DICTIONARYVAR
  5
5B8
102
{ACAD_REACTORS
330
4E8
102
}
330
4E8
100
DictionaryVariables
280
     0
  1
127
  0
DICTIONARYVAR
  5
FE5
102
{ACAD_REACTORS
330
4E8
102
}
330
4E8
100
DictionaryVariables
280
     0
  1
2
  0
DICTIONARY
  5
553
102
{ACAD_REACTORS
330
546
102
}
330
546
100
AcDbDictionary
281
     1
  0
DICTIONARY
  5
1017
330
6A
100
AcDbDictionary
280
     1
281
     1
  3
ACAD_XREC_ROUNDTRIP
360
1018
  0
DICTIONARY
  5
1015
330
66
100
AcDbDictionary
280
     1
281
     1
  3
ACAD_XREC_ROUNDTRIP
360
1016
  0
DICTIONARY
  5
1019
330
6E
100
AcDbDictionary
280
     1
281
     1
  3
ACAD_XREC_ROUNDTRIP
360
101A
  0
DICTIONARY
  5
1A
330
19
100
AcDbDictionary
280
     1
281
     1
  3
ACAD_XREC_ROUNDTRIP
360
5C7
  3
BUMPTILE
360
1C
  3
DIFFUSETILE
360
1B
  3
OPACITYTILE
360
1F
  3
REFLECTIONTILE
360
1E
  3
REFRACTIONTILE
360
20
  3
SPECULARTILE
360
1D
  0
DICTIONARY
  5
12
330
11
100
AcDbDictionary
280
     1
281
     1
  3
ACAD_XREC_ROUNDTRIP
360
5C6
  3
BUMPTILE
360
14
  3
DIFFUSETILE
360
13
  3
OPACITYTILE
360
17
  3
REFLECTIONTILE
360
16
  3
REFRACTIONTILE
360
18
  3
SPECULARTILE
360
15
  0
DICTIONARY
  5
22
330
21
100
AcDbDictionary
280
     1
281
     1
  3
ACAD_XREC_ROUNDTRIP
360
5C8
  3
BUMPTILE
360
24
  3
DIFFUSETILE
360
23
  3
OPACITYTILE
360
27
  3
REFLECTIONTILE
360
26
  3
REFRACTIONTILE
360
28
  3
SPECULARTILE
360
25
  0
DICTIONARY
  5
5BD
330
60
100
AcDbDictionary
280
     1
281
     1
  3
ACAD_ROUNDTRIP_2008_TABLESTYLE_CELLSTYLEMAP
360
FE6
  3
ACAD_XREC_ROUNDTRIP
360
1014
  0
DICTIONARY
  5
FF8
330
2F
100
AcDbDictionary
280
     1
281
     1
  3
ACAD_XREC_ROUNDTRIP
360
FF9
  0
DICTIONARY
  5
FFC
330
31
100
AcDbDictionary
280
     1
281
     1
  3
ACAD_XREC_ROUNDTRIP
360
FFD
  0
DICTIONARY
  5
FFA
330
30
100
AcDbDictionary
280
     1
281
     1
  3
ACAD_XREC_ROUNDTRIP
360
FFB
  0
DICTIONARY
  5
FF6
330
2E
100
AcDbDictionary
280
     1
281
     1
  3
ACAD_XREC_ROUNDTRIP
360
FF7
  0
DICTIONARY
  5
1004
330
35
100
AcDbDictionary
280
     1
281
     1
  3
ACAD_XREC_ROUNDTRIP
360
1005
  0
DICTIONARY
  5
100C
330
39
100
AcDbDictionary
280
     1
281
     1
  3
ACAD_XREC_ROUNDTRIP
360
100D
  0
DICTIONARY
  5
FFE
330
32
100
AcDbDictionary
280
     1
281
     1
  3
ACAD_XREC_ROUNDTRIP
360
FFF
  0
DICTIONARY
  5
1002
330
34
100
AcDbDictionary
280
     1
281
     1
  3
ACAD_XREC_ROUNDTRIP
360
1003
  0
DICTIONARY
  5
1012
330
3C
100
AcDbDictionary
280
     1
281
     1
  3
ACAD_XREC_ROUNDTRIP
360
1013
  0
DICTIONARY
  5
100A
330
38
100
AcDbDictionary
280
     1
281
     1
  3
ACAD_XREC_ROUNDTRIP
360
100B
  0
DICTIONARY
  5
FEE
330
2A
100
AcDbDictionary
280
     1
281
     1
  3
ACAD_XREC_ROUNDTRIP
360
FEF
  0
DICTIONARY
  5
FF0
330
2B
100
AcDbDictionary
280
     1
281
     1
  3
ACAD_XREC_ROUNDTRIP
360
FF1
  0
DICTIONARY
  5
FF2
330
2C
100
AcDbDictionary
280
     1
281
     1
  3
ACAD_XREC_ROUNDTRIP
360
FF3
  0
DICTIONARY
  5
FF4
330
2D
100
AcDbDictionary
280
     1
281
     1
  3
ACAD_XREC_ROUNDTRIP
360
FF5
  0
DICTIONARY
  5
100E
330
3A
100
AcDbDictionary
280
     1
281
     1
  3
ACAD_XREC_ROUNDTRIP
360
100F
  0
DICTIONARY
  5
1008
330
37
100
AcDbDictionary
280
     1
281
     1
  3
ACAD_XREC_ROUNDTRIP
360
1009
  0
DICTIONARY
  5
1010
330
3B
100
AcDbDictionary
280
     1
281
     1
  3
ACAD_XREC_ROUNDTRIP
360
1011
  0
DICTIONARY
  5
1000
330
33
100
AcDbDictionary
280
     1
281
     1
  3
ACAD_XREC_ROUNDTRIP
360
1001
  0
DICTIONARY
  5
1006
330
36
100
AcDbDictionary
280
     1
281
     1
  3
ACAD_XREC_ROUNDTRIP
360
1007
  0
XRECORD
  5
1018
102
{ACAD_REACTORS
330
1017
102
}
330
1017
100
AcDbXrecord
280
     1
102
SHADEPLOT
 70
     0
102
SHADEPLOTRESLEVEL
 70
     2
102
SHADEPLOTCUSTOMDPI
 70
   300
  0
XRECORD
  5
1016
102
{ACAD_REACTORS
330
1015
102
}
330
1015
100
AcDbXrecord
280
     1
102
SHADEPLOT
 70
     0
102
SHADEPLOTRESLEVEL
 70
     2
102
SHADEPLOTCUSTOMDPI
 70
   300
  0
XRECORD
  5
101A
102
{ACAD_REACTORS
330
1019
102
}
330
1019
100
AcDbXrecord
280
     1
102
SHADEPLOT
 70
     0
102
SHADEPLOTRESLEVEL
 70
     2
102
SHADEPLOTCUSTOMDPI
 70
   300
  0
XRECORD
  5
5C7
102
{ACAD_REACTORS
330
1A
102
}
330
1A
100
AcDbXrecord
280
     1
102
MATERIAL
148
0.0
149
0.0
149
0.0
 93
        0
 94
      127
282
     0
 72
     0
 77
     0
171
     0
175
     0
179
     0
273
     0
  0
XRECORD
  5
1C
102
{ACAD_REACTORS
330
1A
102
}
330
1A
100
AcDbXrecord
280
     1
270
     1
271
     1
  0
XRECORD
  5
1B
102
{ACAD_REACTORS
330
1A
102
}
330
1A
100
AcDbXrecord
280
     1
270
     1
271
     1
  0
XRECORD
  5
1F
102
{ACAD_REACTORS
330
1A
102
}
330
1A
100
AcDbXrecord
280
     1
270
     1
271
     1
  0
XRECORD
  5
1E
102
{ACAD_REACTORS
330
1A
102
}
330
1A
100
AcDbXrecord
280
     1
270
     1
271
     1
  0
XRECORD
  5
20
102
{ACAD_REACTORS
330
1A
102
}
330
1A
100
AcDbXrecord
280
     1
270
     1
271
     1
  0
XRECORD
  5
1D
102
{ACAD_REACTORS
330
1A
102
}
330
1A
100
AcDbXrecord
280
     1
270
     1
271
     1
  0
XRECORD
  5
5C6
102
{ACAD_REACTORS
330
12
102
}
330
12
100
AcDbXrecord
280
     1
102
MATERIAL
148
0.0
149
0.0
149
0.0
 93
        0
 94
      127
282
     0
 72
     0
 77
     0
171
     0
175
     0
179
     0
273
     0
  0
XRECORD
  5
14
102
{ACAD_REACTORS
330
12
102
}
330
12
100
AcDbXrecord
280
     1
270
     1
271
     1
  0
XRECORD
  5
13
102
{ACAD_REACTORS
330
12
102
}
330
12
100
AcDbXrecord
280
     1
270
     1
271
     1
  0
XRECORD
  5
17
102
{ACAD_REACTORS
330
12
102
}
330
12
100
AcDbXrecord
280
     1
270
     1
271
     1
  0
XRECORD
  5
16
102
{ACAD_REACTORS
330
12
102
}
330
12
100
AcDbXrecord
280
     1
270
     1
271
     1
  0
XRECORD
  5
18
102
{ACAD_REACTORS
330
12
102
}
330
12
100
AcDbXrecord
280
     1
270
     1
271
     1
  0
XRECORD
  5
15
102
{ACAD_REACTORS
330
12
102
}
330
12
100
AcDbXrecord
280
     1
270
     1
271
     1
  0
XRECORD
  5
5C8
102
{ACAD_REACTORS
330
22
102
}
330
22
100
AcDbXrecord
280
     1
102
MATERIAL
148
0.0
149
0.0
149
0.0
 93
        0
 94
      127
282
     0
 72
     0
 77
     0
171
     0
175
     0
179
     0
273
     0
  0
XRECORD
  5
24
102
{ACAD_REACTORS
330
22
102
}
330
22
100
AcDbXrecord
280
     1
270
     1
271
     1
  0
XRECORD
  5
23
102
{ACAD_REACTORS
330
22
102
}
330
22
100
AcDbXrecord
280
     1
270
     1
271
     1
  0
XRECORD
  5
27
102
{ACAD_REACTORS
330
22
102
}
330
22
100
AcDbXrecord
280
     1
270
     1
271
     1
  0
XRECORD
  5
26
102
{ACAD_REACTORS
330
22
102
}
330
22
100
AcDbXrecord
280
     1
270
     1
271
     1
  0
XRECORD
  5
28
102
{ACAD_REACTORS
330
22
102
}
330
22
100
AcDbXrecord
280
     1
270
     1
271
     1
  0
XRECORD
  5
25
102
{ACAD_REACTORS
330
22
102
}
330
22
100
AcDbXrecord
280
     1
270
     1
271
     1
  0
CELLSTYLEMAP
  5
FE6
102
{ACAD_REACTORS
330
5BD
102
}
330
5BD
100
AcDbCellStyleMap
 90
        3
300
CELLSTYLE
  1
TABLEFORMAT_BEGIN
 90
        5
170
     1
 91
        0
 92
    32768
 62
   257
 93
        1
300
CONTENTFORMAT
  1
CONTENTFORMAT_BEGIN
 90
        0
 91
        0
 92
      512
 93
        0
300

 40
0.0
140
1.0
 94
        5
 62
     0
340
50
144
6.0
309
CONTENTFORMAT_END
171
     1
301
MARGIN
  1
CELLMARGIN_BEGIN
 40
1.5
 40
1.5
 40
1.5
 40
1.5
 40
0.18
 40
0.18
309
CELLMARGIN_END
 94
        6
 95
        1
302
GRIDFORMAT
  1
GRIDFORMAT_BEGIN
 90
        0
 91
        1
 62
     0
 92
       -2
340
0
 93
        0
 40
0.045
309
GRIDFORMAT_END
 95
        2
302
GRIDFORMAT
  1
GRIDFORMAT_BEGIN
 90
        0
 91
        1
 62
     0
 92
       -2
340
0
 93
        0
 40
0.045
309
GRIDFORMAT_END
 95
        4
302
GRIDFORMAT
  1
GRIDFORMAT_BEGIN
 90
        0
 91
        1
 62
     0
 92
       -2
340
0
 93
        0
 40
0.045
309
GRIDFORMAT_END
 95
        8
302
GRIDFORMAT
  1
GRIDFORMAT_BEGIN
 90
        0
 91
        1
 62
     0
 92
       -2
340
0
 93
        0
 40
0.045
309
GRIDFORMAT_END
 95
       16
302
GRIDFORMAT
  1
GRIDFORMAT_BEGIN
 90
        0
 91
        1
 62
     0
 92
       -2
340
0
 93
        0
 40
0.045
309
GRIDFORMAT_END
 95
       32
302
GRIDFORMAT
  1
GRIDFORMAT_BEGIN
 90
        0
 91
        1
 62
     0
 92
       -2
340
0
 93
        0
 40
0.045
309
GRIDFORMAT_END
309
TABLEFORMAT_END
  1
CELLSTYLE_BEGIN
 90
        1
 91
        1
300
_TITLE
309
CELLSTYLE_END
300
CELLSTYLE
  1
TABLEFORMAT_BEGIN
 90
        5
170
     1
 91
        0
 92
        0
 62
   257
 93
        1
300
CONTENTFORMAT
  1
CONTENTFORMAT_BEGIN
 90
        0
 91
        0
 92
      512
 93
        0
300

 40
0.0
140
1.0
 94
        5
 62
     0
340
50
144
4.5
309
CONTENTFORMAT_END
171
     1
301
MARGIN
  1
CELLMARGIN_BEGIN
 40
1.5
 40
1.5
 40
1.5
 40
1.5
 40
0.18
 40
0.18
309
CELLMARGIN_END
 94
        6
 95
        1
302
GRIDFORMAT
  1
GRIDFORMAT_BEGIN
 90
        0
 91
        1
 62
     0
 92
       -2
340
0
 93
        0
 40
0.045
309
GRIDFORMAT_END
 95
        2
302
GRIDFORMAT
  1
GRIDFORMAT_BEGIN
 90
        0
 91
        1
 62
     0
 92
       -2
340
0
 93
        0
 40
0.045
309
GRIDFORMAT_END
 95
        4
302
GRIDFORMAT
  1
GRIDFORMAT_BEGIN
 90
        0
 91
        1
 62
     0
 92
       -2
340
0
 93
        0
 40
0.045
309
GRIDFORMAT_END
 95
        8
302
GRIDFORMAT
  1
GRIDFORMAT_BEGIN
 90
        0
 91
        1
 62
     0
 92
       -2
340
0
 93
        0
 40
0.045
309
GRIDFORMAT_END
 95
       16
302
GRIDFORMAT
  1
GRIDFORMAT_BEGIN
 90
        0
 91
        1
 62
     0
 92
       -2
340
0
 93
        0
 40
0.045
309
GRIDFORMAT_END
 95
       32
302
GRIDFORMAT
  1
GRIDFORMAT_BEGIN
 90
        0
 91
        1
 62
     0
 92
       -2
340
0
 93
        0
 40
0.045
309
GRIDFORMAT_END
309
TABLEFORMAT_END
  1
CELLSTYLE_BEGIN
 90
        2
 91
        1
300
_HEADER
309
CELLSTYLE_END
300
CELLSTYLE
  1
TABLEFORMAT_BEGIN
 90
        5
170
     1
 91
        0
 92
        0
 62
   257
 93
        1
300
CONTENTFORMAT
  1
CONTENTFORMAT_BEGIN
 90
        0
 91
        0
 92
      512
 93
        0
300

 40
0.0
140
1.0
 94
        2
 62
     0
340
50
144
4.5
309
CONTENTFORMAT_END
171
     1
301
MARGIN
  1
CELLMARGIN_BEGIN
 40
1.5
 40
1.5
 40
1.5
 40
1.5
 40
0.18
 40
0.18
309
CELLMARGIN_END
 94
        6
 95
        1
302
GRIDFORMAT
  1
GRIDFORMAT_BEGIN
 90
        0
 91
        1
 62
     0
 92
       -2
340
0
 93
        0
 40
0.045
309
GRIDFORMAT_END
 95
        2
302
GRIDFORMAT
  1
GRIDFORMAT_BEGIN
 90
        0
 91
        1
 62
     0
 92
       -2
340
0
 93
        0
 40
0.045
309
GRIDFORMAT_END
 95
        4
302
GRIDFORMAT
  1
GRIDFORMAT_BEGIN
 90
        0
 91
        1
 62
     0
 92
       -2
340
0
 93
        0
 40
0.045
309
GRIDFORMAT_END
 95
        8
302
GRIDFORMAT
  1
GRIDFORMAT_BEGIN
 90
        0
 91
        1
 62
     0
 92
       -2
340
0
 93
        0
 40
0.045
309
GRIDFORMAT_END
 95
       16
302
GRIDFORMAT
  1
GRIDFORMAT_BEGIN
 90
        0
 91
        1
 62
     0
 92
       -2
340
0
 93
        0
 40
0.045
309
GRIDFORMAT_END
 95
       32
302
GRIDFORMAT
  1
GRIDFORMAT_BEGIN
 90
        0
 91
        1
 62
     0
 92
       -2
340
0
 93
        0
 40
0.045
309
GRIDFORMAT_END
309
TABLEFORMAT_END
  1
CELLSTYLE_BEGIN
 90
        3
 91
        2
300
_DATA
309
CELLSTYLE_END
  0
XRECORD
  5
1014
102
{ACAD_REACTORS
330
5BD
102
}
330
5BD
100
AcDbXrecord
280
     1
102
ACAD_ROUNDTRIP_PRE2007_TABLESTYLE
 90
      512
 91
        0
  1

 92
      512
 93
        0
  2

 94
      512
 95
        0
  3

  0
XRECORD
  5
FF9
102
{ACAD_REACTORS
330
FF8
102
}
330
FF8
100
AcDbXrecord
280
     1
102
RTVSPropertyOp0
 70
     1
102
RTVSPropertyOp1
 70
     1
102
RTVSPropertyOp2
 70
     1
102
RTVSPropertyOp3
 70
     1
102
RTVSPropertyOp4
 70
     1
102
RTVSPropertyOp5
 70
     1
102
RTVSPropertyOp6
 70
     1
102
RTVSPropertyOp7
 70
     1
102
RTVSPropertyOp8
 70
     1
102
RTVSPropertyOp9
 70
     1
102
RTVSPropertyOp10
 70
     1
102
RTVSPropertyOp11
 70
     1
102
RTVSPropertyOp12
 70
     1
102
RTVSPropertyOp13
 70
     1
102
RTVSPropertyOp14
 70
     1
102
RTVSPropertyOp15
 70
     1
102
RTVSPropertyOp16
 70
     1
102
RTVSPropertyOp17
 70
     1
102
RTVSPropertyOp18
 70
     1
102
RTVSPropertyOp19
 70
     1
102
RTVSPropertyOp20
 70
     1
102
RTVSPropertyOp21
 70
     1
102
RTVSPropertyOp22
 70
     1
102
RTVSPropertyOp23
 70
     1
102
RTVSPropertyOp24
 70
     1
102
RTVSPropertyOp25
 70
     1
102
RTVSPropertyOp26
 70
     1
102
RTVSPropertyOp27
 70
     1
  0
XRECORD
  5
FFD
102
{ACAD_REACTORS
330
FFC
102
}
330
FFC
100
AcDbXrecord
280
     1
102
RTVSPropertyOp0
 70
     1
102
RTVSPropertyOp1
 70
     1
102
RTVSPropertyOp2
 70
     1
102
RTVSPropertyOp3
 70
     1
102
RTVSPropertyOp4
 70
     1
102
RTVSPropertyOp5
 70
     1
102
RTVSPropertyOp6
 70
     1
102
RTVSPropertyOp7
 70
     1
102
RTVSPropertyOp8
 70
     1
102
RTVSPropertyOp9
 70
     1
102
RTVSPropertyOp10
 70
     1
102
RTVSPropertyOp11
 70
     1
102
RTVSPropertyOp12
 70
     1
102
RTVSPropertyOp13
 70
     1
102
RTVSPropertyOp14
 70
     1
102
RTVSPropertyOp15
 70
     1
102
RTVSPropertyOp16
 70
     1
102
RTVSPropertyOp17
 70
     1
102
RTVSPropertyOp18
 70
     1
102
RTVSPropertyOp19
 70
     1
102
RTVSPropertyOp20
 70
     1
102
RTVSPropertyOp21
 70
     1
102
RTVSPropertyOp22
 70
     1
102
RTVSPropertyOp23
 70
     1
102
RTVSPropertyOp24
 70
     1
102
RTVSPropertyOp25
 70
     1
102
RTVSPropertyOp26
 70
     1
102
RTVSPropertyOp27
 70
     1
  0
XRECORD
  5
FFB
102
{ACAD_REACTORS
330
FFA
102
}
330
FFA
100
AcDbXrecord
280
     1
102
RTVSPropertyOp0
 70
     1
102
RTVSPropertyOp1
 70
     1
102
RTVSPropertyOp2
 70
     1
102
RTVSPropertyOp3
 70
     1
102
RTVSPropertyOp4
 70
     1
102
RTVSPropertyOp5
 70
     1
102
RTVSPropertyOp6
 70
     1
102
RTVSPropertyOp7
 70
     1
102
RTVSPropertyOp8
 70
     1
102
RTVSPropertyOp9
 70
     1
102
RTVSPropertyOp10
 70
     1
102
RTVSPropertyOp11
 70
     1
102
RTVSPropertyOp12
 70
     1
102
RTVSPropertyOp13
 70
     1
102
RTVSPropertyOp14
 70
     1
102
RTVSPropertyOp15
 70
     1
102
RTVSPropertyOp16
 70
     1
102
RTVSPropertyOp17
 70
     1
102
RTVSPropertyOp18
 70
     1
102
RTVSPropertyOp19
 70
     1
102
RTVSPropertyOp20
 70
     1
102
RTVSPropertyOp21
 70
     1
102
RTVSPropertyOp22
 70
     1
102
RTVSPropertyOp23
 70
     1
102
RTVSPropertyOp24
 70
     1
102
RTVSPropertyOp25
 70
     1
102
RTVSPropertyOp26
 70
     1
102
RTVSPropertyOp27
 70
     1
  0
XRECORD
  5
FF7
102
{ACAD_REACTORS
330
FF6
102
}
330
FF6
100
AcDbXrecord
280
     1
102
RTVSPropertyOp0
 70
     1
102
RTVSPropertyOp1
 70
     1
102
RTVSPropertyOp2
 70
     1
102
RTVSPropertyOp3
 70
     1
102
RTVSPropertyOp4
 70
     1
102
RTVSPropertyOp5
 70
     1
102
RTVSPropertyOp6
 70
     1
102
RTVSPropertyOp7
 70
     1
102
RTVSPropertyOp8
 70
     1
102
RTVSPropertyOp9
 70
     1
102
RTVSPropertyOp10
 70
     1
102
RTVSPropertyOp11
 70
     1
102
RTVSPropertyOp12
 70
     1
102
RTVSPropertyOp13
 70
     1
102
RTVSPropertyOp14
 70
     1
102
RTVSPropertyOp15
 70
     1
102
RTVSPropertyOp16
 70
     1
102
RTVSPropertyOp17
 70
     1
102
RTVSPropertyOp18
 70
     1
102
RTVSPropertyOp19
 70
     1
102
RTVSPropertyOp20
 70
     1
102
RTVSPropertyOp21
 70
     1
102
RTVSPropertyOp22
 70
     1
102
RTVSPropertyOp23
 70
     1
102
RTVSPropertyOp24
 70
     1
102
RTVSPropertyOp25
 70
     1
102
RTVSPropertyOp26
 70
     1
102
RTVSPropertyOp27
 70
     1
  0
XRECORD
  5
1005
102
{ACAD_REACTORS
330
1004
102
}
330
1004
100
AcDbXrecord
280
     1
102
RTVSPropertyOp0
 70
     1
102
RTVSPropertyOp1
 70
     1
102
RTVSPropertyOp2
 70
     1
102
RTVSPropertyOp3
 70
     1
102
RTVSPropertyOp4
 70
     1
102
RTVSPropertyOp5
 70
     1
102
RTVSPropertyOp6
 70
     1
102
RTVSPropertyOp7
 70
     1
102
RTVSPropertyOp8
 70
     1
102
RTVSPropertyOp9
 70
     1
102
RTVSPropertyOp10
 70
     1
102
RTVSPropertyOp11
 70
     1
102
RTVSPropertyOp12
 70
     1
102
RTVSPropertyOp13
 70
     1
102
RTVSPropertyOp14
 70
     1
102
RTVSPropertyOp15
 70
     1
102
RTVSPropertyOp16
 70
     1
102
RTVSPropertyOp17
 70
     1
102
RTVSPropertyOp18
 70
     1
102
RTVSPropertyOp19
 70
     1
102
RTVSPropertyOp20
 70
     1
102
RTVSPropertyOp21
 70
     1
102
RTVSPropertyOp22
 70
     1
102
RTVSPropertyOp23
 70
     1
102
RTVSPropertyOp24
 70
     1
102
RTVSPropertyOp25
 70
     1
102
RTVSPropertyOp26
 70
     1
102
RTVSPropertyOp27
 70
     1
  0
XRECORD
  5
100D
102
{ACAD_REACTORS
330
100C
102
}
330
100C
100
AcDbXrecord
280
     1
102
RTVSPropertyOp0
 70
     1
102
RTVSPropertyOp1
 70
     1
102
RTVSPropertyOp2
 70
     1
102
RTVSPropertyOp3
 70
     1
102
RTVSPropertyOp4
 70
     1
102
RTVSPropertyOp5
 70
     1
102
RTVSPropertyOp6
 70
     1
102
RTVSPropertyOp7
 70
     1
102
RTVSPropertyOp8
 70
     1
102
RTVSPropertyOp9
 70
     1
102
RTVSPropertyOp10
 70
     1
102
RTVSPropertyOp11
 70
     1
102
RTVSPropertyOp12
 70
     1
102
RTVSPropertyOp13
 70
     1
102
RTVSPropertyOp14
 70
     1
102
RTVSPropertyOp15
 70
     1
102
RTVSPropertyOp16
 70
     1
102
RTVSPropertyOp17
 70
     1
102
RTVSPropertyOp18
 70
     1
102
RTVSPropertyOp19
 70
     1
102
RTVSPropertyOp20
 70
     1
102
RTVSPropertyOp21
 70
     1
102
RTVSPropertyOp22
 70
     1
102
RTVSPropertyOp23
 70
     1
102
RTVSPropertyOp24
 70
     1
102
RTVSPropertyOp25
 70
     1
102
RTVSPropertyOp26
 70
     1
102
RTVSPropertyOp27
 70
     1
  0
XRECORD
  5
FFF
102
{ACAD_REACTORS
330
FFE
102
}
330
FFE
100
AcDbXrecord
280
     1
102
RTVSPropertyOp0
 70
     1
102
RTVSPropertyOp1
 70
     1
102
RTVSPropertyOp2
 70
     1
102
RTVSPropertyOp3
 70
     1
102
RTVSPropertyOp4
 70
     1
102
RTVSPropertyOp5
 70
     1
102
RTVSPropertyOp6
 70
     1
102
RTVSPropertyOp7
 70
     1
102
RTVSPropertyOp8
 70
     1
102
RTVSPropertyOp9
 70
     1
102
RTVSPropertyOp10
 70
     1
102
RTVSPropertyOp11
 70
     1
102
RTVSPropertyOp12
 70
     1
102
RTVSPropertyOp13
 70
     1
102
RTVSPropertyOp14
 70
     1
102
RTVSPropertyOp15
 70
     1
102
RTVSPropertyOp16
 70
     1
102
RTVSPropertyOp17
 70
     1
102
RTVSPropertyOp18
 70
     1
102
RTVSPropertyOp19
 70
     1
102
RTVSPropertyOp20
 70
     1
102
RTVSPropertyOp21
 70
     1
102
RTVSPropertyOp22
 70
     1
102
RTVSPropertyOp23
 70
     1
102
RTVSPropertyOp24
 70
     1
102
RTVSPropertyOp25
 70
     1
102
RTVSPropertyOp26
 70
     1
102
RTVSPropertyOp27
 70
     1
  0
XRECORD
  5
1003
102
{ACAD_REACTORS
330
1002
102
}
330
1002
100
AcDbXrecord
280
     1
102
RTVSPropertyOp0
 70
     1
102
RTVSPropertyOp1
 70
     1
102
RTVSPropertyOp2
 70
     1
102
RTVSPropertyOp3
 70
     1
102
RTVSPropertyOp4
 70
     1
102
RTVSPropertyOp5
 70
     1
102
RTVSPropertyOp6
 70
     1
102
RTVSPropertyOp7
 70
     1
102
RTVSPropertyOp8
 70
     1
102
RTVSPropertyOp9
 70
     1
102
RTVSPropertyOp10
 70
     1
102
RTVSPropertyOp11
 70
     1
102
RTVSPropertyOp12
 70
     1
102
RTVSPropertyOp13
 70
     1
102
RTVSPropertyOp14
 70
     1
102
RTVSPropertyOp15
 70
     1
102
RTVSPropertyOp16
 70
     1
102
RTVSPropertyOp17
 70
     1
102
RTVSPropertyOp18
 70
     1
102
RTVSPropertyOp19
 70
     1
102
RTVSPropertyOp20
 70
     1
102
RTVSPropertyOp21
 70
     1
102
RTVSPropertyOp22
 70
     1
102
RTVSPropertyOp23
 70
     1
102
RTVSPropertyOp24
 70
     1
102
RTVSPropertyOp25
 70
     1
102
RTVSPropertyOp26
 70
     1
102
RTVSPropertyOp27
 70
     1
  0
XRECORD
  5
1013
102
{ACAD_REACTORS
330
1012
102
}
330
1012
100
AcDbXrecord
280
     1
102
RTVSPropertyOp0
 70
     0
102
RTVSPropertyOp1
 70
     0
102
RTVSPropertyOp2
 70
     0
102
RTVSPropertyOp3
 70
     0
102
RTVSPropertyOp4
 70
     0
102
RTVSPropertyOp5
 70
     0
102
RTVSPropertyOp6
 70
     0
102
RTVSPropertyOp7
 70
     0
102
RTVSPropertyOp8
 70
     0
102
RTVSPropertyOp9
 70
     0
102
RTVSPropertyOp10
 70
     0
102
RTVSPropertyOp11
 70
     0
102
RTVSPropertyOp12
 70
     0
102
RTVSPropertyOp13
 70
     0
102
RTVSPropertyOp14
 70
     2
102
RTVSPropertyOp15
 70
     0
102
RTVSPropertyOp16
 70
     0
102
RTVSPropertyOp17
 70
     0
102
RTVSPropertyOp18
 70
     0
102
RTVSPropertyOp19
 70
     0
102
RTVSPropertyOp20
 70
     0
102
RTVSPropertyOp21
 70
     0
102
RTVSPropertyOp22
 70
     0
102
RTVSPropertyOp23
 70
     0
102
RTVSPropertyOp24
 70
     0
102
RTVSPropertyOp25
 70
     0
102
RTVSPropertyOp26
 70
     0
102
RTVSPropertyOp27
 70
     0
  0
XRECORD
  5
100B
102
{ACAD_REACTORS
330
100A
102
}
330
100A
100
AcDbXrecord
280
     1
102
RTVSPropertyOp0
 70
     1
102
RTVSPropertyOp1
 70
     1
102
RTVSPropertyOp2
 70
     1
102
RTVSPropertyOp3
 70
     1
102
RTVSPropertyOp4
 70
     1
102
RTVSPropertyOp5
 70
     1
102
RTVSPropertyOp6
 70
     1
102
RTVSPropertyOp7
 70
     1
102
RTVSPropertyOp8
 70
     1
102
RTVSPropertyOp9
 70
     1
102
RTVSPropertyOp10
 70
     1
102
RTVSPropertyOp11
 70
     1
102
RTVSPropertyOp12
 70
     1
102
RTVSPropertyOp13
 70
     1
102
RTVSPropertyOp14
 70
     1
102
RTVSPropertyOp15
 70
     1
102
RTVSPropertyOp16
 70
     1
102
RTVSPropertyOp17
 70
     1
102
RTVSPropertyOp18
 70
     1
102
RTVSPropertyOp19
 70
     1
102
RTVSPropertyOp20
 70
     1
102
RTVSPropertyOp21
 70
     1
102
RTVSPropertyOp22
 70
     1
102
RTVSPropertyOp23
 70
     1
102
RTVSPropertyOp24
 70
     1
102
RTVSPropertyOp25
 70
     1
102
RTVSPropertyOp26
 70
     1
102
RTVSPropertyOp27
 70
     1
  0
XRECORD
  5
FEF
102
{ACAD_REACTORS
330
FEE
102
}
330
FEE
100
AcDbXrecord
280
     1
102
RTVSPropertyOp0
 70
     1
102
RTVSPropertyOp1
 70
     1
102
RTVSPropertyOp2
 70
     1
102
RTVSPropertyOp3
 70
     1
102
RTVSPropertyOp4
 70
     1
102
RTVSPropertyOp5
 70
     1
102
RTVSPropertyOp6
 70
     1
102
RTVSPropertyOp7
 70
     1
102
RTVSPropertyOp8
 70
     1
102
RTVSPropertyOp9
 70
     1
102
RTVSPropertyOp10
 70
     1
102
RTVSPropertyOp11
 70
     1
102
RTVSPropertyOp12
 70
     1
102
RTVSPropertyOp13
 70
     1
102
RTVSPropertyOp14
 70
     1
102
RTVSPropertyOp15
 70
     1
102
RTVSPropertyOp16
 70
     1
102
RTVSPropertyOp17
 70
     1
102
RTVSPropertyOp18
 70
     1
102
RTVSPropertyOp19
 70
     1
102
RTVSPropertyOp20
 70
     1
102
RTVSPropertyOp21
 70
     1
102
RTVSPropertyOp22
 70
     1
102
RTVSPropertyOp23
 70
     1
102
RTVSPropertyOp24
 70
     1
102
RTVSPropertyOp25
 70
     1
102
RTVSPropertyOp26
 70
     1
102
RTVSPropertyOp27
 70
     1
  0
XRECORD
  5
FF1
102
{ACAD_REACTORS
330
FF0
102
}
330
FF0
100
AcDbXrecord
280
     1
102
RTVSPropertyOp0
 70
     1
102
RTVSPropertyOp1
 70
     1
102
RTVSPropertyOp2
 70
     1
102
RTVSPropertyOp3
 70
     1
102
RTVSPropertyOp4
 70
     1
102
RTVSPropertyOp5
 70
     1
102
RTVSPropertyOp6
 70
     1
102
RTVSPropertyOp7
 70
     1
102
RTVSPropertyOp8
 70
     1
102
RTVSPropertyOp9
 70
     1
102
RTVSPropertyOp10
 70
     1
102
RTVSPropertyOp11
 70
     1
102
RTVSPropertyOp12
 70
     1
102
RTVSPropertyOp13
 70
     1
102
RTVSPropertyOp14
 70
     1
102
RTVSPropertyOp15
 70
     1
102
RTVSPropertyOp16
 70
     1
102
RTVSPropertyOp17
 70
     1
102
RTVSPropertyOp18
 70
     1
102
RTVSPropertyOp19
 70
     1
102
RTVSPropertyOp20
 70
     1
102
RTVSPropertyOp21
 70
     1
102
RTVSPropertyOp22
 70
     1
102
RTVSPropertyOp23
 70
     1
102
RTVSPropertyOp24
 70
     1
102
RTVSPropertyOp25
 70
     1
102
RTVSPropertyOp26
 70
     1
102
RTVSPropertyOp27
 70
     1
  0
XRECORD
  5
FF3
102
{ACAD_REACTORS
330
FF2
102
}
330
FF2
100
AcDbXrecord
280
     1
102
RTVSPropertyOp0
 70
     1
102
RTVSPropertyOp1
 70
     1
102
RTVSPropertyOp2
 70
     1
102
RTVSPropertyOp3
 70
     1
102
RTVSPropertyOp4
 70
     1
102
RTVSPropertyOp5
 70
     1
102
RTVSPropertyOp6
 70
     1
102
RTVSPropertyOp7
 70
     1
102
RTVSPropertyOp8
 70
     1
102
RTVSPropertyOp9
 70
     1
102
RTVSPropertyOp10
 70
     1
102
RTVSPropertyOp11
 70
     1
102
RTVSPropertyOp12
 70
     1
102
RTVSPropertyOp13
 70
     1
102
RTVSPropertyOp14
 70
     1
102
RTVSPropertyOp15
 70
     1
102
RTVSPropertyOp16
 70
     1
102
RTVSPropertyOp17
 70
     1
102
RTVSPropertyOp18
 70
     1
102
RTVSPropertyOp19
 70
     1
102
RTVSPropertyOp20
 70
     1
102
RTVSPropertyOp21
 70
     1
102
RTVSPropertyOp22
 70
     1
102
RTVSPropertyOp23
 70
     1
102
RTVSPropertyOp24
 70
     1
102
RTVSPropertyOp25
 70
     1
102
RTVSPropertyOp26
 70
     1
102
RTVSPropertyOp27
 70
     1
  0
XRECORD
  5
FF5
102
{ACAD_REACTORS
330
FF4
102
}
330
FF4
100
AcDbXrecord
280
     1
102
RTVSPropertyOp0
 70
     1
102
RTVSPropertyOp1
 70
     1
102
RTVSPropertyOp2
 70
     1
102
RTVSPropertyOp3
 70
     1
102
RTVSPropertyOp4
 70
     1
102
RTVSPropertyOp5
 70
     1
102
RTVSPropertyOp6
 70
     1
102
RTVSPropertyOp7
 70
     1
102
RTVSPropertyOp8
 70
     1
102
RTVSPropertyOp9
 70
     1
102
RTVSPropertyOp10
 70
     1
102
RTVSPropertyOp11
 70
     1
102
RTVSPropertyOp12
 70
     1
102
RTVSPropertyOp13
 70
     1
102
RTVSPropertyOp14
 70
     1
102
RTVSPropertyOp15
 70
     1
102
RTVSPropertyOp16
 70
     1
102
RTVSPropertyOp17
 70
     1
102
RTVSPropertyOp18
 70
     1
102
RTVSPropertyOp19
 70
     1
102
RTVSPropertyOp20
 70
     1
102
RTVSPropertyOp21
 70
     1
102
RTVSPropertyOp22
 70
     1
102
RTVSPropertyOp23
 70
     1
102
RTVSPropertyOp24
 70
     1
102
RTVSPropertyOp25
 70
     1
102
RTVSPropertyOp26
 70
     1
102
RTVSPropertyOp27
 70
     1
  0
XRECORD
  5
100F
102
{ACAD_REACTORS
330
100E
102
}
330
100E
100
AcDbXrecord
280
     1
102
RTVSPropertyOp0
 70
     0
102
RTVSPropertyOp1
 70
     0
102
RTVSPropertyOp2
 70
     0
102
RTVSPropertyOp3
 70
     0
102
RTVSPropertyOp4
 70
     0
102
RTVSPropertyOp5
 70
     0
102
RTVSPropertyOp6
 70
     0
102
RTVSPropertyOp7
 70
     0
102
RTVSPropertyOp8
 70
     0
102
RTVSPropertyOp9
 70
     0
102
RTVSPropertyOp10
 70
     0
102
RTVSPropertyOp11
 70
     0
102
RTVSPropertyOp12
 70
     0
102
RTVSPropertyOp13
 70
     0
102
RTVSPropertyOp14
 70
     2
102
RTVSPropertyOp15
 70
     0
102
RTVSPropertyOp16
 70
     0
102
RTVSPropertyOp17
 70
     0
102
RTVSPropertyOp18
 70
     0
102
RTVSPropertyOp19
 70
     0
102
RTVSPropertyOp20
 70
     0
102
RTVSPropertyOp21
 70
     0
102
RTVSPropertyOp22
 70
     0
102
RTVSPropertyOp23
 70
     0
102
RTVSPropertyOp24
 70
     0
102
RTVSPropertyOp25
 70
     0
102
RTVSPropertyOp26
 70
     0
102
RTVSPropertyOp27
 70
     0
  0
XRECORD
  5
1009
102
{ACAD_REACTORS
330
1008
102
}
330
1008
100
AcDbXrecord
280
     1
102
RTVSPropertyOp0
 70
     1
102
RTVSPropertyOp1
 70
     1
102
RTVSPropertyOp2
 70
     1
102
RTVSPropertyOp3
 70
     1
102
RTVSPropertyOp4
 70
     1
102
RTVSPropertyOp5
 70
     1
102
RTVSPropertyOp6
 70
     1
102
RTVSPropertyOp7
 70
     1
102
RTVSPropertyOp8
 70
     1
102
RTVSPropertyOp9
 70
     1
102
RTVSPropertyOp10
 70
     1
102
RTVSPropertyOp11
 70
     1
102
RTVSPropertyOp12
 70
     1
102
RTVSPropertyOp13
 70
     1
102
RTVSPropertyOp14
 70
     1
102
RTVSPropertyOp15
 70
     1
102
RTVSPropertyOp16
 70
     1
102
RTVSPropertyOp17
 70
     1
102
RTVSPropertyOp18
 70
     1
102
RTVSPropertyOp19
 70
     1
102
RTVSPropertyOp20
 70
     1
102
RTVSPropertyOp21
 70
     1
102
RTVSPropertyOp22
 70
     1
102
RTVSPropertyOp23
 70
     1
102
RTVSPropertyOp24
 70
     1
102
RTVSPropertyOp25
 70
     1
102
RTVSPropertyOp26
 70
     1
102
RTVSPropertyOp27
 70
     1
  0
XRECORD
  5
1011
102
{ACAD_REACTORS
330
1010
102
}
330
1010
100
AcDbXrecord
280
     1
102
RTVSPropertyOp0
 70
     0
102
RTVSPropertyOp1
 70
     0
102
RTVSPropertyOp2
 70
     0
102
RTVSPropertyOp3
 70
     0
102
RTVSPropertyOp4
 70
     0
102
RTVSPropertyOp5
 70
     0
102
RTVSPropertyOp6
 70
     0
102
RTVSPropertyOp7
 70
     0
102
RTVSPropertyOp8
 70
     0
102
RTVSPropertyOp9
 70
     0
102
RTVSPropertyOp10
 70
     0
102
RTVSPropertyOp11
 70
     0
102
RTVSPropertyOp12
 70
     0
102
RTVSPropertyOp13
 70
     0
102
RTVSPropertyOp14
 70
     2
102
RTVSPropertyOp15
 70
     0
102
RTVSPropertyOp16
 70
     0
102
RTVSPropertyOp17
 70
     0
102
RTVSPropertyOp18
 70
     0
102
RTVSPropertyOp19
 70
     0
102
RTVSPropertyOp20
 70
     0
102
RTVSPropertyOp21
 70
     0
102
RTVSPropertyOp22
 70
     0
102
RTVSPropertyOp23
 70
     0
102
RTVSPropertyOp24
 70
     0
102
RTVSPropertyOp25
 70
     0
102
RTVSPropertyOp26
 70
     0
102
RTVSPropertyOp27
 70
     0
  0
XRECORD
  5
1001
102
{ACAD_REACTORS
330
1000
102
}
330
1000
100
AcDbXrecord
280
     1
102
RTVSPropertyOp0
 70
     1
102
RTVSPropertyOp1
 70
     1
102
RTVSPropertyOp2
 70
     1
102
RTVSPropertyOp3
 70
     1
102
RTVSPropertyOp4
 70
     1
102
RTVSPropertyOp5
 70
     1
102
RTVSPropertyOp6
 70
     1
102
RTVSPropertyOp7
 70
     1
102
RTVSPropertyOp8
 70
     1
102
RTVSPropertyOp9
 70
     1
102
RTVSPropertyOp10
 70
     1
102
RTVSPropertyOp11
 70
     1
102
RTVSPropertyOp12
 70
     1
102
RTVSPropertyOp13
 70
     1
102
RTVSPropertyOp14
 70
     1
102
RTVSPropertyOp15
 70
     1
102
RTVSPropertyOp16
 70
     1
102
RTVSPropertyOp17
 70
     1
102
RTVSPropertyOp18
 70
     1
102
RTVSPropertyOp19
 70
     1
102
RTVSPropertyOp20
 70
     1
102
RTVSPropertyOp21
 70
     1
102
RTVSPropertyOp22
 70
     1
102
RTVSPropertyOp23
 70
     1
102
RTVSPropertyOp24
 70
     1
102
RTVSPropertyOp25
 70
     1
102
RTVSPropertyOp26
 70
     1
102
RTVSPropertyOp27
 70
     1
  0
XRECORD
  5
1007
102
{ACAD_REACTORS
330
1006
102
}
330
1006
100
AcDbXrecord
280
     1
102
RTVSPropertyOp0
 70
     1
102
RTVSPropertyOp1
 70
     1
102
RTVSPropertyOp2
 70
     1
102
RTVSPropertyOp3
 70
     1
102
RTVSPropertyOp4
 70
     1
102
RTVSPropertyOp5
 70
     1
102
RTVSPropertyOp6
 70
     1
102
RTVSPropertyOp7
 70
     1
102
RTVSPropertyOp8
 70
     1
102
RTVSPropertyOp9
 70
     1
102
RTVSPropertyOp10
 70
     1
102
RTVSPropertyOp11
 70
     1
102
RTVSPropertyOp12
 70
     1
102
RTVSPropertyOp13
 70
     1
102
RTVSPropertyOp14
 70
     1
102
RTVSPropertyOp15
 70
     1
102
RTVSPropertyOp16
 70
     1
102
RTVSPropertyOp17
 70
     1
102
RTVSPropertyOp18
 70
     1
102
RTVSPropertyOp19
 70
     1
102
RTVSPropertyOp20
 70
     1
102
RTVSPropertyOp21
 70
     1
102
RTVSPropertyOp22
 70
     1
102
RTVSPropertyOp23
 70
     1
102
RTVSPropertyOp24
 70
     1
102
RTVSPropertyOp25
 70
     1
102
RTVSPropertyOp26
 70
     1
102
RTVSPropertyOp27
 70
     1
  0
ENDSEC
  0
EOF
